#TITLE:MAX 340;
#SUBTITLE:;
#ARTIST:Bon;
#TITLETRANSLIT:;
#SUBTITLETRANSLIT:;
#ARTISTTRANSLIT:;
#CREDIT:;
#BANNER:Max 340 ban.PNG;
#BACKGROUND:Max 340 bg.PNG;
#LYRICSPATH:;
#CDTITLE:cdtitle.png;
#MUSIC:max340.mp3;
#OFFSET:-0.540;
#SAMPLESTART:17.627;
#SAMPLELENGTH:12.000;
#SELECTABLE:YES;
#BPMS:0.000=160.001,16.000=162.001,32.000=340.000,100.000=158.000,116.000=160.000,132.000=170.000,147.250=140.000,148.000=339.999,316.000=680.014,325.000=641.994,325.250=633.574,325.500=625.574,325.750=621.574,326.000=616.774,326.250=612.775,326.500=609.575,326.750=607.175,327.000=603.975,327.250=602.375,327.500=599.175,327.750=596.775,328.000=595.975,328.250=588.775,328.500=574.375,328.750=571.975,329.000=567.175,329.250=522.376,329.500=499.176,329.750=478.377,330.000=462.377,330.250=454.377,330.750=392.778,331.000=387.178,331.250=357.918,332.000=343.898,332.250=329.499,332.500=315.099,332.750=302.299,333.000=273.499,333.250=246.300,333.500=217.480,333.750=191.899,334.000=131.659,334.250=119.099,334.500=107.439,334.750=92.019,335.250=59.999,335.500=50.779,335.750=29.999,336.000=339.999,472.000=339.979,472.250=339.379,472.500=339.179,472.750=338.979,473.000=338.779,473.250=338.578,473.500=337.178,473.750=335.578,474.000=332.379,474.250=329.179,474.500=327.579,474.750=325.179,475.000=322.779,475.250=321.179,475.500=318.779,475.750=317.179,476.000=313.979;
#STOPS:335.917=0.100
,472.000=0.800
;
#BGCHANGES:;
// cache tags:
#FIRSTBEAT:0.000;
#LASTBEAT:476.000;
#SONGFILENAME:Songs/IzzySM Keyboard Mega Pack/Max 340 - djsmalls/blankdwifile.sm;
#HASMUSIC:1;
#HASBANNER:1;
#MUSICLENGTH:106.416;
// end cache tags

//---------------dance-single - ----------------
#NOTES:
     dance-single:
     :
     Hard:
     11:
     1.000,1.000,1.000,0.047,0.418,875.000,175.000,5.000,0.000,5.000:
1000
0100
1000
0100
1000
0010
0001
0010
0001
0010
0100
0010
0100
1000
0100
1000
,
0100
0010
0001
0010
0001
0010
0100
0010
0100
1000
0100
1000
0100
0001
0010
0100
,
0010
1000
0100
0010
0001
0010
0100
0010
0001
0010
0100
1000
0100
0010
0100
1000
,
0100
0010
0001
1000
0100
0010
0001
0001
0010
0100
1000
0001
0010
0100
1000
0010
,
0100
0000
1001
0000
0110
0011
0000
0101
1010
0000
0110
0000
1001
0110
0000
0011
,
0101
0000
1100
0000
1010
0101
0000
0110
1001
0000
0110
0000
0210
0000
0300
0000
,
1100
0000
0110
0000
0011
0110
0000
1100
0110
0000
0011
0000
0110
1001
0000
1001
,
0100
0010
0001
0000
0000
0000
1000
0100
0010
0000
0000
0000
0001
0010
0100
0000
1000
0000
0100
0000
0001
0000
0010
0000
0100
0000
0010
0000
1000
0000
0010
0000
,
1000
0100
0010
0001
1000
0100
0010
0001
,
0001
0010
0100
1000
0001
0010
0100
1000
,
0100
0010
0001
0010
0100
1000
0100
0010
,
0001
0100
1000
0100
1000
0010
0001
0010
,
0001
1000
0100
0001
0010
0100
0010
1000
,
0010
0100
0010
0001
0010
0100
0001
0100
,
1000
0100
0010
0001
0010
0100
0010
0001
,
0010
0100
1000
0010
0100
0010
0001
0010
,
0100
0010
1000
0010
1001
0100
0011
0010
,
1100
0010
0011
0100
1001
0010
1100
0010
,
0011
0010
0110
0100
1100
1000
1100
0100
,
0110
0010
0011
0010
0110
1000
0011
0100
,
1001
0100
0010
0001
0010
0100
0010
1000
,
0010
0100
0010
0001
0010
0100
0010
0001
,
1000
0010
0001
0010
0100
0001
0010
1000
,
0100
0010
0001
0100
0010
0001
0100
0010
,
0100
1000
0001
0010
0100
0010
0100
1000
,
1001
0100
0010
0001
0010
0100
1000
0010
,
0001
0010
1000
0100
0001
0010
0100
0010
,
1000
0100
0010
0001
0010
0100
0010
0001
,
0010
0100
1000
0010
0100
0001
0010
0100
1000
0010
0100
0001
0010
0100
1000
0010
,
0100
0010
0001
0010
0100
0010
0001
0010
,
0100
1000
0100
0010
0100
1000
0100
0010
,
0001
0100
0010
0100
1000
0010
0100
0010
,
0001
0000
0010
0000
0100
0000
0010
0000
1000
0100
0010
0001
0010
0100
0001
0010
,
2002
0000
0000
0000
,
3003
0000
0100
1000
0000
0100
0000
0010
0000
0000
1000
0100
0000
0010
0000
0001
,
0000
0000
0001
0010
0000
0100
0000
1000
0000
0000
1000
0100
0000
0010
0000
0001
,
0000
0000
1000
0100
0000
0010
0000
0001
0000
0000
1000
0001
0000
0010
0100
0000
,
1000
0100
0010
0001
0100
0010
1000
0100
,
0010
0001
0100
0010
1000
0100
0010
0001
,
1000
0100
1000
0100
1000
0100
1000
0100
,
0010
0001
0010
0001
0010
0001
0010
0001
,
0100
0010
0100
0010
0100
0010
0100
0010
,
1000
0001
1000
0000
0000
0000
0000
0000
,
1100
0010
1100
0001
1100
0010
1100
0100
,
1010
0100
0011
0100
1010
0100
0011
0001
,
0110
1000
0011
0100
1010
0100
0011
0100
,
1001
0100
0011
0100
1010
0100
0011
0100
,
1010
0110
0011
0110
,
1001
0011
0110
1100
,
0110
0011
0110
1100
,
0110
0000
0011
0000
1100
0110
0011
0000
,
1001
0110
0011
0110
,
1001
0110
1100
0110
,
1001
0000
0000
0000
0101
0000
0000
0000
1000
0100
1000
0100
1000
0000
0110
0000
,
0011
0000
0110
0011
1100
0110
0011
0000
,
1100
0011
1001
0011
,
0110
1001
1100
0110
,
0011
1100
0110
1001
,
0101
0000
1100
0000
0101
1010
0110
0000
,
1001
0110
0011
0110
,
1100
0110
0011
1100
,
0011
0000
0000
0000
1100
0000
0000
0000
0001
0010
0001
0010
0001
0000
0110
0000
,
1100
0000
0110
0011
0110
1001
1010
0000
,
1000
0100
0001
0010
1100
0100
0010
0001
,
0010
0100
1000
0001
1010
0100
0010
1000
,
0100
0010
0001
0010
1100
0010
0001
0010
,
1000
0010
0100
0001
0110
1000
0010
0100
,
0001
0010
0100
1000
0011
0010
0100
0010
,
0001
0010
1000
0001
0110
1000
0100
0010
,
0001
1000
0100
0001
1010
0100
1000
0100
,
0001
0010
0100
1000
0110
0001
0100
0010
,
1000
0010
0010
0100
0011
1000
0100
0001
,
0010
0100
0001
0010
1100
0010
0001
0010
,
0100
0001
0010
1000
0110
0001
0100
0010
,
1000
0100
0001
0010
0101
1000
0010
0100
,
0001
0010
0100
0010
1001
0100
0001
0100
,
1000
0100
0010
0001
1100
0100
0010
0001
,
1000
0100
0010
0001
0010
0100
0001
0100
,
1000
0010
0100
0010
0001
0010
0100
1000
,
1000
0100
1000
0100
1000
0100
1000
0100
,
1000
0100
1000
0100
1000
0100
1000
0100
,
1000
0100
0010
0001
0010
0001
0010
0001
,
0010
0001
0010
0001
0010
0001
0010
0001
,
0010
0000
0001
0000
0010
0000
0000
1000
0000
0100
0000
0010
0000
0001
0000
0000
,
1100
0010
0001
0010
0100
0010
0001
1000
,
0100
0010
0100
0001
0010
0100
1000
0001
,
0100
1000
0001
0100
0010
1000
0010
0100
,
0001
1000
0010
0100
0001
0010
0100
0010
,
0001
0010
0100
1000
0010
0100
0001
0010
,
0100
1000
0100
0010
0001
0100
0010
1000
,
0010
0001
0100
0010
1000
0001
0010
0100
,
1000
0001
0010
0100
1000
0010
0100
0010
,
0001
0100
1000
0001
0010
0100
0010
1000
,
0001
0100
0010
1000
0010
0001
0100
0010
,
1000
0001
0100
0010
0001
0010
0100
1000
,
0010
0100
0001
0010
0100
0001
1000
0010
,
0100
0010
0001
0010
0100
1000
0001
0010
,
0100
0010
0001
1000
0010
0100
0010
0001
,
0100
0010
1000
0001
0100
0010
0001
0010
,
0100
0001
0010
1000
0001
0010
0100
0001
,
1000
0100
0001
0010
0100
1000
0010
0001
,
0100
0010
1000
0001
0100
0010
1000
0010
,
0100
0010
0001
0010
0100
0010
1000
0100
,
0001
0010
0100
0010
1000
0100
0001
0010
,
0100
1000
0001
0100
0010
1000
0100
0010
,
0001
0010
0100
0001
0010
1000
0100
0010
,
0001
0000
1100
0000
0000
0110
0000
0000
,
0011
0000
0000
1100
0000
0000
0011
0000
,
0000
0000
1100
0000
0000
0011
0000
0000
,
0110
0000
0000
1100
0000
0000
0110
0000
,
0000
0000
1100
0000
0000
0110
0000
0000
,
0011
0000
0000
0110
0000
0000
1100
0000
,
0000
0000
0101
0000
0000
1010
0000
0000
,
1001
0000
0000
0110
0000
0000
0101
0000
,
0000
0000
0111
0000
0000
1110
0000
0000
,
1011
0000
0000
1101
0000
0000
0111
0000
,
0110
0000
0000
0011
0000
0000
1100
0000
,
0000
0110
0000
0000
1001
0110
0000
0000
,
2002
0000
0000
0000
,
3003
0000
0000
0000
;
