#TITLE:Tension;
#SUBTITLE:;
#ARTIST:Inspector K;
#TITLETRANSLIT:;
#SUBTITLETRANSLIT:;
#ARTISTTRANSLIT:;
#CREDIT:;
#BANNER:Tension.png;
#BACKGROUND:Tension-bg.png;
#LYRICSPATH:;
#CDTITLE:wmagetitle.png;
#MUSIC:Tension.mp3;
#OFFSET:-1.691;
#SAMPLESTART:39.011;
#SAMPLELENGTH:12.000;
#SELECTABLE:YES;
#BPMS:0.000=90.000,16.000=180.000,112.000=45.000,114.000=180.000,178.000=90.000,194.000=180.000,226.000=45.000,227.625=180.000;
#STOPS:227.625=0.360
;
#BGCHANGES:;
// cache tags:
#FIRSTBEAT:0.000;
#LASTBEAT:296.000;
#SONGFILENAME:Songs/StepmaniaFreak's Favorites/Tension/Tension.sm;
#HASMUSIC:1;
#HASBANNER:1;
#MUSICLENGTH:116.328;
// end cache tags

//---------------dance-single - ----------------
#NOTES:
     dance-single:
     :
     Hard:
     11:
     1.000,1.000,0.249,0.559,1.000,971.000,29.000,65.000,0.000,0.000:
1000
0000
1000
0001
1000
0000
1000
0000
0000
0000
1000
0000
1000
0000
0010
0000
0000
0000
0000
0000
0000
0000
0000
0000
0100
0000
0000
0000
1000
0000
0000
0000
,
0001
0000
0001
1000
0001
0000
0001
0000
0000
0000
0001
0000
0001
0000
0010
0000
0000
0000
0000
0000
0000
0000
0001
0000
0100
0010
0000
0000
1000
0000
1000
0000
,
0001
0000
0001
0000
0001
0000
0001
1000
0001
0000
0001
0000
0000
0000
1000
0000
0000
0000
0000
0000
0000
0000
0001
0000
0100
0000
0010
0000
0100
0000
0001
0000
,
0010
0000
0010
0000
0010
0100
0010
0000
0000
0000
0010
0000
0010
0000
0001
0000
0000
0000
0000
0000
0000
0000
0001
1000
0001
0000
0010
0000
0100
0000
0010
0000
,
0001
0000
0010
0100
1000
0000
0010
0100
0010
0000
1000
0100
0010
0000
0001
1000
,
0010
0000
0100
0001
1000
0000
0100
0010
0001
0000
1000
0010
0100
0000
0010
1000
,
0101
0000
0001
0100
0001
0000
0010
0100
1000
0000
0001
0100
0001
0000
1000
0010
,
0100
0000
0010
1000
0001
0000
0010
0100
1001
0000
0010
0100
1001
0000
0110
1000
,
0001
0000
1000
0100
0010
0000
0001
1000
0010
0000
0101
0010
1000
0000
0011
0100
,
1000
0000
0010
0100
0010
0000
0100
1000
0010
0100
0010
1000
0100
0000
0010
0001
,
1100
0000
0010
0001
1000
0000
0100
0010
1001
0000
0010
0001
0100
0000
0010
1000
,
2002
0000
0000
0000
3003
0000
0000
0000
0001
1000
0001
1000
0001
1000
0001
1000
,
0001
0010
0100
0000
0010
0100
1000
0010
0100
0000
0010
1000
0001
0100
0010
0000
,
1000
0001
0100
0000
0010
1000
0001
0100
0010
0000
0100
0001
1000
0100
0010
0000
,
0001
1000
0010
0000
0100
0001
1000
0100
1000
0000
0001
0100
0001
1000
0100
0000
,
0010
0000
0001
0000
1000
0000
0000
0000
0010
0000
0100
0000
0010
0000
1000
0000
0100
0000
0000
0000
0010
0000
0001
1000
0001
0000
0100
0000
0010
0000
0000
0000
,
1000
0001
0100
0000
0010
1000
0100
1000
0001
0000
0100
0001
1000
0001
0010
0000
,
0100
1000
0001
0000
0100
0010
1000
0100
1000
0000
0010
0100
0001
0010
0001
0000
,
1000
0100
1000
0000
0010
0100
0001
1000
0001
0000
0100
0001
1000
0100
1000
0000
,
0010
0000
0001
0000
0100
0000
0000
0000
0010
0000
1000
0000
0001
0000
0010
0000
0100
0000
0000
0000
1000
0000
0010
0100
0010
0000
1000
0000
0100
0000
0010
0000
,
1001
0001
1010
0001
0000
0001
1100
0010
,
0000
0010
0101
1000
0000
1000
0101
0010
,
1001
0100
0011
1000
0000
1000
0101
0010
,
0000
0000
0000
0000
0010
0000
0000
0000
1001
0000
0000
0000
0100
0000
0000
0000
0000
0000
0000
0000
0010
0000
1000
0100
1000
0000
0000
0000
0001
0000
0000
0000
,
0110
0000
0110
0000
1000
0000
0001
0100
0001
0000
1000
0000
0011
0000
0100
0000
,
0000
0100
0011
1000
0000
0100
1010
0001
,
1001
0000
0001
1000
0001
0000
0001
0000
0000
0000
0001
0010
0001
0000
1000
0000
,
0000
0000
0000
0000
0010
0000
0100
0000
0010
0000
0000
0000
1000
0000
0001
0000
1000
0000
0000
0000
0010
0000
0100
0001
0100
0000
0000
0000
0000
0000
0000
0000
,
1001
0000
0000
0000
0001
0001
0000
0000
0000
0000
0000
0000
1000
1000
0000
0000
0001
0000
0100
0000
0010
0000
1000
0000
0100
0000
1000
0000
0010
0000
0100
0000
,
0001
1000
0100
1000
0010
0100
0010
1000
0001
0010
0100
0010
0001
1000
0100
0010
,
0001
1000
0010
0100
0010
1000
0100
1000
0001
0100
0010
0100
0001
1000
0100
1000
,
0010
0100
0001
0010
0001
0100
0010
1000
0100
1000
0001
0100
0001
0010
0100
1000
,
0001
0000
0100
0000
0010
0000
1000
0100
1000
0000
0001
0000
0100
0000
0010
0000
1000
0000
0001
0000
0010
0000
0100
0000
0010
0000
0001
0000
1000
0000
0100
0000
,
0010
0001
1000
0010
0100
0001
1000
0100
1000
0001
0100
0010
1000
0001
0010
0100
,
0010
0001
0100
0010
1000
0100
0010
0100
1000
0001
0100
0010
0100
0001
0010
0100
,
0010
0001
1000
0100
0010
0100
1000
0010
0100
0001
1000
0100
0010
0001
0100
0010
,
1000
0000
0001
0000
0010
0000
0100
1000
0100
0000
0010
0000
0001
0000
1000
0000
0010
0000
0100
0000
0010
0000
1000
0000
0001
0000
0010
0000
0100
0000
0010
0000
,
0001
0100
0010
0100
0001
1000
0100
1000
0010
0100
0010
1000
0100
0010
0001
1000
,
0010
0100
0001
0010
0001
1000
0100
1000
0010
0100
0001
0010
0001
0100
0010
0100
,
0001
1000
0100
1000
0001
0010
0001
0100
0010
0100
0001
1000
0001
0010
0100
0010
,
0001
0000
1000
0000
0010
0000
0100
0001
0100
0000
0010
0000
1000
0000
0001
0000
0010
0000
0100
0000
1000
0000
0001
0000
0100
0000
0010
0000
0100
0000
0001
0000
,
1000
0100
0010
0100
1000
0001
0100
0010
1000
0001
0010
0100
0010
0001
0100
0010
,
1000
0100
1000
0010
0100
0001
1000
0100
0010
0001
1000
0010
0100
0010
1000
0001
,
0010
0100
1000
0001
0100
0010
0100
0001
1000
0100
0010
0001
1000
0010
0100
0001
,
1000
0100
0010
0001
1000
0100
0010
0001
1000
0100
0010
0001
1000
0100
0010
0000
0001
0000
0001
1000
0001
0000
0001
0000
0000
0000
0001
0000
0001
0000
0010
0000
,
0000
0000
0000
0000
0000
0000
0000
0000
0100
0000
0000
0000
1000
0000
0000
0000
0010
0000
0010
0100
0010
0000
0010
0000
0000
0000
0010
0000
0010
0000
0100
0000
,
0000
0000
0000
0000
0000
0000
0001
0000
0000
0100
0000
0000
0010
0000
1000
0000
0001
0000
0001
1000
0001
0000
0010
0100
0010
0000
0001
0000
0000
0000
1000
0000
,
0000
0000
0000
0000
0000
0000
0001
0000
0010
0000
0100
0000
0010
0000
0001
0000
1000
0000
1000
0001
1000
0001
1000
0000
0010
0100
0010
0100
0010
0000
0100
0000
,
0000
0000
0000
0000
0000
0000
0001
0100
0001
0000
0010
0000
0100
0000
0000
0000
2000
0000
0000
0000
3200
0000
0000
0000
0320
0000
0000
0000
0230
0000
0000
0000
,
2300
3002
0203
0320
0230
0302
2003
3200
,
2300
3020
0230
0000
0302
2003
3200
2300
,
3020
0230
0302
0203
0320
2030
3200
0320
,
0032
0203
0320
0000
2030
3200
2300
3002
,
0203
0320
2030
3002
0023
0230
0320
0032
,
2003
3020
0230
0000
0302
2003
3200
2300
,
3020
0230
0302
2003
3200
2300
3020
2030
,
3002
0000
0000
0000
2003
0000
0000
0000
3020
0000
0000
0000
2030
0000
0000
3000
1001
1001
0000
0000
1000
1000
0000
0000
0000
0000
0000
0000
0001
0001
0000
0000
,
1001
0010
0100
0001
1000
0100
0010
0100
1000
0010
0100
0001
0010
0100
0010
0001
,
1000
0010
0100
0010
1000
0001
0010
0001
0100
0010
1000
0100
0010
0100
1000
0001
,
0100
0010
1000
0001
0010
0001
0100
0010
1000
0100
0010
0100
1000
0001
0010
0100
,
0010
0000
0001
0000
0100
0000
0010
0000
1000
0000
0001
0000
0010
0000
0100
0000
1000
0000
0001
0000
0100
0000
0010
1000
0010
0000
0100
0000
0001
0000
1000
0000
,
0001
0010
0100
0010
0001
0100
0010
1000
0001
0010
0001
0100
0010
0100
0001
1000
,
0100
1000
0010
1000
0001
0010
0001
0100
0001
1000
0010
0100
0001
0010
0100
1000
,
0001
0100
0010
0100
0001
0010
0100
1000
0001
0100
0010
0100
0001
0010
0001
0100
,
0010
0000
1000
0000
0001
0000
0010
0000
0001
0000
0100
0000
0010
0000
1000
0000
0001
0000
1000
0000
0010
0000
0100
0001
0100
0000
0010
0000
1000
0000
0001
0000
,
0010
0001
0100
0010
1000
0100
1000
0010
0100
0001
0010
0001
1000
0010
0100
0010
,
1000
0001
0100
0001
0010
0001
0100
0001
1000
0010
0100
0010
1000
0100
0010
0001
,
1000
0010
0100
0010
1000
0001
0010
0001
0100
0010
1000
0100
1000
0001
0010
0001
,
1000
0000
0010
0000
0100
0000
0001
0000
0010
0000
0100
0000
0010
0000
0001
0000
0100
0000
0010
0000
1000
0000
0010
0100
0010
0000
1000
0000
0001
0000
1000
0000
,
0010
0100
0001
0010
0001
0100
0010
1000
0100
0010
0100
1000
0001
0010
0100
0010
,
0001
0100
0010
1000
0001
0010
0001
0100
0010
1000
0001
0010
0100
1000
0001
0100
,
0010
1000
0001
0010
0001
0100
0010
1000
0100
0010
0100
1000
0010
0100
0001
0010
,
0001
0000
0100
0000
0010
0000
1000
0000
0100
0000
0010
0000
0100
0000
1000
0000
0001
0010
0100
1000
0001
0010
0100
1000
0001
0010
0100
1000
0001
0010
0100
0000
,
2002
0000
0000
0000
,
3003
0000
0000
0000
;
