#TITLE:Amnesia!!;
#SUBTITLE:Tekken 5 Dark Resurrection;
#ARTIST:Riow Arai/NAMCO;
#TITLETRANSLIT:;
#SUBTITLETRANSLIT:;
#ARTISTTRANSLIT:;
#CREDIT:;
#BANNER:AMNESIA-bn.png;
#BACKGROUND:AMNESIA-bg.png;
#LYRICSPATH:;
#CDTITLE:audioslave'sRevenge-cdtitle.png;
#MUSIC:09 - Amnesia.mp3;
#OFFSET:-3.720;
#SAMPLESTART:27.993;
#SAMPLELENGTH:12.000;
#SELECTABLE:YES;
#BPMS:0.000=149.130;
#STOPS:;
#BGCHANGES:;
// cache tags:
#FIRSTBEAT:0.250;
#LASTBEAT:147.750;
#SONGFILENAME:Songs/toune/Amnesia!!/amnesia.sm;
#HASMUSIC:1;
#HASBANNER:1;
#MUSICLENGTH:67.683;
// end cache tags

//---------------dance-single - ----------------
#NOTES:
     dance-single:
     :
     Hard:
     9:
     0.599,0.491,0.089,0.044,1.000,275.000,6.000,3.000,0.000,0.000:
0000
0100
0000
0010
0000
0100
0000
0001
0000
0100
0000
0010
0000
0100
0000
0001
,
0000
0100
0000
1000
0000
0100
0000
1000
0000
0100
0000
0010
0000
0000
0000
0010
,
0000
0100
0000
0001
0000
1000
0000
0010
0000
0100
0000
0001
0000
0100
0000
0010
,
0000
1000
0000
0100
0000
1000
0000
0101
0000
0001
0000
0100
0000
0010
0000
0010
,
0000
0000
0100
0010
0000
0000
0001
0100
0000
0000
0100
0001
0000
0100
0010
0100
,
0000
0000
1000
0010
0000
0000
1000
0100
0000
0000
0100
0010
0000
0010
0100
0001
,
0000
0000
0100
0010
0000
0000
0000
1100
0000
0000
0001
0100
0000
1000
0100
0010
,
0000
0000
0000
0101
0000
0000
0100
0010
0000
0000
1000
0100
0000
0000
0000
0001
,
0000
0100
0000
0100
0000
0001
0000
0100
0000
0010
0000
1000
0000
0000
0100
1000
,
0000
0000
0001
0100
0000
0000
0100
0000
0000
0010
0100
0001
0000
0000
0100
0001
,
0000
0100
0000
0010
0000
1000
0000
0100
0000
0100
0001
0000
0000
0100
0000
0100
,
0000
0000
0000
0000
0000
0000
0010
0000
0000
0000
0000
0000
0000
0000
0001
0000
0000
0000
0000
0000
0000
0000
0000
0000
0100
0000
0000
0000
0000
0000
1000
0000
0000
0001
0000
0000
0000
0000
0000
0000
0000
0000
0000
0000
0000
1000
0000
0000
,
0000
0100
0000
1000
0000
0010
0000
0100
0000
0010
0000
0100
0000
0000
0001
0100
,
0000
0000
0000
0010
0000
0100
0000
1000
0000
0100
0000
1000
0000
0000
0010
1000
,
0000
0000
0000
0100
0000
0010
0000
0100
0000
0001
0000
0100
0000
0000
0000
0001
,
0000
0010
0000
0100
0000
0000
1000
0100
0000
1000
0000
0100
0000
0001
0000
0100
,
0000
0010
0000
1000
0000
0000
0100
0100
0000
0000
0001
0001
0000
0000
0010
0100
,
0000
0000
0001
1000
0000
0000
0010
1000
0000
0100
0010
0100
0000
0000
1000
0001
,
0000
0000
0010
0100
0000
0000
0100
0001
0000
0000
1000
0100
0000
0000
0100
1000
,
0000
0000
1000
0100
0000
0000
0000
0001
0000
0100
1000
0001
0000
0001
0010
0100
,
0000
0000
0000
1000
0000
0100
0000
0010
0000
0100
0000
0010
0000
0100
0000
0001
,
0000
0100
0000
1000
0000
0100
0000
1000
0000
0010
0000
0100
0000
0010
0000
0100
,
0000
0001
0000
0100
0000
0010
0000
1000
0000
0010
0000
0100
0000
0001
0000
0000
,
0000
0101
0000
1000
0000
0010
0000
0000
0000
0110
0000
0001
0000
0000
0000
0100
,
0000
0010
0000
1000
0000
0100
0000
1000
0000
0100
0000
0001
0000
0100
0000
0000
,
0000
1000
0000
0100
0000
0001
0000
0100
0000
0010
0000
0100
0000
0001
0000
0000
,
0000
0001
0000
1000
0000
0100
0000
0010
0000
0100
0000
1000
0000
0101
0000
0002
,
0000
0000
0000
0100
0000
0000
0000
0000
0010
0000
0000
1000
0003
0000
0000
0001
,
1000
0001
1000
0001
0000
0000
0000
0100
0000
0000
0000
1000
0000
0000
0000
0100
,
0000
0010
0000
0100
0000
0001
0000
0100
0000
1000
0000
0100
0000
0000
0000
0100
,
1000
0100
1000
0100
0000
0000
0000
0001
0000
0000
0000
0100
0000
0010
0000
0100
,
0000
0001
0000
0100
0000
1000
0000
0100
0000
1000
0000
0001
0000
0100
0000
0010
,
0000
0100
0000
0010
0000
0100
0000
0001
0000
0100
0000
0001
0000
0100
0000
0001
,
0000
0010
0000
0001
0000
0010
0000
0100
0000
0000
0000
0010
0000
1000
0000
1000
,
0000
0010
0000
0100
0000
0010
0000
0100
0000
0001
0000
0100
0000
0010
0000
0000
,
0000
1000
0001
0100
0010
1000
0001
0000
0000
0002
0000
0000
0000
0103
0000
0020
,
0000
0000
0000
1000
0000
0000
0000
0100
0000
0000
0000
1000
0000
0100
0000
0030
;
