#TITLE:Valley of the Damned;
#SUBTITLE:;
#ARTIST:Dragonforce;
#TITLETRANSLIT:;
#SUBTITLETRANSLIT:;
#ARTISTTRANSLIT:;
#CREDIT:B. Abear;
#BANNER:Bn-Valley.png;
#BACKGROUND:Bg-Valley.png;
#LYRICSPATH:;
#CDTITLE:;
#MUSIC:02 - Valley of the Damned.ogg;
#OFFSET:0.754;
#SAMPLESTART:90.276;
#SAMPLELENGTH:18.700;
#SELECTABLE:YES;
#DISPLAYBPM:200.000;
#BPMS:0.000=140.000,32.000=200.000,1216.000=138.000,1340.000=130.000,1350.667=120.000,1352.000=110.000,1353.500=100.000;
#STOPS:;
#BGCHANGES:;
// cache tags:
#FIRSTBEAT:0.375;
#LASTBEAT:1377.000;
#SONGFILENAME:Songs/Dragonforce/Valley of the Damned/Valley of the Damned.sm;
#HASMUSIC:1;
#HASBANNER:1;
#MUSICLENGTH:445.273;
// end cache tags

//---------------dance-single - B. Abear----------------
#NOTES:
     dance-single:
     B. Abear:
     Challenge:
     15:
     1.000,1.000,0.191,0.678,1.000,3425.000,85.000,302.000,153.000,0.000:



0000
0000
0000
000M
0000
0000
0000
0000
0000
0000
0000
0000
0000
0000
0000
M000
0000
0000
0000
0000
0000
0000
0000
0M00
0000
0000
0000
0000
0000
0000
00M0
0000
,
0000
0000
0000
0000
0000
0000
0000
0000
0000
0000
0M00
0000
0000
0000
0000
0000
0000
0000
0000
0000
0000
0000
0000
000M
0M00
0000
0000
0000
0000
0000
0000
0000
,
0000
0000
0000
0000
0000
M000
0000
0000
0000
0000
0000
0000
0000
0000
0000
0000
0000
0000
000M
0000
0000
0000
0000
0000
0000
0000
0000
0000
0000
00M0
0000
0000
,
0000
0000
0000
0000
0000
0000
M000
0000
0000
0000
0000
0000
0000
0000
0000
00M0
,
0000
0000
0000
0000
0000
0M00
0000
0000
0000
0000
0000
0000
0000
0000
0000
0000
0000
0000
0000
0000
0000
0000
0000
0000
0000
000M
0000
0000
0000
0000
0000
0000
,
0000
0000
0000
0000
0000
0000
0000
0000
0000
M000
0000
0000
0000
0000
0000
0000
0000
0000
0000
0000
0000
0000
0000
00M0
0000
0000
0000
0000
0000
0000
0000
0000
,
0000
0000
0000
0000
0000
M000
0000
0000
0000
0000
0000
0000
0000
0000
0000
0000
0000
0000
0000
0000
000M
00M0
0000
0000
0000
0000
0000
0000
0000
0000
0000
0000
,
0000
0000
0000
0000
0000
M000
0000
0000
0000
0000
0000
0000
0000
0000
0000
0000
0000
0000
0000
0000
00M0
0000
0000
0000
0000
0000
0000
0000
0M00
0000
0000
0000
,
1001
0001
0020
0230
1300
1000
0020
0230
,
0301
0001
2000
3200
1300
1000
1001
0100
,
1001
0001
0200
0320
1030
1000
0002
0023
,
0130
0100
2000
3002
1003
1000
1001
0100
,
1001
1000
0002
0023
0130
0100
2000
3002
,
0103
0000
0100
0000
0020
0000
2030
0000
3001
0010
0100
1000
0001
1000
0001
0100
,
0010
0010
2000
3001
0020
0230
1300
0002
,
0103
0010
1000
0001
1000
0001
1000
0001
1000
0001
1000
0001
1000
0001
1000
0000
,
1100
0100
0020
0032
0103
0100
0020
2030
,
3100
0100
2000
3002
0103
0100
1001
0100
,
1010
0010
0200
0302
1003
1000
0200
0320
,
0031
0001
2000
3020
1030
1000
1100
0001
,
0011
0010
0200
2300
3001
0001
0200
0320
,
0130
0000
0100
0000
0002
0000
2003
0000
3100
0010
0001
1000
0001
0100
0001
1000
,
0010
0010
0200
0301
2000
3200
0310
0002
,
1003
0100
1000
0001
1000
0001
1000
0100
1000
0001
1000
0001
0100
0010
0100
0010
,
1000
1001
0002
0000
,
0203
0000
0320
0000
,
0000
0000
2030
0000
,
3200
0000
0320
0000
,
0000
0000
0032
0000
,
2003
0000
3020
0230
,
0302
0000
0000
0000
0000
0000
0000
0000
0000
0000
0000
0000
0000
0000
0000
0000
0000
0000
0000
0000
0000
0000
0000
0000
2003
0000
0000
0000
0000
0000
0000
0000
0000
0000
0000
0000
3200
0000
0000
0000
0300
0000
0100
0000
0000
0010
0000
0000
,
0001
0000
0001
0000
1000
0000
1000
0000
0010
0000
0010
0000
0100
0001
0100
0001
,
2000
0000
3200
0000
,
0320
0000
0032
0000
,
0000
0000
2003
0000
,
3020
0000
0230
0000
,
0000
0000
0302
0000
,
2003
0000
3020
0230
,
0302
0000
0000
0000
0000
0000
0000
0000
2003
0000
0000
0000
3001
0100
0010
1000
,
0001
0000
0001
0000
0010
0000
0010
0000
0100
0000
0100
0000
1000
0001
1000
0010
,
0100
0001
0100
0001
0100
0001
0100
0001
1000
0001
1000
0001
1000
0001
1000
0001
,
0010
M40M
0000
M00M
,
0000
M00M
0000
M00M
,
0000
M00M
0000
M00M
,
0000
M00M
0000
M00M
,
0040
M00M
0000
M00M
,
0000
0000
M00M
0000
0000
0000
M00M
0330
,
2002
0MM0
0000
0MM0
0000
0MM0
0000
0MM3
,
3001
0100
0001
1000
0100
1000
0001
0010
0100
1000
0001
0100
0001
0100
0010
1000
,
0002
0000
1003
0100
0010
0001
1000
0001
,
0202
0000
0003
0000
0301
0000
1002
0000
1003
0100
0010
0001
1000
0010
1000
0001
,
0200
0000
0310
1000
0001
1000
0001
0010
,
0022
0000
0030
0000
0013
0000
0110
0000
0100
1000
0001
1000
0010
0100
0001
1000
,
0002
0000
0013
0100
1000
0001
0010
0001
,
2002
0000
3000
0000
1003
0000
1010
0000
0010
0100
0010
0100
0001
1000
0100
0010
,
0002
0000
0000
0000
1000
0000
0000
0000
0100
0000
0000
0000
1003
0000
0001
0200
,
0010
0000
0000
0000
0010
0000
0000
0000
0310
0000
0010
1000
0001
0000
1000
0000
,
0001
0010
0100
1000
0001
0100
0001
1000
0001
0100
0010
1000
0001
1000
0100
0010
,
0002
0000
1003
0010
1000
0001
2000
0000
3100
0010
0001
1000
0001
0010
0100
1000
,
0002
0000
0103
0010
1000
0001
1000
0010
0100
0001
1000
0100
1000
0001
0010
0100
,
2000
0000
3001
0100
0001
0100
0010
1000
0002
0000
1003
0100
0010
0001
2000
0000
,
3001
0010
0001
1000
0010
1000
0001
1000
0100
0010
0001
1000
0100
1000
0001
0100
,
0002
0000
0103
0010
0100
0001
2000
0000
3001
0010
0001
1000
0001
0010
0100
1000
,
0001
0000
0010
0000
0100
0010
0100
0000
1000
0000
0001
0000
0100
0001
0100
0000
,
0010
1000
0010
1000
0010
1000
0010
1000
0001
1000
0001
1000
0001
0010
0001
0010
,
0100
0000
1000
0000
0001
1000
0001
0000
0100
0000
0010
0000
1000
0010
1000
0000
,
1001
0000
0001
0000
0010
0100
0010
0000
0100
0000
0010
0000
0001
1000
0001
0000
,
1001
0000
1000
0000
0010
0100
0010
0000
0100
0000
0001
0000
1000
0001
1000
0000
,
0002
0000
0000
0000
0000
0000
0023
0000
0000
0000
0000
0000
0130
1000
0001
0100
,
0001
0000
1000
0000
0010
1000
0010
0000
0100
0000
0001
0000
1000
0100
1000
0000
,
0001
0000
0010
0000
0001
1000
0001
0000
0010
0000
0100
0000
1000
0100
1000
0000
,
0001
0100
0001
0100
0001
0100
0001
0100
0010
1000
0001
1000
0010
0100
0001
0100
,
0010
1000
0001
1000
0100
0010
0100
1000
0010
1000
0001
0100
0001
1000
0100
1000
,
0001
0100
0001
0100
0001
0100
0001
0100
0001
0100
0001
0100
0001
0100
0001
0100
,
0020
0000
1030
0001
1000
0100
0020
0000
0031
1000
0001
0100
0020
0000
0230
0000
,
0310
1000
0010
1000
0010
1000
0010
1000
0010
1000
0010
1000
0010
1000
0010
1000
,
0002
0000
0013
0100
1000
0001
2000
0000
3001
0100
0010
1000
0002
0000
0023
0000
,
0130
1000
0100
1000
0100
1000
0100
1000
0100
1000
0100
1000
0100
1000
0100
1000
,
0002
0000
0103
0010
0100
0001
2000
0000
3001
0010
0001
1000
0200
0000
0320
0000
,
0031
1000
0001
1000
0001
1000
0001
1000
0001
1000
0001
1000
0001
1000
0001
1000
,
0010
M11M
0000
0100
M1M1
0000
1MM1
0001
,
1000
0100
1000
0100
1000
0100
1000
0100
1000
0100
1000
0100
1000
0100
1000
0100
,
0020
0000
0031
1000
0001
1000
0020
0000
0130
0001
1000
0001
2000
0000
3200
0000
,
0310
0001
0010
0001
0010
0001
0010
0001
0010
0001
0010
0001
0010
0001
0010
0001
,
2000
0000
3010
0100
0010
1000
0020
0000
0130
0001
1000
0001
0020
0000
0230
0000
,
1300
0001
1000
0001
1000
0001
1000
0001
1000
0001
1000
0001
1000
0001
1000
0001
,
0100
0010
0100
0010
0100
0010
0100
0010
0100
0010
0100
0010
0100
0010
0100
0010
,
1000
0001
1000
0001
1000
0001
1000
0001
1000
0001
0010
0100
1000
0001
0100
0001
,
1000
0001
0100
0010
0100
0010
0100
0010
1000
0001
1000
0001
1000
0001
1000
0001
,
0010
0000
0100
0000
1000
0001
1000
0000
0001
0000
0100
0000
0010
1000
0010
0000
,
1000
0000
0001
0000
1000
0100
1000
0000
0100
0000
0010
0000
0001
0010
0001
0000
,
0011
0000
0010
0000
0100
1000
0100
0000
1000
0000
0001
0000
1000
0001
1000
0000
,
1010
0000
0010
0000
0100
0001
0100
0000
0010
0000
1000
0000
0001
1000
0001
0010
,
0100
0000
1000
0000
0001
1000
0001
0000
0010
0000
0100
0000
1000
0100
1000
0000
,
1100
0000
0100
0000
0010
0001
0010
0000
0001
0000
1000
0000
0010
1000
0010
0000
,
1010
0000
1000
0000
0001
0100
0001
0000
1000
0000
0000
0000
0001
0000
0010
0000
,
0001
0100
0010
1000
0010
1000
0010
1000
0001
0100
0010
1000
0010
1000
0010
1000
,
0001
0000
1000
0000
0100
1000
0100
0000
0010
0000
0001
0000
1000
0010
1000
0000
,
1001
0000
0001
0000
1000
0100
1000
0000
0010
0000
0100
0000
0001
0100
0001
0000
,
0101
0000
0100
0000
0010
1000
0010
0000
1000
0000
0001
0000
1000
0001
1000
0000
,
1100
0000
0100
0000
0010
0001
0010
0000
0100
0000
1000
0000
0001
1000
0001
0000
,
0101
0000
0100
0000
0010
1000
0010
0000
1000
0000
0001
0000
1000
0100
1000
0000
,
0001
0000
1000
0000
0001
0010
0001
0000
1000
0000
0100
0000
1000
0001
1000
0000
,
0010
1000
0010
0100
0001
1000
0010
1000
0001
0010
0100
1000
0100
0010
0100
1000
,
0001
1000
0010
0100
0001
0100
0010
1000
0001
1000
0010
1000
0001
0010
0100
1000
,
0001
0001
2000
3020
0230
0000
0000
0000
,
0302
0000
2003
0000
,
0000
0000
3002
0000
,
0023
0000
0230
0000
,
0000
0000
2300
0000
,
3200
0000
0320
0032
,
2003
0000
0000
0000
0000
0000
0000
0000
3020
0000
0000
0000
0130
0000
0100
0001
,
1000
0000
1000
0000
0001
0000
0001
0000
0010
0000
0010
0000
0100
1000
0001
1000
,
0002
0000
0203
0000
,
0320
0000
2030
0000
,
0000
0000
3002
0000
,
0023
0000
0230
0000
,
0000
0000
2300
0000
,
3002
0000
0000
0000
0000
0000
0000
0000
0203
0000
0000
0000
0310
1000
0001
1000
,
0010
0000
0010
0000
0100
0001
1000
0001
1000
0000
1000
0000
0MM1
0000
1000
0000
,
0100
0000
0100
0000
0010
0001
0010
0001
1000
0001
1000
0001
1000
0010
1000
0010
,
0200
0000
0301
0010
0100
1000
0001
1000
,
2020
0000
3000
0000
1030
0000
2001
0000
3001
0010
0100
1000
0001
0100
0001
1000
,
0020
0000
0130
0001
1000
0001
1000
0100
,
2200
0000
0300
0000
3100
0000
0110
0000
0010
0001
1000
0001
0100
0010
1000
0001
,
2000
0000
3100
0010
0001
1000
0100
1000
,
2002
0000
0003
0000
3001
0000
0101
0000
0100
0010
0100
0010
1000
0001
0010
0100
,
2000
0000
0000
0000
0001
0000
0000
0000
0010
0000
0000
0000
3001
0000
1000
0020
,
0100
0000
0000
0000
0100
0000
0000
0000
0130
0000
0100
0001
1000
0000
0001
0000
,
1000
0100
0010
0001
1000
0010
1000
0001
1000
0010
0100
0001
1000
0001
0010
0100
,
2000
0000
3001
0100
0001
1000
0002
0000
0013
0100
1000
0001
1000
0100
0010
0001
,
2000
0000
3010
0100
0001
1000
0001
0100
0010
1000
0001
0010
0001
1000
0100
0010
,
0002
0000
1003
0010
1000
0010
0100
0001
2000
0000
3001
0010
0100
1000
0002
0000
,
1003
0100
1000
0001
0100
0001
1000
0001
0010
0100
1000
0001
0010
0001
1000
0010
,
2000
0000
3010
0100
0010
1000
0002
0000
1003
0100
1000
0001
1000
0100
0010
0001
,
1000
0000
0100
0000
0010
0100
0010
0000
0001
0000
1000
0000
0010
1000
0010
0000
,
0100
0001
0100
0001
0100
0001
0100
0001
1000
0001
1000
0001
1000
0100
1000
0100
,
0010
0000
0001
0000
1000
0001
1000
0000
0010
0000
0100
0000
0001
0100
0001
0000
,
1001
0000
1000
0000
0100
0010
0100
0000
0010
0000
0100
0000
1000
0001
1000
0000
,
1001
0000
0001
0000
0100
0010
0100
0000
0010
0000
1000
0000
0001
1000
0001
0000
,
2000
0000
0000
0000
0000
0000
3200
0000
0000
0000
0000
0000
0310
0001
1000
0010
,
1000
0000
0001
0000
0100
0001
0100
0000
0010
0000
1000
0000
0001
0010
0001
0000
,
1000
0000
0100
0000
1000
0001
1000
0000
0100
0000
0010
0000
0001
0010
0001
0000
,
1000
0000
0001
0000
1000
0100
1000
0000
0001
0000
0100
0000
0010
1000
0010
0000
,
0100
0001
1000
0001
0010
0100
0010
0001
0100
0001
1000
0010
1000
0001
0010
0001
,
1000
0010
1000
0010
1000
0010
1000
0010
1000
0010
1000
0010
1000
0010
1000
0010
,
0200
0000
0301
1000
0001
0010
0200
0000
1300
0001
1000
0010
0200
0000
0320
0000
,
0130
0001
0100
0001
0100
0001
0100
0001
0100
0001
0100
0001
0100
0001
0100
0001
,
2000
0000
3100
0010
0001
1000
0002
0000
1003
0010
0100
0001
2000
0000
3200
0000
,
0310
0001
0010
0001
0010
0001
0010
0001
0010
0001
0010
0001
0010
0001
0010
0001
,
2000
0000
3010
0100
0010
1000
0002
0000
1003
0100
1000
0001
0020
0000
0230
0000
,
1300
0001
1000
0001
1000
0001
1000
0001
1000
0001
1000
0001
1000
0001
1000
0001
,
0100
M11M
0000
0010
1M1M
0000
1MM1
1000
,
0001
0010
0001
0010
0001
0010
0001
0010
0001
0010
0001
0010
0001
0010
0001
0010
,
0200
0000
1300
0001
1000
0001
0200
0000
0310
1000
0001
1000
0002
0000
0023
0000
,
0130
1000
0100
1000
0100
1000
0100
1000
0100
1000
0100
1000
0100
1000
0100
1000
,
0002
0000
0103
0010
0100
0001
0200
0000
0310
1000
0001
1000
0200
0000
0320
0000
,
0031
1000
0001
1000
0001
1000
0001
1000
0001
1000
0001
1000
0001
1000
0001
1000
,
0010
0100
0010
0100
0010
0100
0010
0100
0010
0100
0010
0100
0010
0100
0010
0100
,
0001
1000
0001
1000
0001
1000
0001
1000
0001
1000
0100
0010
0001
0000
1000
0000
,
0001
1000
0001
1000
0001
1000
0001
1000
0100
0010
0100
0010
0100
0010
0100
0010
,
0001
0000
0010
0000
0001
1000
0001
0000
1000
0000
0010
0000
0100
0001
0100
0000
,
0101
0000
0001
0000
1000
0100
1000
0000
0100
0000
0010
0000
0001
0010
0001
0000
,
0011
0000
0010
0000
0100
1000
0100
0000
1000
0000
0001
0000
1000
0001
1000
0000
,
1010
0000
0010
0000
0100
0001
0100
0000
0010
0000
1000
0000
0001
1000
0001
0010
,
0100
0000
1000
0000
0001
1000
0001
0000
0010
0000
0100
0000
1000
0100
1000
0000
,
1100
0000
0100
0000
0010
0001
0010
0000
0001
0000
1000
0000
0010
1000
0010
0000
,
1010
0000
1000
0000
0001
0100
0001
0000
1000
0000
0000
0000
0001
0000
0010
0000
,
0001
0100
0010
1000
0010
1000
0010
1000
0001
0100
0010
1000
0010
1000
0010
1000
,
0001
0000
1000
0000
0100
1000
0100
0000
0010
0000
0001
0000
1000
0010
1000
0000
,
1001
0000
0001
0000
1000
0100
1000
0000
0010
0000
0100
0000
0001
0100
0001
0000
,
0101
0000
0100
0000
0010
1000
0010
0000
1000
0000
0001
0000
1000
0001
1000
0000
,
1100
0000
0100
0000
0010
0001
0010
0000
0100
0000
1000
0000
0001
1000
0001
0000
,
0101
0000
0100
0000
0010
1000
0010
0000
1000
0000
0001
0000
1000
0100
1000
0000
,
1001
0000
0001
0000
1000
0100
1000
0000
0001
0000
0010
0000
0001
1000
0001
0000
,
0100
0000
0010
0000
0100
0010
0100
0000
0001
0000
1000
0000
0001
0010
0001
0000
,
1000
0001
0100
0010
1000
0010
0100
0001
1000
0001
0100
0001
1000
0100
0010
0001
,
1000
0100
0010
0001
0010
0100
1000
0100
0010
0001
0010
0100
,
1000
0100
0010
0001
0010
0100
1000
0001
0001
1000
0001
0001
,
1000
0010
0100
0001
0100
0010
1000
0010
0100
0001
0100
0010
,
1000
0000
0010
0000
0100
0000
0001
1000
0001
1000
0000
0000
0001
0000
0000
2002
0000
0000
0000
0000
0000
3003
0000
0000
,
0001
0010
0100
1000
0100
0010
0001
0010
0100
1000
0100
0010
,
0001
0000
0010
0000
0100
0000
1000
0000
0100
0000
0010
0000
0001
1000
0001
1000
0000
0000
0001
0000
0000
0000
0000
0000
,
2002
0000
0000
0000
0000
0000
0000
0000
0000
0000
0000
0000
0003
0000
3001
0100
,
0010
0000
M00M
0000
0100
0000
M01M
0000
0000
0000
0100
0000
00M1
1000
0M01
1000
,
00M1
0100
0010
1000
0010
0100
0001
0100
0010
1000
0010
0100
,
0001
0000
0100
0000
0010
0000
1000
0000
0010
0000
0100
0000
0001
1000
0001
1000
0000
0000
0100
0000
0000
0000
0000
0000
,
1100
0100
0010
0001
0010
0100
1000
0100
0010
0001
0010
0100
,
1000
0000
0100
0000
0010
0000
0001
1000
0001
1000
0000
0000
0001
0000
0000
0202
0000
0000
0000
0000
0000
0303
0000
0000
,
1010
0010
0100
0001
0100
0010
1000
0010
0100
0001
0100
0010
,
1000
0000
0010
0000
0100
0000
0001
0000
0100
0000
0010
0000
1000
0001
1000
0001
0000
0000
0010
0000
0000
0100
0000
0000
,
2200
0000
0000
0000
0000
0000
0000
0000
0000
0000
0000
0000
0300
0000
3100
0010
,
0001
000M
1000
M000
0010
00M0
0100
0M00
,
0001
0100
0010
1000
0001
1000
0001
0010
0100
1000
0001
1000
0010
0100
0001
1000
,
0100
0000
0000
0010
0000
0000
0001
0000
0000
1000
0000
0000
0001
0000
0000
0100
0000
0000
0010
0000
0000
1000
0000
0000
0001
0000
0000
0000
0100
0000
0000
0000
0100
0000
0000
0000
0010
0000
0000
0000
0100
0000
0000
0000
0100
0000
0000
0000
,
0001
1000
0100
1000
0001
0010
0100
1000
0001
0010
0001
1000
0010
1000
0001
0100
,
0010
0100
0001
1000
0100
0010
0001
1000
0100
0010
0100
0010
0100
0000
0000
0000
,
1000
0001
0100
0010
1000
0001
0100
0001
1000
0100
0010
0001
1000
0100
1000
0001
,
0010
0000
0000
0100
0000
0000
1000
0000
0000
0001
0000
0000
1000
0000
0000
0001
0000
0000
0100
0000
0000
0010
0000
0000
1000
0000
0000
0000
0001
0000
0000
0000
0001
0000
0000
0000
0100
0000
0000
0000
0001
0000
0000
0000
0001
0000
0000
0000
,
1000
0100
0010
0001
0010
0100
1000
0001
0100
0001
1000
0010
0100
0001
1000
0100
,
0010
0001
1000
0001
1000
0001
1000
0001
1000
0001
1000
0001
1000
0001
1000
0001
,
0100
0010
1000
0001
1000
0100
0010
0001
1000
0100
1000
0001
0100
0010
0100
0001
,
1000
0000
0000
0001
0000
0000
0010
0000
0000
0100
0000
0000
1000
0000
0000
0001
0000
0000
1000
0000
0000
0010
0000
0000
0100
0000
0000
0000
0010
0000
0000
0000
0010
0000
0000
0000
1000
0000
0000
0000
0010
0000
0000
0000
0010
0000
0000
0000
,
0100
0001
1000
0100
0010
0001
1000
0001
0010
0100
1000
0001
0100
0001
1000
0100
,
1000
0001
0010
0100
1000
0010
0100
0001
1000
0010
1000
0010
1000
0000
0000
0000
,
0001
0010
0100
1000
0001
0100
0001
1000
0100
0010
0001
1000
0001
0100
0010
0100
,
0001
0000
0000
1000
0000
0000
0010
0000
0000
0100
0000
0000
0001
0000
0000
0100
0000
0000
0010
0000
0000
1000
0000
0000
0001
0000
0000
0000
1000
0000
0000
0000
1000
0000
0000
0000
0010
0000
0000
0000
1000
0000
0000
0000
1000
0000
0000
0000
,
0001
0010
0100
1000
0001
0100
0010
1000
0001
1000
0001
0100
0010
1000
0001
1000
,
0100
0010
0100
0010
0100
0010
0100
0010
0100
0010
0100
0010
0100
0010
0100
0010
,
0002
0000
0000
2003
0000
3020
0230
0302
,
1003
0100
0000
0000
0000
0000
0000
0000
2000
0000
0000
0000
3002
0000
0000
0000
0000
0000
0000
0000
0203
0000
0000
0000
0320
0000
0000
0000
2030
0000
0000
0000
,
3001
0002
0023
0230
0000
0320
0032
2003
,
3010
0020
0230
0302
0000
0203
0320
2030
,
3002
0000
0000
0000
0000
0003
0002
0000
0000
0003
0002
0000
2003
0000
3002
0000
,
0103
0010
0000
0000
0000
0000
0000
0000
0200
0000
0000
0000
0302
0000
0000
0000
0000
0000
0000
0000
2003
0000
0000
0000
3200
0000
0000
0000
0320
0000
0000
0000
,
0031
1000
0100
1000
0001
1000
0100
1000
0001
0100
0010
0100
0001
0100
0010
0100
,
0001
1000
0001
1000
0001
1000
0001
1000
0010
0100
0001
1000
0001
1000
0001
1000
,
0001
0000
0000
0000
0010
0000
0000
0000
0100
0000
0000
0000
1000
0000
0000
0000
0100
0000
0000
0000
0010
0000
0000
0000
0001
0000
0000
0100
0000
0000
0010
0000
0000
1000
0000
0000
0001
0000
0000
0000
1000
0000
0000
0000
0100
0000
0000
0000
,
0010
0000
0000
0000
0100
0000
0000
0000
1000
0000
0000
0000
0001
0000
0000
0100
0000
0000
0010
0000
0000
1000
0000
0000
0001
0000
0000
1000
0000
0000
0100
0000
0000
0010
0000
0000
0004
0000
0000
0000
0000
0000
0000
0000
0000
0000
0000
0000
,
1003
0010
0100
0001
0100
0010
1000
0010
0100
0001
0100
0010
,
4000
0000
3004
0000
1003
0100
0010
0001
1000
0100
1000
0001
0400
0000
0000
0000
,
0310
1000
0000
0000
0001
0000
1000
0000
0100
0000
0010
0000
0001
0000
1000
0000
0010
0100
0000
0000
0001
0000
1000
0000
0100
0000
1000
0000
0001
0000
0010
0000
,
0001
1000
0000
0000
0100
0000
0010
0000
0001
0000
1000
0000
0001
0100
0000
0000
0010
0000
1000
0000
0010
0000
1000
0000
0040
0000
0000
0000
0000
0000
0000
0000
,
0130
0000
0000
0000
0000
0000
0001
0000
0000
1000
0000
0000
0100
0000
0000
0000
0000
0000
0010
0000
0001
0000
1000
0000
0001
0000
0000
0000
0000
0000
0100
0000
0001
0000
1000
0000
0001
0000
0000
0000
0000
0000
0000
0000
0000
0000
0000
0000
,
1000
0001
1000
0001
1000
0001
1000
0001
1000
0000
0000
0000
1MM1
0000
0000
0000
,
0001
0010
0100
1000
0100
0010
0001
0010
0100
1000
0100
0010
,
0001
0010
0000
0000
0100
0000
0000
0000
1000
0000
0000
0000
0001
0000
0000
0000
0100
0000
0000
0000
0010
0000
0000
0000
4000
0000
0000
0000
0000
0000
0000
0000
,
3001
0100
0010
1000
0010
0100
0001
0100
0010
1000
0010
0100
,
0001
1000
0100
1000
0001
0010
0100
1000
0001
0100
0010
1000
0004
0000
0000
0000
,
1003
0100
0010
0001
0010
0100
1000
0100
0010
0001
0010
0100
,
1000
0000
0000
0000
0000
0000
0010
0000
0000
0000
0000
0000
0000
0000
0000
0000
0000
0000
0000
0000
0000
0000
0000
0000
0100
0000
0000
0000
0000
0000
0001
0000
0000
0000
0000
0000
0000
0000
0000
0000
0000
0000
0000
0000
0000
0000
0000
0000
1000
0000
0000
0000
0000
0000
0000
0000
0000
0000
0000
0000
0000
0000
0000
0000
0010
0000
0000
0000
0000
0000
0000
0000
0000
0000
0000
0000
0000
0000
0000
0000
0100
0000
0000
0000
0000
0000
0000
0000
0000
0000
0000
0000
0000
0000
0000
0000
0001
0000
0000
0000
0000
0000
0000
0000
0000
0000
0000
0000
0000
0000
0000
0000
1000
0000
0000
0000
0000
0000
0000
0000
0000
0000
0000
0000
0000
0000
0000
0000
0100
0000
0000
0000
0000
0000
0000
0000
0000
0000
0000
0000
0000
0000
0000
0000
4000
0000
0000
0000
0000
0000
0000
0000
0000
0000
0000
0000
0000
0000
0000
0000
0000
0000
0000
0000
0000
0000
0000
0000
0000
0000
0000
0000
0000
0000
0000
0000
0000
0000
0000
0000
0000
0000
0000
0000
0000
0000
0000
0000
0000
0000
0000
0000
,
3010
0000
0000
0100
0000
0000
0010
0000
0000
1000
0000
0000
0001
0000
0000
0000
0000
0000
1000
0000
0000
0000
0000
0000
0100
0000
0000
0000
0010
0000
0000
0000
0001
0000
0000
0000
1000
0000
0000
0000
0001
0000
0000
0000
0100
0000
0000
0000
,
0001
1000
0001
1000
0001
1000
0001
1000
0010
0100
0001
1000
0001
1000
0001
1000
,
0200
0000
0310
0002
0000
2003
3020
0230
,
0302
0000
2003
3200
0000
0320
0032
2003
,
3001
0100
0001
0100
0001
0000
0MM0
0000
1000
0100
1000
0100
1000
0000
0MM0
0000
,
0001
0010
0001
0010
0001
1000
0001
1000
0001
0100
0001
0100
0001
1000
0001
1000
,
0010
0100
0010
0100
0010
1000
0010
1000
0010
0100
0010
0100
0010
1000
0010
1000
,
0001
0010
0001
0010
0001
1000
0001
1000
0001
0010
0001
0010
0001
1000
0001
1000
,
0100
0000
0010
0000
0100
0000
0010
0000
0100
0000
1000
0000
0100
0000
1000
0000
0001
0000
0000
0000
0100
0000
0000
0000
0010
1000
0000
0000
0001
0000
0000
0000
,
1000
0100
1000
0100
0010
0100
0010
0100
0010
0001
0010
0001
1000
0001
1000
0001
,
0100
0010
1000
0001
1000
0100
0010
0001
1000
0100
1000
0001
0010
0001
1000
0100
,
1000
0010
0100
0010
0100
0001
1000
0010
1000
0001
0010
0100
4000
0000
0000
0000
,
3001
0100
0010
0100
0001
1000
0100
0010
0100
1000
0001
0010
,
0100
1000
0010
0100
0001
0000
1000
0000
0040
0000
0000
0000
0000
0000
0000
0000
,
0130
0001
1000
0001
0100
0010
1000
0100
1000
0001
0010
0100
,
0010
0000
0000
0000
0001
0000
0000
0000
1000
0000
0000
0000
0001
0000
0000
0100
0000
0000
0001
0000
0000
1000
0000
0000
0100
0000
0000
1000
0000
0000
0001
0000
0000
0010
0000
0000
0001
0000
0000
1000
0000
0000
0010
0000
0000
1000
0000
0000
,
0001
0010
0100
1000
0001
0100
0010
0100
0001
1000
0100
1000
0001
0010
0100
1000
,
0MM1
0000
0000
0000
0MM1
0000
0000
0000
10M0
0001
1M00
0001
10M0
0001
1M00
0001
,
1000
0000
0000
0010
0000
0000
0100
0000
0000
0001
0000
0000
1000
0000
0000
0010
0000
0000
0100
0000
0000
0001
0000
0000
1000
0000
0000
0000
0100
0000
0000
0000
0010
0000
0000
0000
0001
0000
0000
0000
1000
0000
0000
0000
0100
0000
0000
0000
,
1000
0001
1000
0010
0100
0001
4000
0000
0000
3400
0000
0000
,
0310
0000
0000
0000
0001
0000
0000
0000
1000
0000
0000
0000
0001
0000
0000
0000
0100
0000
0000
0000
0010
0000
0000
0000
1000
0000
0000
0001
0000
0000
1000
0000
0000
0100
0000
0000
0010
0000
0000
0001
0000
0000
1000
0000
0000
0010
0000
0000
,
1000
0001
0100
0010
1000
0100
0010
0001
2000
0000
0000
0000
0MM1
0000
0000
0000
,
3001
0100
0010
1000
0010
0100
0001
1000
0100
1000
0001
0010
0100
1000
0001
1000
,
0001
0000
0010
0000
0100
0000
1000
0000
0100
0000
0010
0000
0002
0000
0000
0000
0000
0000
1003
0000
0000
0010
0000
0000
,
0100
0001
0100
0001
1000
0001
1000
0001
1000
0100
1000
0100
0010
0100
0010
0100
,
100M
0000
22MM
3300
2MM2
3003
M2M2
0303
,
0002
0000
0000
0000
0000
0003
0002
0000
0000
0000
2003
0000
0000
0000
3200
0000
,
0320
0000
0000
0032
0000
2003
3020
0230
,
0320
0000
0000
0000
0000
0030
0020
0000
0000
0000
0230
0000
0300
0000
0M02
0000
,
1003
0100
1000
0001
0010
0001
2000
0000
0000
0000
3002
0000
0023
0000
0230
0000
,
2300
0000
0000
3020
0000
0230
0000
0302
,
1003
0100
0010
0001
1000
0000
0200
0000
0000
0000
0320
0000
0032
0000
2003
0000
,
3001
0100
0010
0100
0001
0100
0010
0100
0001
1000
0100
1000
0001
1000
0100
1000
,
0001
0010
0001
0010
0001
0010
0001
0010
0100
1000
0010
1000
0001
0010
0001
0010
,
0100
1000
0100
1000
0001
1000
0001
1000
0001
0100
0001
0100
0010
0100
0010
0100
,
0001
1000
0001
1000
0100
1000
0100
1000
0100
0010
0100
0010
0001
0010
0001
0010
,
0200
0000
0000
0000
0000
0300
0200
0000
0000
0000
0320
0000
0032
0000
2003
0000
,
3010
0100
0001
1000
0001
0100
0010
1000
0002
0000
0000
0000
0000
0000
1003
0100
,
0010
0001
1000
0010
0100
0001
1000
0100
1000
0001
0010
0100
1000
0001
0010
0001
,
1000
0010
0100
0001
0100
0010
1000
0001
1000
0100
0010
0001
1000
0100
1000
0001
,
0100
0010
0100
0010
0100
0000
0010
0000
0100
0000
0010
0000
0100
0000
0010
0000
,
1000
0100
1000
0001
1000
0001
0100
0010
1000
0001
1000
0001
0010
0100
1000
0001
,
M200
0000
000M
0010
M000
0000
10M0
0000
,
032M
0000
0M00
1000
000M
0000
M100
0000
,
2M30
0000
000M
0100
00M0
0000
0M01
0000
,
320M
0000
M000
0010
000M
0000
00M1
0000
,
M320
0000
000M
0100
M000
0000
0M01
0000
,
M032
0000
00M0
0100
M000
0000
1M00
0000
,
02M3
0000
M000
0010
000M
0000
10M0
0000
,
M02M
0000
0000
0000
0000
0000
0300
0030
0000
0100
0010
0100
0010
0000
0000
0000
0000
0000
0100
0000
0000
0000
0000
0000
,
0001
0000
1000
0000
0001
0010
0001
0000
1000
0000
0100
0000
1000
0001
1000
0000
,
0010
0000
0100
0000
0001
0100
0001
0000
1000
0000
0100
0000
1000
0001
1000
0000
,
0100
0000
0010
0000
0001
0010
0001
0000
1000
0000
0010
0000
0100
0010
0100
0000
,
0001
0000
1000
0000
0001
0010
0001
0000
1000
0000
0100
0000
1000
0001
1000
0000
,
0010
0000
0100
0000
0001
0100
0001
0000
1000
0000
0100
0000
0010
0100
0010
0000
,
0001
0000
1000
0000
0010
1000
0010
0000
0100
0000
0001
0000
1000
0100
1000
0000
,
0001
0000
0010
0000
0100
0010
0100
0000
1000
0000
0001
0000
0100
0001
0100
0000
,
0010
0000
1000
0000
0010
0100
0010
0000
0100
0000
0001
0000
1000
0001
1000
0000
,
0100
0000
0100
0000
0010
0001
0010
0000
0001
0000
0001
0000
1000
0010
1000
0000
,
0010
0000
0010
0000
0100
0010
0100
0000
0001
0000
0001
0000
1000
0100
1000
0000
,
0001
0000
0001
0000
1000
0100
1000
0000
0100
0000
0100
0000
0010
0001
0010
0000
,
0100
0000
0100
0000
1000
0001
1000
0000
0010
0000
0010
0000
1000
0010
1000
0000
,
0100
0000
0100
0000
0010
0001
0010
0000
0001
0000
0001
0000
1000
0010
1000
0000
,
0001
0000
0001
0000
1000
0100
1000
0000
0010
0000
0010
0000
0100
0001
0100
0000
,
0010
0000
0010
0000
1000
0100
1000
0000
0100
0000
0100
0000
0010
0001
0010
0000
,
0001
1000
0001
1000
0001
1000
0001
1000
0010
0100
0001
1000
0001
1000
0001
1000
,
0100
0010
0001
1000
0001
0100
0010
1000
0001
0100
0001
1000
0100
1000
0001
0010
,
0100
1000
0001
0010
0001
1000
0010
1000
0010
0100
0001
0100
0010
1000
0001
0010
,
0100
1000
0001
0010
0001
1000
0100
1000
0001
0010
0100
1000
0001
0100
0001
1000
,
0010
0100
0010
0100
0001
1000
0100
1000
0001
0010
0100
0010
0001
1000
0100
1000
,
0001
0010
0100
1000
0001
0100
0010
1000
0001
0100
0010
1000
0001
0100
0001
1000
,
0001
1000
0100
1000
0001
0010
0100
1000
0001
0010
0001
1000
0010
0100
0010
1000
,
0001
0100
0001
0100
0010
0100
0010
0100
0010
1000
0010
1000
0001
1000
0001
1000
,
01M0
M000
000M
0M00
,
2000
0000
3000
0000
2000
0000
3000
0000
2000
0000
3010
0000
0100
0000
0001
0010
,
0002
0000
1000
1000
0000
0000
0013
0100
,
1000
0000
0000
2000
0000
0000
0000
0000
0000
3010
0000
0000
0020
0000
0000
0000
0000
0000
0130
0001
0000
0000
0000
0000
,
0100
0020
0000
0000
0000
0000
0000
0000
0000
1000
0000
0000
2030
0000
0000
0000
0000
0000
3001
0000
0000
0010
0000
0000
,
0100
1000
0001
2000
0000
3010
0100
0001
,
0200
0000
0000
0000
0000
0000
0301
1000
0200
0000
0000
0000
0000
0000
0310
0001
,
1000
0000
0000
0010
0000
0000
0100
0000
0000
0010
0000
0000
4000
0004
0000
0000
0000
0000
0000
0000
0000
3003
0000
0000
,
1MM1
0010
0100
0010
1MM1
0010
0100
0010
,
1MM2
0000
0000
0000
0000
0000
0000
0000
0000
0000
0000
0000
1003
0000
0000
0100
0000
0000
0010
0000
0100
0000
1000
0000
,
0002
0000
0100
0203
0000
0000
0310
1000
,
1002
0000
0000
0000
0000
0000
0000
0000
0000
0000
0000
0000
0000
0000
0000
0000
0013
0100
0000
0000
1000
0000
0000
0000
0001
0000
0100
0000
0010
0000
1000
0000
,
0001
0000
0010
0000
0100
1000
0001
1000
0040
0000
0000
0000
0000
0000
0130
0000
,
0001
0010
0100
1000
0001
1000
0100
0010
0100
1000
0001
1000
0001
0100
0010
1000
,
0001
0010
0100
1000
0001
1000
0010
1000
0001
0010
0001
1000
0010
0100
0001
1000
0001
0010
0200
0000
0000
0010
0000
0000
,
0310
0001
1000
0010
1000
0001
0100
0010
1000
0001
0010
0001
1000
0100
0010
0001
1000
0001
0010
0100
1000
0001
1000
0010
,
2000
0000
0000
0000
0000
0000
0000
0000
3000
0010
0000
0000
0100
0000
0000
0010
0000
0000
0100
0000
0000
0010
0000
0000
0100
0000
0000
0010
0000
0000
1000
0000
0000
0001
0000
0000
1000
0000
0000
0001
0000
0000
1000
0000
0000
0001
0000
0000
,
0010
0100
1000
0001
1000
0010
0100
0001
1000
0010
1000
0001
0010
0001
1000
0100
0010
0001
1000
0100
1000
0001
0100
0010
,
0100
0001
0100
0001
1000
0100
0010
0001
1000
0001
0010
0100
1000
0001
0010
0001
1000
0010
2000
0000
0000
3000
0000
0000
,
0010
0000
0000
0100
0000
0000
0001
0000
0000
1000
0000
0000
0100
0000
0010
0000
0001
0000
1000
0000
0001
0000
1000
0000
0010
0000
0000
0100
0000
0000
0001
0000
0000
1000
0000
0000
0100
0000
0000
0010
0000
0000
0001
0000
0000
1000
0000
0000
,
0010
0000
0000
0100
0000
0000
0001
0000
0000
1000
0000
0000
0100
0000
0010
0000
0001
0000
1000
0000
0001
0000
0100
0000
0020
0000
0000
0000
0000
0000
0000
0000
0000
1030
0000
0000
0001
0000
0000
0000
0000
0000
0000
0000
0000
0000
0000
0000
,
1000
0000
0000
0100
0000
0000
0010
0000
0000
0001
0000
0000
1000
0000
0000
0010
0000
0000
0100
0000
0000
0001
0000
0000
1000
0000
0100
0000
0010
0000
0001
0000
1000
0000
0010
0000
0100
0000
0010
0000
0100
0000
0001
0000
1000
0000
0001
0000
,
0020
0000
0000
0000
0000
0000
0000
0000
0000
0031
0000
0000
1000
0000
0000
0010
0000
0000
1000
0000
0001
0000
0010
0000
0002
0000
0000
0000
0000
0000
0000
0000
0000
1003
0000
0000
0010
0000
0000
0100
0000
0000
0010
0000
0000
0100
0000
0000
,
0001
0000
0000
0001
0000
0000
0001
0000
0000
0010
0000
0000
0010
0000
0000
0010
0000
0000
0100
0000
0000
0100
1000
0100
,
1000
0000
0000
0000
0000
0000
1000
0000
0000
0000
0000
0000
0001
0000
0000
0100
0000
0000
0010
0000
1000
0000
0001
0000
1000
0000
0000
0000
0000
0000
1000
0000
0000
0000
0000
0000
0001
0000
0000
0000
0000
0000
1000
0000
0000
0000
0000
0000
,
0100
0010
0001
1000
0040
0000
0130
0100
,
0001
0000
0000
1000
0000
0000
0100
0000
0000
0010
0001
0010
0004
0000
0000
0000
0000
0000
1003
0000
0000
1000
0000
0000
,
0010
0000
0000
0000
0000
0000
0100
0000
0000
0000
0000
0000
0001
0000
0000
0000
0000
0000
1000
0000
0000
0100
0000
0000
0020
0000
0000
0000
0000
0000
0000
0000
0000
0030
0000
0000
0020
0000
0000
0000
0000
0000
0130
0000
1000
0000
0001
0000
,
1000
0010
0100
0001
1000
0001
0010
0100
1000
0001
0010
0001
1001
0000
1000
0000
,
0010
0100
0001
1000
0001
1000
0100
0010
0001
1000
0010
0100
0001
1000
0001
0010
,
0100
0000
0000
1000
0000
0000
0001
0000
0000
1000
0000
0000
0010
0000
0000
0100
0000
0000
0001
0000
1000
0000
0001
0000
1000
0000
0000
0010
0000
0000
0100
0000
0000
0001
0000
0000
1000
0000
0000
0001
0000
0000
0010
0000
0000
0100
0000
0000
,
1000
0001
0010
0001
1000
0010
1000
0001
0100
0010
1000
0001
,
0020
0000
0000
0000
0000
0000
0130
1000
0001
0000
0000
1000
0000
0000
0010
0000
,
0000
0000
0000
0000
0100
0000
0000
0000
0000
0000
0000
0000
0000
0000
0000
0000
0040
0400
0000
0000
0000
0000
0000
0000
0000
0000
0000
0000
0000
0000
0000
0000
,
0000
0000
0000
0000
,
0000
0000
0000
0000
,
0000
0000
0000
0000
,
0000
0000
0000
0000
0000
0000
0000
0000
0000
0000
0000
0000
0000
0000
0000
0000
0000
0000
0000
0000
0000
0000
0000
0000
0000
0000
0000
0000
0330
0000
0000
0000
0000
0000
0000
0000
0000
0000
0000
1001
00M0
0000
0000
0000
0000
0000
0000
0000
1001
0000
0000
0000
0M00
0000
0000
0000
0000
0000
0000
0000
0000
0000
0000
0000
,
000M
0000
0000
M000
0000
0000
000M
0M00
,
0000
0000
00M0
0000
0000
M000
0000
000M
,
0000
M000
0000
0000
;
