#TITLE:Dual Illumination;
#SUBTITLE:IcyWorld;
#ARTIST:Sharky;
#TITLETRANSLIT:;
#SUBTITLETRANSLIT:;
#ARTISTTRANSLIT:;
#CREDIT:;
#BANNER:bn.PNG;
#BACKGROUND:bg.PNG;
#LYRICSPATH:;
#CDTITLE:CDTitle.png;
#MUSIC:17 - Various Artists - Dual Illumination - Sharkey & Arkitechsusi Ankah.mp3;
#OFFSET:-0.056;
#SAMPLESTART:34.239;
#SAMPLELENGTH:12.000;
#SELECTABLE:YES;
#BPMS:0.000=175.534,2.000=175.522,3.000=175.534,5.000=175.522,6.000=175.534,8.000=175.522,9.000=175.534,11.000=175.522,12.000=175.534,14.000=175.522,15.000=175.534,17.000=175.522,18.000=175.534,20.000=175.522,21.000=175.534,23.000=175.522,24.000=175.534,25.000=175.522,26.000=175.534,28.000=175.522,29.000=175.534,31.000=175.522,32.000=175.534,34.000=175.522,35.000=175.534,37.000=175.522,38.000=175.534,40.000=175.522,41.000=175.534,43.000=175.522,44.000=175.534,46.000=175.522,47.000=175.534,49.000=175.522,50.000=175.534,51.000=175.522,52.000=175.534,54.000=175.522,55.000=175.534,57.000=175.522,58.000=175.534,60.000=175.522,61.000=175.534,63.000=175.522,64.000=175.534,66.000=175.522,67.000=175.534,69.000=175.522,70.000=175.534,72.000=175.522,73.000=175.534,75.000=175.522,76.000=175.534,77.000=175.522,78.000=175.534,80.000=175.522,81.000=175.534,83.000=175.522,84.000=175.534,86.000=175.522,87.000=175.534,89.000=175.522,90.000=175.534,92.000=175.522,93.000=175.534,95.000=175.522,96.000=175.534,98.000=175.522,99.000=175.534,101.000=175.522,102.000=175.534,103.000=175.522,104.000=175.534,106.000=175.522,107.000=175.534,109.000=175.522,110.000=175.534,112.000=175.522,113.000=175.534,115.000=175.522,116.000=175.534,118.000=175.522,119.000=175.534,121.000=175.522,122.000=175.534,124.000=175.522,125.000=175.534,127.000=175.522,128.000=10.199,129.000=31.336,130.000=31.336,137.000=125.373,138.000=125.367,139.000=125.373,140.000=125.367,141.000=125.940,142.000=123.104,143.000=127.089,144.000=124.185,145.000=127.224,146.000=123.030,147.000=127.789,148.000=124.841,149.000=125.922,150.000=127.163,151.000=123.697,152.000=124.764,153.000=126.018,154.000=123.087,155.000=127.690,156.000=124.788,157.000=125.898,158.000=125.308,159.000=125.558,160.000=125.154,161.000=125.540,162.000=125.421,163.000=124.941,164.000=125.552,165.000=125.611,166.000=123.397,167.000=127.481,168.000=125.030,169.000=125.623,170.000=125.391,171.000=125.427,172.000=124.735,173.000=125.952,174.000=126.730,175.000=124.080,176.000=124.764,177.000=125.617,178.000=123.247,179.000=127.832,180.000=125.254,181.000=125.635,182.000=124.935,183.000=125.719,184.000=124.858,185.000=125.587,186.000=123.876,187.000=127.242,188.000=124.876,189.000=125.814,190.000=125.012,191.000=125.856,192.000=124.988,193.000=125.355,194.000=124.295,195.000=126.900,196.000=124.776,197.000=125.952,198.000=126.779,199.000=124.115,200.000=125.850,201.000=125.077,202.000=126.415,203.000=127.212,204.000=127.746,205.000=129.023,206.000=129.541,207.000=130.159,208.000=131.146,209.000=131.924,210.000=132.825,211.000=133.414,212.000=134.369,213.000=135.021,214.000=135.166,215.000=137.170,216.000=136.836,217.000=138.890,218.000=138.208,219.000=140.506,220.000=140.334,221.000=141.399,222.000=142.212,223.000=142.434,224.000=143.922,225.000=145.433,226.000=144.519,227.000=145.946,228.000=146.617,229.000=147.722,230.000=148.177,231.000=149.466,232.000=149.720,233.000=150.162,234.000=151.494,235.000=153.045,236.000=152.851,237.000=154.187,238.000=154.322,239.000=155.849,240.000=155.803,241.000=157.322,242.000=157.754,243.000=158.567,244.000=159.388,245.000=160.111,246.000=160.822,247.000=161.519,248.000=162.631,249.000=163.475,250.000=163.152,251.000=165.551,252.000=164.716,253.000=166.530,254.000=166.352,255.000=169.844,256.000=168.321,257.000=169.888,258.000=169.942,259.000=171.729,260.000=170.424,261.000=173.213,262.000=173.247,263.000=174.527,264.000=174.320,265.000=177.536,266.000=177.239,267.000=179.014,268.000=179.865,269.000=181.981,270.000=183.228,271.000=183.967,272.000=185.880,273.000=187.168,274.000=188.973,275.000=190.004,276.000=191.906,277.000=192.506,278.000=195.018,279.000=196.291,280.000=196.597,281.000=199.142,282.000=200.926,283.000=201.140,284.000=199.563,285.000=206.832,286.000=206.864,287.000=206.622,288.000=208.972,289.000=210.451,290.000=210.887,291.000=213.628,292.000=212.735,293.000=216.761,294.000=217.188,295.000=220.023,296.000=222.428,297.000=21.931,298.000=175.360,299.000=175.348,300.000=175.360,301.000=175.348,302.000=175.360,303.000=175.348,306.000=177.298,307.000=174.423,308.000=176.588,309.000=175.267,310.000=175.849,311.000=175.197,312.000=175.756,313.000=175.557,314.000=174.435,315.000=175.884,316.000=176.247,317.000=177.608,318.000=172.670,319.000=176.060,320.000=175.884,321.000=174.504,322.000=176.647,323.000=175.441,324.000=175.487,325.000=175.243,326.000=175.744,327.000=174.827,328.000=176.459,329.000=174.815,330.000=176.060,331.000=175.487,332.000=175.651,333.000=175.418,334.000=175.592,335.000=174.022,336.000=176.919,337.000=175.162,338.000=176.271,339.000=176.765,340.000=173.805,341.000=175.418,342.000=175.814,343.000=174.262,344.000=176.895,345.000=178.218,346.000=171.030,347.000=177.085,348.000=175.884,349.000=175.162,350.000=175.849,351.000=174.423,352.000=175.884,354.000=173.451,355.000=176.376,356.000=174.423,357.000=176.919,358.000=175.943,359.000=174.850,360.000=175.826,361.000=175.837,362.000=175.616,363.000=176.142,364.000=175.849,365.000=173.793,366.000=43.918,367.000=175.534,368.000=175.522,369.000=175.534,371.000=175.522,372.000=175.534,374.000=175.522,375.000=175.534,377.000=175.522,378.000=175.534,380.000=175.522,381.000=175.534,383.000=175.522,384.000=175.534,386.000=175.522,387.000=175.534,389.000=175.522,390.000=175.534,392.000=175.522,393.000=175.534,394.000=175.522,395.000=175.534,397.000=175.522,398.000=175.534,400.000=175.522,401.000=175.534,403.000=175.522,404.000=175.534,406.000=175.522,407.000=175.534,409.000=175.522,410.000=175.534,412.000=175.522,413.000=175.534,415.000=175.522,416.000=175.534,418.000=175.522,419.000=175.534,420.000=175.522,421.000=175.534,423.000=175.522,424.000=175.534,426.000=175.522,427.000=175.534,429.000=175.522,430.000=175.534,431.000=351.068,434.000=351.021,435.000=351.068,440.000=351.021,441.000=351.068;
#STOPS:;
#BGCHANGES:;
// cache tags:
#FIRSTBEAT:0.000;
#LASTBEAT:431.000;
#SONGFILENAME:Songs/IcyWorld MiniPack/Dual Illumination [IcyWorld]/17 - Various Artists - Dual Illumination - Sharkey & Arkitechsusi Ankah.sm;
#HASMUSIC:1;
#HASBANNER:1;
#MUSICLENGTH:213.159;
// end cache tags

//---------------dance-single - Copied from----------------
#NOTES:
     dance-single:
     Copied from:
     Hard:
     13:
     1.000,1.000,1.000,0.042,1.000,1699.000,452.000,9.000,0.000,13.000:
1001
0010
0100
1000
0010
1000
0100
0010
1000
0100
0010
1000
0100
1000
0100
0010
,
0001
1000
0010
1000
0100
0010
0001
1000
0010
1000
0100
0010
1000
0100
0001
1000
,
0010
0100
0010
0001
0100
1000
0100
0010
1000
0100
0010
1000
0100
1000
0100
0010
,
0001
1000
0010
1000
0100
0010
0001
1000
0010
1000
0100
0010
1000
0100
0001
1000
,
0010
0100
0010
0001
0100
1000
0100
0010
1000
0100
0010
1000
0100
1000
0100
0010
,
0001
1000
0010
1000
0100
0010
0001
1000
0010
1000
0100
0010
1000
0100
0001
1000
,
0010
0100
0010
0001
0100
1000
0100
0010
1000
0100
0010
1000
0100
1000
0100
0010
,
0001
1000
0010
1000
0100
0010
0001
1000
0010
1000
0100
0010
1000
0100
0001
1000
,
0011
0100
0010
0001
0100
1000
0100
0010
1000
0100
0010
1000
0100
1000
0100
0010
,
0101
1000
0010
1000
0100
0010
0001
1000
0010
1000
0100
0010
1000
0100
0001
1000
,
0011
0100
0010
0001
0100
1000
0100
0010
1000
0100
0010
1000
0100
1000
0100
0010
,
0101
1000
0010
1000
0100
0010
0001
1000
0010
1000
0100
0010
1000
0100
0001
1000
,
0011
0100
0010
0001
0100
1000
0100
0010
1001
0100
0010
0001
0100
1000
0100
0010
,
1001
0100
0010
0001
0100
1000
0100
0010
1001
0100
0010
0001
0100
1000
0100
0010
,
1001
0100
0010
0001
0110
1000
0100
0010
1001
0100
1010
0001
0110
1000
0101
0010
,
1001
0000
0000
0000
0001
0000
0000
0000
1100
0000
0011
0000
1100
0000
0000
0000
1000
0000
0100
0000
0010
0000
0001
0000
0110
0001
1000
0010
0100
0001
0010
0100
,
1001
0010
0100
1000
0011
1000
0100
0010
1001
0100
0010
1000
0101
1000
0100
0010
,
0101
1000
0010
1000
0101
0010
0001
1000
0011
1000
0100
0010
1001
0100
0001
1000
,
0011
0100
0010
0001
0110
1000
0100
0010
1001
0100
0010
1000
0110
1000
0100
0010
,
0101
1000
0010
1000
0101
0010
0001
1000
0011
1000
0100
0010
1001
0100
0001
1000
,
0011
0100
0010
0001
0110
1000
0100
0010
1001
0100
0010
1000
0110
1000
0100
0010
,
0101
1000
0010
1000
0101
0010
0001
1000
0110
1000
0100
0010
1001
0100
0001
1000
,
0101
0010
0100
1000
0011
1000
0100
0010
1001
0100
0010
1000
0110
1000
0100
0010
,
0101
0000
1000
0000
0010
0000
1000
0000
0101
0000
0010
0000
0001
0000
1000
0000
0011
0000
1000
0000
0100
0000
0010
0000
1001
0010
0100
1000
0001
0010
0100
1000
,
0101
0010
0100
1000
0110
1000
0100
0010
1001
0100
0010
1000
0110
1000
0100
0010
,
0101
1000
0010
1000
0101
0010
0001
1000
0110
1000
0100
0010
1001
0100
0001
1000
,
0011
0100
0010
0001
0110
1000
0100
0010
1001
0100
0010
1000
0101
1000
0100
0010
,
0101
1000
0010
1000
0101
0010
0001
1000
0110
1000
0100
0010
1001
0100
0001
1000
,
0101
0010
0100
1000
0011
1000
0100
0010
1001
0100
0010
1000
0110
1000
0100
0010
,
0101
1000
0010
1000
0101
0010
0001
1000
0110
1000
0100
0010
1001
0100
0001
1000
,
0011
0100
1000
0100
0011
0100
1000
0100
0011
0100
1000
0100
0011
0100
1000
0100
,
0000
0000
0000
0000
0010
0100
0010
0100
0010
0000
0100
0000
0000
0000
0100
0000
0000
0000
0100
0000
0010
0000
0000
0000
0100
0010
0100
0010
0100
0010
0100
0010
,
1001
0000
0000
0000
0000
0000
0000
0000
0000
0000
0000
0000
0000
0000
0000
0000
0001
0100
0000
1000
0000
0010
0001
0010
0100
1000
0000
0010
1000
0000
0100
1000
0001
0010
0100
1000
0000
0010
0001
0010
0100
1000
0000
0100
1000
0000
0100
0010
0001
0010
0100
1000
0000
0010
0001
0010
0100
1000
0000
0010
1000
0000
0100
0100
,
0010
0100
0000
0100
0000
0100
0010
0001
0010
0010
0000
0100
0100
0000
0100
0010
0001
0100
0000
1000
0000
0010
0001
0010
0100
1000
0000
0010
1000
0000
0100
1000
0001
0010
0100
1000
0000
0010
0001
0010
0100
1000
0000
0100
1000
0000
0100
0010
0001
0010
0100
1000
0000
0010
0001
0010
0100
1000
0000
0010
1000
0000
0100
0100
,
0010
0100
0000
0100
0000
0100
0010
0001
0010
0010
0000
0100
0100
0000
0100
0010
1001
0000
0000
0000
0000
0000
0000
0000
0100
0000
0000
0000
0000
0000
0000
0000
0101
0000
0000
0000
0010
0000
0000
0000
0100
0000
0000
0000
0011
0000
0000
0000
1000
0000
0000
0000
0011
0000
0000
0000
0011
0000
0000
0000
0100
0000
0000
0000
,
1010
0100
0010
0100
1001
0010
0100
1000
0101
0010
1100
0011
0100
0011
0012
0103
,
1010
0100
0010
0100
1001
0010
0100
1000
0101
0010
1100
0011
0100
0011
0011
0100
,
1010
0001
0010
0100
1001
0010
0100
1000
0101
0010
1100
0011
0100
0011
0011
0100
,
1010
0000
0100
0000
0010
0000
0100
0000
1002
0000
0013
0000
0200
0300
2000
3000
0102
0003
2000
3000
0100
0000
0011
0000
1000
0000
0011
0000
0011
0000
0100
0000
,
1010
0001
0100
0010
1000
0000
0000
0000
0000
0000
0000
0000
0000
0000
0000
0000
1100
0010
0001
1000
0100
0000
0000
0000
0002
0000
0003
0000
0010
1000
0100
0010
0001
0000
0000
0000
0010
0000
0000
0000
0100
0000
0000
0000
0011
0000
0000
0000
0100
0000
0000
0000
0011
0000
0000
0000
0011
0000
0000
0000
0100
0000
0000
0000
,
1010
0001
0100
0010
1001
0100
0010
1000
0101
0010
1000
0011
1000
0011
0011
1000
,
0101
0000
0010
0100
0000
0010
0100
0000
0100
0000
0100
0011
0100
0011
0111
0000
,
0110
0110
1100
0010
1001
0000
0000
0100
0010
0010
0000
0010
0000
0010
0010
0000
,
0010
0100
1000
0100
0010
0001
0010
0000
0010
0010
0001
0010
0100
1000
0010
0000
,
0010
0000
0010
0010
0000
0010
0010
0000
0100
0010
0001
0010
0001
0000
0100
0000
,
1000
0000
0100
1000
0000
0100
0010
1000
0010
0100
1000
0010
0001
0010
0100
0100
,
1010
0001
1010
0001
0110
0001
0010
0100
0000
0010
0001
0010
0100
0001
0000
1000
,
0010
0000
0100
0010
0001
0010
0100
1000
0000
1000
0001
1000
0010
0100
0000
0100
,
1000
0000
0100
0010
0001
0010
0100
1000
0000
0100
0010
0001
0010
0100
0000
0100
,
1000
0000
1000
0010
0000
0010
0000
0010
0000
0010
0001
0100
1000
0010
0000
0100
,
0011
0000
0011
0000
1010
0001
0010
0100
1001
0010
0001
0010
1100
0001
0000
1000
,
0011
0000
0100
0010
0101
0010
0100
1000
0011
1000
0001
1000
0011
0100
0000
0100
,
1001
0000
0100
0010
0101
0010
0100
1000
0011
0100
0010
0001
1010
0100
0000
0100
,
1010
0000
1000
0010
1100
0010
0000
0010
0101
0010
0001
0100
1001
0010
0000
0100
,
0011
0000
0011
0000
1010
0001
0010
0100
1001
0010
0001
0010
1100
0001
0000
1000
,
0110
0000
0100
0010
0101
0010
0100
1000
0011
1000
0001
1000
0011
0100
0000
0100
,
1001
0000
0100
0010
0101
0010
0100
1000
0011
0100
0010
0001
1010
0100
0000
0100
,
1010
0000
1000
0010
1100
0010
0000
0010
0101
0010
0001
0100
1001
0010
0000
0100
,
0011
0000
0011
0000
1010
0001
1010
0100
1001
0010
0101
0010
1100
0001
0110
1000
,
0011
0000
1100
0010
0101
0010
0101
1000
0011
1000
0110
1000
0011
0100
1010
0100
,
1001
0000
1100
0010
0101
0010
0101
1000
0011
0100
1010
0001
1010
0100
0011
0100
,
1010
0000
1100
0010
1100
0010
1001
0010
0101
0010
1001
0100
1001
0010
1001
0100
,
0011
0000
0011
0000
1010
0001
1010
0100
1001
0010
0101
0010
1100
0001
0110
1000
,
0011
0000
1100
0010
0101
0010
0101
1000
0011
1000
0110
1000
0011
0100
1010
0100
,
1001
0000
1100
0010
0101
0010
0101
1000
0011
0100
1010
0001
1010
0100
0011
0100
,
1010
0000
1100
0010
1100
0010
1001
0010
0101
0010
1001
0100
1001
0010
1001
0100
,
0011
0000
0011
0000
1010
0001
1010
0100
1001
0010
0101
0010
1100
0001
0110
1000
,
0011
0000
1100
0010
0101
0010
0101
1000
0110
1000
0101
1000
0011
0100
1001
0100
,
1010
0000
1100
0010
0101
0010
0101
1000
0011
0100
1010
0001
1010
0100
0011
0100
,
1010
0000
1100
0010
1100
0010
1001
0010
0101
0010
1001
0100
1001
0010
1001
0100
,
0011
0000
0011
0000
1010
0001
1010
0100
1001
0010
0101
0010
1100
0001
0110
1000
,
0011
0000
1100
0010
0101
0010
0101
1000
0110
1000
0110
1000
0011
0100
1010
0100
,
1001
0000
1100
0010
0101
0010
0101
1000
0011
0100
1010
0001
1010
0100
0011
0100
,
1010
0000
1100
0010
1100
0010
1001
0010
0101
0010
1001
0100
1001
0010
1001
0100
,
0011
0000
1011
0000
1111
0000
0000
0000
0100
0010
0000
0010
0000
0100
0010
0000
,
0100
0010
0000
0100
0010
0000
0100
0010
1100
0011
0000
0101
0000
0110
1001
0000
,
1100
0000
0011
0000
0000
0000
0011
0000
1100
0010
0001
1000
0100
0010
0001
1000
0110
0000
0001
0000
0010
0000
0100
0000
1001
0000
0010
0000
0001
0000
0010
0000
,
1100
0001
0000
1000
0110
0000
0100
0010
0101
0010
0100
1000
0011
1000
0001
1000
,
0011
0100
0000
0100
1001
0000
0100
0010
0101
0010
0100
1000
0011
0100
0010
0001
,
1010
0100
0000
0100
1010
0000
1000
0010
1100
0010
0000
0010
0101
0010
0001
0100
,
1001
0010
0000
0100
0011
0000
0011
0000
1010
0001
0010
0100
1001
0010
0001
0010
,
1100
0001
0000
1000
0110
0000
0100
0010
0101
0010
0100
1000
0011
1000
0001
1000
,
0011
0100
0000
0100
1001
0000
0100
0010
0101
0010
0100
1000
0011
0100
0010
0001
,
1010
0100
0000
0100
1010
0000
1000
0010
1100
0010
0000
0010
0101
0010
0001
0100
,
1001
0010
0000
0100
0011
0000
0011
0000
1110
0001
0010
0100
1001
0010
0001
0010
,
1100
0001
0000
1000
0110
0000
0100
0010
1101
0010
0100
1000
0011
1000
0001
1000
,
0011
1100
0011
1100
0011
0000
1100
0010
1101
0010
0100
1000
0011
0100
0010
0001
,
1010
0100
0000
0100
1010
0000
1000
0010
1101
0010
0000
0010
0101
0010
0001
0100
,
1001
0010
0000
0100
0011
0000
0011
0000
1110
0001
1010
0100
1001
0010
0101
0010
,
1101
0010
0101
1000
0110
0000
1100
0010
1101
0010
0101
1000
0011
1000
0011
0100
,
1011
0100
1010
0100
1001
0000
1100
0010
1101
0010
0101
1000
0011
0100
1010
0001
,
1010
0000
0000
0100
0000
0000
0011
0000
0000
0100
0000
0000
1010
0000
0000
0001
0000
0000
1100
0000
0000
0010
0000
0000
2102
0000
0000
0000
0000
0000
0000
0000
0000
0000
0000
3003
1001
0000
0000
0010
0000
0000
0100
0000
0000
1000
0000
0000
,
0011
1000
0100
0010
1001
0100
0010
1000
0101
1000
0100
0010
0101
1000
0010
1000
,
0101
0010
0001
1000
0011
1000
0100
0010
1001
0100
0001
1000
0011
0100
0010
0001
,
0110
1000
0100
0010
1001
0100
0010
1000
0110
1000
0100
0010
0101
1000
0010
1000
,
0101
0010
0001
1000
0011
1000
0100
0010
1001
0100
0001
1000
0011
0100
0010
0001
,
0110
1000
0100
0010
1001
0100
0010
1000
0110
1000
0100
0010
0101
1000
0010
1000
,
0101
0010
0001
1000
0110
1000
0100
0010
1001
0100
0001
1000
0101
0010
0100
1000
,
0011
1000
0100
0010
1001
0100
0010
1000
0110
1000
0100
0010
0101
1000
0010
1000
,
0101
0010
0001
1000
0011
1000
0100
0010
1001
0000
0110
0000
1001
0010
0100
1000
,
0011
1000
0100
0010
1001
0100
0010
1000
0101
1000
0100
0010
0101
1000
0010
1000
,
0101
0010
0001
1000
0011
1000
0100
0010
1001
0100
0001
1000
0011
0100
0010
0001
,
0110
1000
0100
0010
1001
0100
0010
1000
0110
1000
0100
0010
0101
1000
0010
1000
,
0101
0010
0001
1000
0011
1000
0100
0010
1001
0100
0001
1000
0011
0100
0010
0001
,
0110
1000
0100
0010
1001
0100
0010
1000
0110
1000
0100
0010
0101
1000
0010
1000
,
0101
0010
0001
1000
0110
1000
0100
0010
1001
0100
0001
1000
0101
0010
0100
1000
,
0011
0000
1000
0000
0100
0000
0010
0000
1001
0000
0100
0000
0010
0000
1000
0000
0110
0000
1000
0000
0100
0000
0010
0000
0101
1000
0001
0010
0100
1000
0001
0010
,
0100
1000
0001
0010
0100
1000
0001
0010
0100
1000
0001
0010
0100
1000
0001
0010
0100
1000
0001
0010
0100
1000
0001
0010
1100
0000
0000
0000
0000
0000
0000
0000
;

//---------------dance-single - Copied from Copied f----------------
#NOTES:
     dance-single:
     Copied from Copied f:
     Challenge:
     13:
     1.000,1.000,1.000,0.042,1.000,1708.000,481.000,9.000,0.000,13.000:
1001
0010
0100
1000
0010
1000
0100
0010
1000
0100
0010
1000
0100
1000
0100
0010
,
0001
1000
0010
1000
0100
0010
0001
1000
0010
1000
0100
0010
1000
0100
0001
1000
,
0010
0100
0010
0001
0100
1000
0100
0010
1000
0100
0010
1000
0100
1000
0100
0010
,
0001
1000
0010
1000
0100
0010
0001
1000
0010
1000
0100
0010
1000
0100
0001
1000
,
0010
0100
0010
0001
0100
1000
0100
0010
1000
0100
0010
1000
0100
1000
0100
0010
,
0001
1000
0010
1000
0100
0010
0001
1000
0010
1000
0100
0010
1000
0100
0001
1000
,
0010
0100
0010
0001
0100
1000
0100
0010
1000
0100
0010
1000
0100
1000
0100
0010
,
0001
1000
0010
1000
0100
0010
0001
1000
0010
1000
0100
0010
1000
0100
0001
1000
,
0011
0100
0010
0001
0100
1000
0100
0010
1000
0100
0010
1000
0100
1000
0100
0010
,
0101
1000
0010
1000
0100
0010
0001
1000
0010
1000
0100
0010
1000
0100
0001
1000
,
0011
0100
0010
0001
0100
1000
0100
0010
1000
0100
0010
1000
0100
1000
0100
0010
,
0101
1000
0010
1000
0100
0010
0001
1000
0010
1000
0100
0010
1000
0100
0001
1000
,
0011
0100
0010
0001
0100
1000
0100
0010
1001
0100
0010
0001
0100
1000
0100
0010
,
1001
0100
0010
0001
0100
1000
0100
0010
1001
0100
0010
0001
0100
1000
0100
0010
,
1001
0100
0010
0001
0110
1000
0100
0010
1001
0100
1010
0001
0110
1000
0101
0010
,
1001
0000
0000
0000
0001
0000
0000
0000
1100
0000
0011
0000
1100
0000
0000
0000
1000
0000
0100
0000
0010
0000
0001
0000
0110
0001
1000
0010
0100
0001
0010
0100
,
1001
0010
0100
1000
0011
1000
0100
0010
1001
0100
0010
1000
0101
1000
0100
0010
,
0101
1000
0010
1000
0101
0010
0001
1000
0011
1000
0100
0010
1001
0100
0001
1000
,
0011
0100
0010
0001
0110
1000
0100
0010
1001
0100
0010
1000
0110
1000
0100
0010
,
0101
1000
0010
1000
0101
0010
0001
1000
0011
1000
0100
0010
1001
0100
0001
1000
,
0011
0100
0010
0001
0110
1000
0100
0010
1001
0100
0010
1000
0110
1000
0100
0010
,
0101
1000
0010
1000
0101
0010
0001
1000
0110
1000
0100
0010
1001
0100
0001
1000
,
0101
0010
0100
1000
0011
1000
0100
0010
1001
0100
0010
1000
0110
1000
0100
0010
,
0101
0000
1000
0000
0010
0000
1000
0000
0101
0000
0010
0000
0001
0000
1000
0000
0011
0000
1000
0000
0100
0000
0010
0000
1001
0010
0100
1000
0001
0010
0100
1000
,
0101
0010
0100
1000
0110
1000
0100
0010
1001
0100
0010
1000
0110
1000
0100
0010
,
0101
1000
0010
1000
0101
0010
0001
1000
0110
1000
0100
0010
1001
0100
0001
1000
,
0011
0100
0010
0001
0110
1000
0100
0010
1001
0100
0010
1000
0101
1000
0100
0010
,
0101
1000
0010
1000
0101
0010
0001
1000
0110
1000
0100
0010
1001
0100
0001
1000
,
0101
0010
0100
1000
0011
1000
0100
0010
1001
0100
0010
1000
0110
1000
0100
0010
,
0101
1000
0010
1000
0101
0010
0001
1000
0110
1000
0100
0010
1001
0100
0001
1000
,
0011
0100
1000
0100
0011
0100
1000
0100
0011
0100
1000
0100
0011
0100
1000
0100
,
0000
0000
0000
0000
0010
0100
0010
0100
0010
0000
0100
0000
0000
0000
0100
0000
0000
0000
0100
0000
0010
0000
0000
0000
0100
0010
0100
0010
0100
0010
0100
0010
,
1001
0000
0000
0000
0000
0000
0000
0000
0000
0000
0000
0000
0000
0000
0000
0000
0001
0100
0000
1000
0000
0010
0001
0010
0100
1000
0000
0010
1000
0000
0100
1000
0001
0010
0100
1000
0000
0010
0001
0010
0100
1000
0000
0100
1000
0000
0100
0010
0001
0010
0100
1000
0000
0010
0001
0010
0100
1000
0000
0010
1000
0000
0100
0100
,
0010
0100
0000
0100
0000
0100
0010
0001
0010
0010
0000
0100
0100
0000
0100
0010
0001
0100
0000
1000
0000
0010
0001
0010
0100
1000
0000
0010
1000
0000
0100
1000
0001
0010
0100
1000
0000
0010
0001
0010
0100
1000
0000
0100
1000
0000
0100
0010
0001
0010
0100
1000
0000
0010
0001
0010
0100
1000
0000
0010
1000
0000
0100
0100
,
0010
0100
0000
0100
0000
0100
0010
0001
0010
0010
0000
0100
0100
0000
0100
0010
1001
0000
0000
0000
0000
0000
0000
0000
0100
0000
0000
0000
0000
0000
0000
0000
0101
0000
0000
0000
0010
0000
0000
0000
0100
0000
0000
0000
0011
0000
0000
0000
1000
0000
0000
0000
0011
0000
0000
0000
0011
0000
0000
0000
0100
0000
0000
0000
,
1010
0100
0010
0100
1001
0010
0100
1000
0101
0010
1100
0011
0100
0011
0012
0103
,
1010
0100
0010
0100
1001
0010
0100
1000
0101
0010
1100
0011
0100
0011
0011
0100
,
1010
0001
0010
0100
1001
0010
0100
1000
0101
0010
1100
0011
0100
0011
0011
0100
,
1010
0000
0100
0000
0010
0000
0100
0000
1002
0000
0013
0000
0200
0300
2000
3000
0102
0003
2000
3000
0100
0000
0011
0000
1000
0000
0011
0000
0011
0000
0100
0000
,
1010
0001
0100
0010
1000
0000
0000
0000
0000
0000
0000
0000
0000
0000
0000
0000
1100
0010
0001
1000
0100
0000
0000
0000
0002
0000
0003
0000
0010
1000
0100
0010
0001
0000
0000
0000
0010
0000
0000
0000
0100
0000
0000
0000
0011
0000
0000
0000
0100
0000
0000
0000
0011
0000
0000
0000
0011
0000
0000
0000
0100
0000
0000
0000
,
1010
0001
0100
0010
1001
0100
0010
1000
0101
0010
1000
0011
1000
0011
0011
1000
,
0101
0000
0010
0100
0000
0010
0100
0000
0100
0000
0100
0011
0100
0011
0111
0000
,
0110
0110
1100
0010
1001
0000
0000
0100
0010
0010
0000
0010
0000
0010
0010
0000
,
0010
0100
1000
0100
0010
0001
0010
0000
0010
0010
0001
0010
0100
1000
0010
0000
,
0010
0000
0010
0010
0000
0010
0010
0000
0100
0010
0001
0010
0001
0000
0100
0000
,
1000
0000
0100
1000
0000
0100
0010
1000
0010
0100
1000
0010
0001
0010
0100
0100
,
1010
0001
1010
0001
0110
0001
0010
0100
0000
0010
0001
0010
0100
0001
0000
1000
,
0010
0000
0100
0010
0001
0010
0100
1000
0000
1000
0001
1000
0010
0100
0000
0100
,
1000
0000
0100
0010
0001
0010
0100
1000
0000
0100
0010
0001
0010
0100
0000
0100
,
1000
0000
1000
0010
0000
0010
0000
0010
0000
0010
0001
0100
1000
0010
0000
0100
,
0011
0000
0011
0000
1010
0001
0010
0100
1001
0010
0001
0010
1100
0001
0000
1000
,
0011
0000
0100
0010
0101
0010
0100
1000
0011
1000
0001
1000
0011
0100
0000
0100
,
1001
0000
0100
0010
0101
0010
0100
1000
0011
0100
0010
0001
1010
0100
0000
0100
,
1010
0000
1000
0010
1100
0010
0000
0010
0101
0010
0001
0100
1001
0010
0000
0100
,
0011
0000
0011
0000
1010
0001
0010
0100
1001
0010
0001
0010
1100
0001
0000
1000
,
0110
0000
0100
0010
0101
0010
0100
1000
0011
1000
0001
1000
0011
0100
0000
0100
,
1001
0000
0100
0010
0101
0010
0100
1000
0011
0100
0010
0001
1010
0100
0000
0100
,
1010
0000
1000
0010
1100
0010
0000
0010
0101
0010
0001
0100
1001
0010
0000
0100
,
0011
0000
0011
0000
1010
0001
1010
0100
1001
0010
0101
0010
1100
0001
0110
1000
,
0011
0000
1100
0010
0101
0010
0101
1000
0011
1000
0110
1000
0011
0100
1010
0100
,
1001
0000
1100
0010
0101
0010
0101
1000
0011
0100
1010
0001
1010
0100
0011
0100
,
1010
0000
1100
0010
1100
0010
1001
0010
0101
0010
1001
0100
1001
0010
1001
0100
,
0011
0000
0011
0000
1010
0001
1010
0100
1001
0010
0101
0010
1100
0001
0110
1000
,
0011
0000
1100
0010
0101
0010
0101
1000
0011
1000
0110
1000
0011
0100
1010
0100
,
1001
0000
1100
0010
0101
0010
0101
1000
0011
0100
1010
0001
1010
0100
0011
0100
,
1010
0000
1100
0010
1100
0010
1001
0010
0101
0010
1001
0100
1001
0010
1001
0100
,
0011
0000
0011
0000
1010
0101
1010
0100
1001
0110
1001
0010
1100
0001
0110
1000
,
0011
0100
1001
0110
1001
0010
0101
1010
0101
1010
0101
1000
0011
0100
1001
0110
,
1001
0010
1100
0011
1100
0010
0101
1000
0011
0100
1010
0101
1010
0100
0011
1100
,
0011
0100
1001
0110
1001
0110
1001
0010
1100
0001
1010
0101
1010
0001
0110
1000
,
0011
1100
0011
0100
1010
0101
1010
0100
1001
0110
1001
0010
1100
0001
0110
1000
,
0101
1010
0101
1010
0101
1010
0101
1000
0110
1001
0110
1000
0011
0100
1010
0101
,
1010
0001
1100
0010
0101
1010
0101
1000
0011
0100
1010
0101
1010
0100
0011
1100
,
0011
0100
1001
0010
1100
0010
0101
1010
0101
0010
1001
0110
1001
0110
1001
0100
,
0011
0000
1011
0000
1111
0000
0000
0000
0100
0010
0000
0010
0000
0100
0010
0000
,
0100
0010
0000
0100
0010
0000
0100
0010
1100
0011
0000
0101
0000
0110
1001
0000
,
1100
0000
0011
0000
0000
0000
0011
0000
1100
0010
0001
1000
0100
0010
0001
1000
0110
0000
0001
0000
0010
0000
0100
0000
1001
0000
0010
0000
0001
0000
0010
0000
,
1100
0001
0000
1000
0110
0000
0100
0010
0101
0010
0100
1000
0011
1000
0001
1000
,
0011
0100
0000
0100
1001
0000
0100
0010
0101
0010
0100
1000
0011
0100
0010
0001
,
1010
0100
0000
0100
1010
0000
1000
0010
1100
0010
0000
0010
0101
0010
0001
0100
,
1001
0010
0000
0100
0011
0000
0011
0000
1010
0001
0010
0100
1001
0010
0001
0010
,
1100
0001
0000
1000
0110
0000
0100
0010
0101
0010
0100
1000
0011
1000
0001
1000
,
0011
0100
0000
0100
1001
0000
0100
0010
0101
0010
0100
1000
0011
0100
0010
0001
,
1010
0100
0000
0100
1010
0000
1000
0010
1100
0010
0000
0010
0101
0010
0001
0100
,
1001
0010
0000
0100
0011
0000
0011
0000
1110
0001
0010
0100
1001
0010
0001
0010
,
1100
0001
0000
1000
0110
0000
0100
0010
1101
0010
0100
1000
0011
1000
0001
1000
,
0011
1100
0011
1100
0011
0000
1100
0010
1101
0010
0100
1000
0011
0100
0010
0001
,
1010
0100
0000
0100
1010
0000
1000
0010
1101
0010
0000
0010
0101
0010
0001
0100
,
1001
0010
0000
0100
0011
0000
0011
0000
1110
0001
1010
0100
1001
0010
0101
0010
,
1101
0010
0101
1000
0110
0000
1100
0010
1101
0010
0101
1000
0011
1000
0011
0100
,
1011
0100
1010
0100
1001
0010
1100
0010
1101
0010
1100
0011
1100
0001
0110
1001
,
0110
0000
0000
1000
0000
0000
0101
0000
0000
1010
0000
0000
0101
0000
0000
0010
0000
0000
1100
0000
0000
0010
0000
0000
2102
0000
0000
0000
0000
0000
0000
0000
0000
0000
0000
3003
1001
0000
0000
0010
0000
0000
0100
0000
0000
1000
0000
0000
,
0011
1000
0100
0010
1001
0100
0010
1000
0101
1000
0100
0010
0101
1000
0010
1000
,
0101
0010
0001
1000
0011
1000
0100
0010
1001
0100
0001
1000
0011
0100
0010
0001
,
0110
1000
0100
0010
1001
0100
0010
1000
0110
1000
0100
0010
0101
1000
0010
1000
,
0101
0010
0001
1000
0011
1000
0100
0010
1001
0100
0001
1000
0011
0100
0010
0001
,
0110
1000
0100
0010
1001
0100
0010
1000
0110
1000
0100
0010
0101
1000
0010
1000
,
0101
0010
0001
1000
0110
1000
0100
0010
1001
0100
0001
1000
0101
0010
0100
1000
,
0011
1000
0100
0010
1001
0100
0010
1000
0110
1000
0100
0010
0101
1000
0010
1000
,
0101
0010
0001
1000
0011
1000
0100
0010
1001
0000
0110
0000
1001
0010
0100
1000
,
0011
1000
0100
0010
1001
0100
0010
1000
0101
1000
0100
0010
0101
1000
0010
1000
,
0101
0010
0001
1000
0011
1000
0100
0010
1001
0100
0001
1000
0011
0100
0010
0001
,
0110
1000
0100
0010
1001
0100
0010
1000
0110
1000
0100
0010
0101
1000
0010
1000
,
0101
0010
0001
1000
0011
1000
0100
0010
1001
0100
0001
1000
0011
0100
0010
0001
,
0110
1000
0100
0010
1001
0100
0010
1000
0110
1000
0100
0010
0101
1000
0010
1000
,
0101
0010
0001
1000
0110
1000
0100
0010
1001
0100
0001
1000
0101
0010
0100
1000
,
0011
0000
1000
0000
0100
0000
0010
0000
1001
0000
0100
0000
0010
0000
1000
0000
0110
0000
1000
0000
0100
0000
0010
0000
0101
1000
0001
0010
0100
1000
0001
0010
,
0100
1000
0001
0010
0100
1000
0001
0010
0100
1000
0001
0010
0100
1000
0001
0010
0100
1000
0001
0010
0100
1000
0001
0010
1100
0000
0000
0000
0000
0000
0000
0000
;
