#TITLE:Dance Da Dance;
#SUBTITLE:;
#ARTIST:DJ Sharpnel;
#TITLETRANSLIT:;
#SUBTITLETRANSLIT:;
#ARTISTTRANSLIT:;
#CREDIT:;
#BANNER:dance da dance bn.png;
#BACKGROUND:dance da dance bg.png;
#LYRICSPATH:;
#CDTITLE:;
#MUSIC:Dance Da Dance.ogg;
#OFFSET:-0.757;
#SAMPLESTART:234.766;
#SAMPLELENGTH:19.199;
#SELECTABLE:YES;
#DISPLAYBPM:200.000;
#BPMS:0.000=200.000,168.000=133.333,248.000=200.000;
#STOPS:;
#BGCHANGES:;
// cache tags:
#FIRSTBEAT:36.000;
#LASTBEAT:819.000;
#SONGFILENAME:Songs/SHARPNELSTREAMZ v2/Dance Da Dance/Dance Da Dance.sm;
#HASMUSIC:1;
#HASBANNER:1;
#MUSICLENGTH:259.996;
// end cache tags

//---------------dance-single - 16- (CTalon)----------------
#NOTES:
     dance-single:
     16- (CTalon):
     Challenge:
     16:
     1.000,1.000,0.038,0.019,1.000,2395.000,10.000,5.000,5.000,0.000:
0000
0000
0000
0000
,
0000
0000
0000
0000
,
0000
0000
0000
0000
,
0000
0000
0000
0000
,
0000
0000
0000
0000
,
0000
0000
0000
0000
,
0000
0000
0000
0000
,
0000
0000
0000
0000
,
0000
0000
0000
0000
,
0001
0010
0100
1000
0001
1000
0010
0100
0001
1000
0100
0010
0001
1000
0010
0100
,
0001
0010
0100
1000
0001
1000
0010
0100
0001
1000
0100
0010
0001
1000
0010
0100
,
0001
0010
0100
1000
0001
1000
0010
0100
0001
1000
0100
0010
0001
1000
0010
0100
,
0001
0010
0100
1000
0001
1000
0010
0100
0001
1000
0100
0010
0001
1000
0001
1000
,
0001
0100
0010
1000
0001
1000
0100
0010
0001
1000
0010
0100
0001
1000
0100
0010
,
0001
0100
0010
1000
0001
1000
0100
0010
0001
1000
0010
0100
0001
1000
0100
0010
,
0001
0100
0010
1000
0001
1000
0100
0010
0001
1000
0010
0100
0001
1000
0100
0010
,
0001
0100
0010
1000
0001
1000
0100
0010
0001
1000
0010
0100
0001
1000
0001
1000
,
0001
0100
0001
1000
0100
1000
0001
0100
0001
0100
0010
1000
0100
0010
0001
1000
,
0001
0100
0001
1000
0100
1000
0001
0100
0001
0100
0010
1000
0100
0010
0001
1000
,
0001
0100
0001
1000
0100
1000
0001
0100
0001
0100
0010
1000
0100
0010
0001
1000
,
0001
0100
0001
1000
0100
1000
0001
0100
0001
0100
0010
1000
0100
0010
0001
1000
,
0001
0010
0001
1000
0010
1000
0001
0010
0001
0010
0100
1000
0010
0100
0001
1000
,
0001
0010
0001
1000
0010
1000
0001
0010
0001
0010
0100
1000
0010
0100
0001
1000
,
0001
0010
0001
1000
0010
1000
0001
0010
0001
0010
0100
1000
0010
0100
0001
1000
,
0001
0010
0001
1000
0010
1000
0001
0010
0001
0010
0100
1000
0010
0100
0001
1000
,
0001
0010
0100
0010
0001
1000
0010
1000
0001
0100
0010
1000
0100
0010
0001
1000
,
0001
0100
0001
0100
0001
0100
0001
0100
0001
0010
0100
1000
0001
1000
0010
0100
,
0001
0010
0100
0010
0001
1000
0010
1000
0001
0100
0010
1000
0100
0010
0001
1000
,
0001
0100
0001
0100
0001
0100
0001
0100
0001
0010
0100
1000
0001
1000
0010
0100
,
0001
0010
0100
0010
0001
1000
0010
1000
0001
0100
0010
1000
0100
0010
0001
1000
,
0001
0100
0001
0100
0001
0100
0001
0100
0001
0010
0100
1000
0001
1000
0010
0100
,
0001
0010
0100
0010
0001
1000
0010
1000
0001
0100
0010
1000
0100
0010
0001
1000
,
0001
0100
0001
0100
0001
0100
0001
0100
0001
0010
0100
1000
0001
1000
0010
0100
,
0001
1000
0100
1000
0001
0010
0100
1000
0001
0100
0010
1000
0100
1000
0001
1000
,
0001
0010
0100
0010
0001
0010
0100
0010
0001
0100
0010
1000
0001
1000
0010
0100
,
0001
1000
0100
1000
0001
0010
0100
1000
0001
0100
0010
1000
0100
1000
0001
1000
,
0001
0010
0001
0010
0001
0010
0001
0010
0001
0100
0010
1000
0001
1000
0010
0100
,
0001
1000
0100
1000
0001
0010
0100
1000
0001
0100
0010
1000
0100
1000
0001
1000
,
0001
0010
0100
0010
0001
0010
0100
0010
0001
0100
0010
1000
0001
1000
0010
0100
,
0001
1000
0100
1000
0001
0010
0100
1000
0001
0100
0010
1000
0100
1000
0001
1000
,
0001
0010
0001
0010
0001
0010
0001
0010
0001
0100
0010
1000
0001
1000
0010
0100
,
0004
0000
0000
0000
0000
0003
0000
0000
0000
0000
0000
0000
0000
0000
0000
0000
,
1MM0
0001
0010
0001
0200
0000
0000
0000
,
0300
0010
1000
0001
0020
0000
0230
0000
,
1300
0001
0100
0010
2000
0000
0000
0000
,
3000
0100
00M0
0000
0000
0000
0000
0000
,
0000
0000
0000
0000
,
0000
0000
0000
0000
,
0000
0000
0000
0000
,
0000
0000
0000
0000
,
0000
0000
0000
0000
,
0000
0000
0000
0000
0000
1010
0000
0000
0010
0000
0000
0000
0000
0000
0000
0000
0000
1001
0000
0000
0001
0000
0000
0000
,
0000
0000
0000
0000
1100
0000
0000
0100
0000
0000
0110
0000
0000
0010
0000
0000
0011
0000
0000
0001
0000
0000
0000
0000
,
0000
0000
0000
0000
,
0000
0000
0000
0000
,
0000
0000
0000
0000
,
0000
0000
1001
1000
0000
0100
0000
0100
,
0010
0000
0011
0001
0000
1000
0000
1000
,
0001
0000
1010
1000
0000
0100
0000
0100
,
0010
0000
0011
0001
0000
1000
0000
1000
,
1000
1000
0000
0000
0000
0000
0000
0000
,
0000
0000
0000
0000
,
0MM1
0000
1000
0100
0010
0000
0001
0000
1000
0000
0010
0000
0100
0001
0100
0001
,
1000
0000
0010
0100
0001
0000
1000
0000
0100
0000
0100
0000
0010
0000
0010
0000
,
0001
0000
1000
0010
0100
0000
0001
0010
0100
0000
1000
0000
0001
0000
0100
0000
,
0020
0000
1030
0100
0010
0001
0010
0001
,
0000
0000
0000
0000
,
0000
0000
0000
0000
,
0000
0000
0000
0000
,
1000
0000
0001
0000
0100
0000
0010
1000
0100
0010
0001
1000
0001
0000
0100
0000
,
0010
0000
1000
0000
0001
0000
0100
0010
0100
0001
1000
0001
0010
0000
0100
0000
,
1000
0000
0001
0000
0100
0000
0010
1000
0001
1000
0100
0010
0100
0000
1000
0000
,
0001
0000
0100
0000
0010
0000
1000
0100
1000
0001
0100
0001
0100
0000
0010
0000
,
1000
0000
0001
0000
0010
0000
0100
1000
0100
0010
0001
1000
0001
0000
0100
0000
,
0010
0000
1000
0000
0001
0000
0010
0100
0010
0001
0010
0001
1000
0000
0010
0000
,
0100
0000
0001
0000
1000
0000
0100
0010
0001
0010
0001
1000
0010
0000
0100
0000
,
0001
0000
0010
0000
0100
0000
1000
0001
0100
0010
1000
0001
1000
0000
0100
0000
,
0010
0000
0001
0000
1000
0000
0010
0100
0010
1000
0001
1000
0001
0000
0100
0000
,
0010
0000
1000
0000
0100
0000
0010
0001
0010
0100
0010
0001
1000
0000
0001
0000
,
0100
0000
0010
0000
1000
0000
0001
0010
0100
1000
0100
1000
0001
0000
1000
0000
,
0001
0100
0001
0100
0001
0100
0001
0100
0010
0000
1000
0000
0100
0000
0010
0001
,
1000
0010
1000
0010
0100
0001
0100
0001
1000
0100
0010
0001
1000
0010
0100
0010
,
1000
0001
1000
0001
0010
0001
0010
0001
1000
0100
1000
0010
0100
0001
0010
0001
,
1000
0010
1000
0001
1000
0010
1000
0010
0100
0001
1000
0100
0010
0100
1000
0001
,
1000
0100
0010
0001
1000
0010
0100
0001
1000
0010
1000
0010
1000
0001
1000
0001
,
1000
0100
1000
0100
0010
0001
0010
0001
1000
0010
0100
0001
1000
0100
0010
0100
,
1000
0001
1000
0001
0100
0001
0100
0001
1000
0010
1000
0100
0010
0001
0100
0001
,
1000
0100
1000
0001
1000
0100
1000
0100
0010
0001
1000
0010
0100
0010
1000
0001
,
1000
0010
0100
0001
1000
0100
0010
0001
1000
0100
1000
0100
1000
0001
1000
0001
,
1000
0010
1000
0010
0100
0001
0100
0001
1000
0100
0010
0001
1000
0010
0100
0010
,
1000
0001
1000
0001
0010
0001
0010
0001
1000
0100
1000
0010
0100
0001
0010
0001
,
1000
0010
1000
0001
1000
0010
1000
0010
0100
0001
1000
0100
0010
0100
1000
0001
,
1000
0100
0010
0001
1000
0010
0100
0001
1000
0010
1000
0010
1000
0001
1000
0001
,
1000
0100
1000
0100
0010
0001
0010
0001
1000
0010
0100
0001
1000
0100
0010
0100
,
1000
0001
1000
0001
0100
0001
0100
0001
1000
0010
1000
0100
0010
0001
0100
0001
,
1000
0100
1000
0001
1000
0100
1000
0100
0010
0001
1000
0010
0100
0010
1000
0001
,
1000
0010
0100
0001
1000
0100
0010
0001
1000
0100
1000
0100
1000
0001
1000
0001
,
1000
0010
1000
0010
0100
0001
0100
0001
1000
0100
0010
0001
1000
0010
0100
0010
,
1000
0001
1000
0001
0010
0001
0010
0001
1000
0100
1000
0010
0100
0001
0010
0001
,
1000
0010
1000
0001
1000
0010
1000
0010
0100
0001
1000
0100
0010
0100
1000
0001
,
1000
0100
0010
0001
1000
0010
0100
0001
1000
0010
1000
0010
1000
0001
1000
0001
,
1000
0100
1000
0100
0010
0001
0010
0001
1000
0010
0100
0001
1000
0100
0010
0100
,
1000
0001
1000
0001
0100
0001
0100
0001
1000
0010
1000
0100
0010
0001
0100
0001
,
1000
0100
1000
0001
1000
0100
1000
0100
0010
0001
1000
0010
0100
0010
1000
0001
,
1000
0010
0100
0001
1000
0100
0010
0001
1000
0100
1000
0100
1000
0001
1000
0001
,
1000
0000
0010
0000
0100
0001
0100
0001
0100
0001
0010
0100
1000
0000
0010
0000
,
0100
0000
0001
0010
0100
0000
0010
0000
0001
0000
1000
0000
0010
0000
1000
0100
,
0010
0000
0000
0001
1000
0000
0010
0000
0000
1000
0001
0000
0010
0000
0000
0100
,
1000
0000
0001
0000
0100
0000
0010
1000
0001
0000
0001
0000
0100
0000
0100
0000
,
0010
0000
1000
0001
0010
0001
0100
0001
0100
0010
1000
0001
0010
0000
0100
0000
,
1000
0000
0001
0100
0010
0000
1000
0000
0001
0000
0010
0000
0100
0000
1000
0001
,
0100
0000
0000
0010
1000
0000
0100
0000
0000
0010
0001
0000
1000
0000
0000
0001
,
0100
0000
0000
0010
1000
0000
0100
0000
0000
0010
0001
0000
1000
0000
0000
0010
,
1000
0001
1000
0001
0100
0010
1000
0100
0010
0001
0010
0100
1000
0001
0100
0001
,
1000
0100
1000
0100
0010
0001
0010
0001
1000
0010
0100
0001
0100
0010
1000
0001
,
0010
0100
1000
0001
0100
0001
0010
0100
1000
0001
0100
0001
0010
0100
1000
0001
,
1000
0010
0100
0010
1000
0010
0100
0001
1000
0100
0010
0100
1000
0001
0100
0001
,
1000
0001
1000
0001
0010
0100
1000
0010
0100
0001
0100
0010
1000
0001
0010
0001
,
1000
0010
1000
0010
0100
0001
0100
0001
1000
0100
0010
0001
0010
0100
1000
0001
,
0100
0010
1000
0001
0010
0001
0100
0010
1000
0001
0010
0001
0100
0010
1000
0001
,
1000
0100
0010
0100
1000
0100
0010
0001
1000
0010
0100
0010
1000
0001
0010
0001
,
1000
0001
1000
0001
0100
0010
1000
0100
0010
0001
0010
0100
1000
0001
0100
0001
,
1000
0100
1000
0100
0010
0001
0010
0001
1000
0010
0100
0001
0100
0010
1000
0001
,
0010
0100
1000
0001
0100
0001
0010
0100
1000
0001
0100
0001
0010
0100
1000
0001
,
1000
0010
0100
0010
1000
0010
0100
0001
1000
0100
0010
0100
1000
0001
0100
0001
,
1000
0001
1000
0001
0010
0100
1000
0010
0100
0001
0100
0010
1000
0001
0010
0001
,
1000
0010
1000
0010
0100
0001
0100
0001
1000
0100
0010
0001
0010
0100
1000
0001
,
0100
0010
1000
0001
0010
0001
0100
0010
1000
0001
0010
0001
0100
0010
1000
0001
,
1000
0100
0010
0100
1000
0100
0010
0001
1000
0010
0100
0010
1000
0001
0010
0001
,
1000
0001
1000
0001
0100
0010
1000
0100
0010
0001
0010
0100
1000
0001
0100
0001
,
1000
0100
1000
0100
0010
0001
0010
0001
1000
0010
0100
0001
0100
0010
1000
0001
,
0010
0100
1000
0001
0100
0001
0010
0100
1000
0001
0100
0001
0010
0100
1000
0001
,
1000
0010
0100
0010
1000
0010
0100
0001
1000
0100
0010
0100
1000
0001
0100
0001
,
1000
0001
1000
0001
0010
0100
1000
0010
0100
0001
0100
0010
1000
0001
0010
0001
,
1000
0010
1000
0010
0100
0001
0100
0001
1000
0100
0010
0001
0010
0100
1000
0001
,
0100
0010
1000
0001
0010
0001
0100
0010
1000
0001
0010
0001
0100
0010
1000
0001
,
1000
0100
0010
0100
1000
0100
0010
0001
1000
0010
0100
0010
1000
0001
0010
0001
,
1000
0000
0001
0000
0100
0000
0001
1000
0000
1000
0010
0000
0100
0000
0001
0000
,
1000
0000
0100
0000
0010
0000
0001
1000
0000
1000
0010
0000
0100
0000
0001
0000
,
1000
0000
0100
0000
0010
0000
0100
1000
0000
1000
0001
0000
0100
0000
0010
0000
,
1000
0000
0001
0000
1000
0000
0010
0100
0000
0100
0001
0000
1000
0000
0100
0000
,
1000
0000
0001
0000
0010
0000
0100
1000
0000
1000
0001
0000
0100
0000
0010
0000
,
1000
0000
0100
0000
0010
0000
0001
1000
0000
1000
0010
0000
0100
0000
0001
0000
,
1000
0000
0100
0000
0010
0000
0001
1000
0000
1000
0010
0000
0100
0000
0001
0000
,
0010
0000
0001
0000
1000
0000
0010
0100
0000
0100
0001
0000
1000
0000
0100
0000
,
0010
0000
0001
0000
1000
0000
0010
0100
0000
0100
0001
0000
0010
0000
0001
0000
,
1000
0000
0010
0000
0100
0000
0001
0010
0000
0010
0100
0000
1000
0000
0001
0000
,
1000
0000
0001
0000
0100
0000
0010
1000
0000
1000
0100
0000
1000
0000
0001
0000
,
1000
0000
0100
0000
0010
0000
0001
0010
0000
0010
0001
0000
1000
0000
0010
0000
,
0100
0000
0001
0000
1000
0000
0100
0010
0000
0010
0001
0000
1000
0000
0010
0000
,
0100
0000
0001
0000
1000
0000
0010
1000
0000
1000
0100
0000
0010
0000
0001
0000
,
1000
0000
0001
0000
1000
0000
0010
0100
0000
0100
0001
0000
0010
0000
0100
0000
,
0010
0000
0001
1000
0001
1000
0010
0000
0100
0000
0001
0010
0100
0000
1000
0000
,
0001
0010
0100
1000
0001
0100
0010
1000
0100
1000
0010
1000
0001
0010
0100
1000
,
0001
0100
0010
0100
0001
1000
0100
1000
0010
1000
0100
0010
0001
0010
0100
1000
,
0001
0010
0001
1000
0010
0100
0010
1000
0100
1000
0010
0100
0001
1000
0100
1000
,
0001
0010
0001
0010
0001
1000
0010
1000
0100
1000
0010
1000
0001
0010
0100
0010
,
0001
0010
0100
1000
0001
0100
0010
1000
0100
1000
0010
1000
0001
0010
0100
1000
,
0001
0100
0010
0100
0001
1000
0100
1000
0010
1000
0100
0010
0001
0010
0100
1000
,
0001
0010
0001
1000
0010
0100
0010
1000
0100
1000
0010
0100
0001
1000
0100
1000
,
0001
0010
0001
0010
0001
1000
0010
1000
0100
1000
0010
1000
0001
0010
0100
0010
,
0001
0100
0010
1000
0001
0010
0100
1000
0010
1000
0100
1000
0001
0100
0010
1000
,
0001
0010
0100
0010
0001
1000
0010
1000
0100
1000
0010
0100
0001
0100
0010
1000
,
0001
0100
0001
1000
0100
0010
0100
1000
0010
1000
0100
0010
0001
1000
0010
1000
,
0001
0100
0001
0100
0001
1000
0100
1000
0010
1000
0100
1000
0001
0100
0010
0100
,
0001
0100
0010
1000
0001
0010
0100
1000
0010
1000
0100
1000
0001
0100
0010
1000
,
0001
0010
0100
0010
0001
1000
0010
1000
0100
1000
0010
0100
0001
0100
0010
1000
,
0001
0100
0001
1000
0100
0010
0100
1000
0010
1000
0100
0010
0001
1000
0010
1000
,
0001
0000
1000
0010
0100
0001
1000
0000
0001
0000
0010
0100
1000
0000
0001
0000
,
0100
0000
0010
0000
1000
0000
0000
0001
0000
0010
0000
0100
0000
0000
0000
0000
,
1000
0000
0001
0000
0100
0000
0000
0010
0000
1000
0000
0010
0000
0000
0000
0000
,
1000
0000
0100
0000
0010
0000
0000
0001
0000
1000
0000
0001
0000
0000
0000
0000
,
0100
0000
0010
0000
1000
0000
0000
0100
0000
0010
0000
0001
0000
0000
0000
0000
,
0100
0000
0001
0000
0010
0000
0000
0100
0000
0010
0000
0001
0000
0000
0000
0000
,
1000
0000
0010
0000
0100
0000
0000
0001
0000
0010
0000
0100
0000
0000
0000
0000
,
1000
0000
0001
0000
0100
0000
0000
0010
0000
1000
0000
0010
0000
0000
0000
0000
,
0100
0001
1000
0001
1000
0001
1000
0001
4000
0000
0000
0000
3000
0000
0004
0000
,
1003
0100
0010
0000
0001
0000
1000
0010
0100
0000
0001
0000
0010
0000
0100
0000
,
0010
0001
1000
0000
0010
0000
0100
0001
1000
0000
0001
0000
0010
0000
0100
0000
,
1000
0001
0100
0000
0010
0000
1000
0100
0010
0000
0001
0000
1000
0000
0010
0000
,
1000
0001
0100
0000
0001
0000
0010
0001
1000
0000
0100
0000
1000
0000
0010
0000
,
0100
0001
0100
0000
0010
0000
1000
0100
0010
0000
0100
0000
1000
0000
0001
0000
,
0100
0010
1000
0000
0100
0000
1000
0001
0010
0000
0100
0000
0010
0000
0001
0000
,
1000
0001
0100
0000
0010
0000
1000
0100
0010
0000
0001
0000
1000
0000
0001
0000
,
1000
0010
0100
0000
0010
0000
1000
0100
0010
0000
0001
0000
1000
0000
0001
0000
,
1000
0100
0010
0001
1000
0001
0100
0010
1000
0001
0010
0100
1000
0001
0100
0010
,
1000
0100
0010
0001
1000
0001
0100
0010
1000
0001
0010
0100
1000
0001
0100
0010
,
1000
0100
0010
0001
1000
0001
0100
0010
1000
0001
0010
0100
1000
0001
0100
0010
,
1000
0100
0010
0001
1000
0001
0100
0010
1000
0001
0010
0100
1000
0001
1000
0001
,
1000
0010
0100
0001
1000
0001
0010
0100
1000
0001
0100
0010
1000
0001
0010
0100
,
1000
0010
0100
0001
1000
0001
0010
0100
1000
0001
0100
0010
1000
0001
0010
0100
,
1000
0010
0100
0001
1000
0001
0010
0100
1000
0001
0100
0010
1000
0001
0010
0100
,
1000
0010
0100
0001
1000
0001
0010
0100
1000
0001
0100
0010
1000
0001
1000
0001
,
1000
0010
1000
0001
0010
0001
1000
0010
1000
0010
0100
0001
0010
0100
1000
0001
,
1000
0010
1000
0001
0010
0001
1000
0010
1000
0010
0100
0001
0010
0100
1000
0001
,
1000
0010
1000
0001
0010
0001
1000
0010
1000
0010
0100
0001
0010
0100
1000
0001
,
1000
0010
1000
0001
0010
0001
1000
0010
1000
0010
0100
0001
0010
0100
1000
0001
,
1000
0100
1000
0001
0100
0001
1000
0100
1000
0100
0010
0001
0100
0010
1000
0001
,
1000
0100
1000
0001
0100
0001
1000
0100
1000
0100
0010
0001
0100
0010
1000
0001
,
1000
0100
1000
0001
0100
0001
1000
0100
1000
0100
0010
0001
0100
0010
1000
0001
,
1000
0100
1000
0001
0100
0001
1000
0100
1000
0100
0010
0001
0100
0010
1000
0001
,
1000
0100
0010
0000
0001
0000
1000
0010
0100
0000
0001
0000
0010
0000
0000
0000
,
0001
1000
0010
0000
1000
0000
0100
1000
0001
0000
0100
0000
0010
0000
0000
0000
,
1000
0100
0010
0000
0001
0000
0100
0010
1000
0000
0001
0000
1000
0000
0000
0000
,
0100
0010
0001
0000
1000
0000
0010
0100
0010
0000
1000
0000
0001
0000
0000
0000
;
