#TITLE:Still Loving You;
#SUBTITLE:Takatalvi (2003);
#ARTIST:Sonata Arctica;
#TITLETRANSLIT:;
#SUBTITLETRANSLIT:;
#ARTISTTRANSLIT:;
#CREDIT:;
#BANNER:StillLovingYou-BN.png;
#BACKGROUND:StillLovingYou1-BG.png;
#LYRICSPATH:;
#CDTITLE:RaVeTitle.PNG;
#MUSIC:Sonata Arctica - Takatalvi - 03 - Still Loving You.mp3;
#OFFSET:-0.180;
#SAMPLESTART:100.000;
#SAMPLELENGTH:12.000;
#SELECTABLE:YES;
#BPMS:0.000=50.000,15.000=16.500,16.000=50.000,20.000=51.000,22.000=50.500,24.000=50.000,26.000=50.500,28.000=50.200,32.000=49.000,34.000=50.000,40.000=49.800,44.000=50.000,60.500=51.000,62.000=178.000,68.000=165.000,69.750=82.500,71.000=100.000,72.000=176.001,124.000=177.501,143.500=178.001,160.000=177.001,171.500=175.501,173.000=174.001,176.000=172.501,184.000=174.001,188.000=175.001,192.000=87.251,204.000=174.501,212.000=175.001,220.000=180.001,224.000=182.001,244.000=165.001,280.000=174.001,285.000=174.001,292.000=173.501,316.000=171.501,324.000=172.001,336.000=174.501,368.000=177.001,384.000=176.001,392.000=175.001,406.000=172.000,420.000=171.500,436.000=165.000,464.000=164.000,476.000=162.000,484.000=162.000,500.000=81.000;
#STOPS:;
#BGCHANGES:62.000=StillLovingYou-BG.png=1.000=1=0=1,
99999=-nosongbg-=1.000=0=0=0 // don't automatically add -songbackground-
;
// cache tags:
#FIRSTBEAT:0.000;
#LASTBEAT:536.000;
#SONGFILENAME:Songs/Astronomic Metal Collection 2/(KGWrave) Still Loving You/Still Loving You.sm;
#HASMUSIC:1;
#HASBANNER:1;
#MUSICLENGTH:274.968;
// end cache tags

//---------------dance-single - ----------------
#NOTES:
     dance-single:
     :
     Hard:
     10:
     0.782,0.828,0.600,0.356,0.704,1242.000,165.000,98.000,0.000,3.000:
0001
0010
1000
0100
0001
0010
1000
0100
0001
0010
1000
0100
0001
0010
0100
1000
,
0002
0000
2003
0010
3100
0000
0020
0000
2030
0000
3002
0100
0023
0000
0000
0030
,
1000
0100
0001
0010
1000
0100
0001
0010
1000
0100
0001
0010
1000
0100
0010
0001
,
2000
0000
3002
0100
0013
0000
0200
0000
0301
1000
0100
0010
0002
0000
0000
0000
,
1003
0001
0010
0100
0001
0010
0100
0001
1000
0001
0010
0100
0001
0010
0100
0001
,
1000
0001
0010
0100
0001
0010
0100
0001
1000
0001
0010
0100
0001
0010
0100
0001
,
0100
0001
1000
0100
0001
1000
0100
0010
0100
0001
1000
0100
0001
1000
0100
0010
,
0001
1000
0010
0100
0001
0010
0100
1000
0010
0100
0020
0000
0000
0000
0030
0000
,
0001
1000
0100
0010
1000
0100
0010
1000
0001
1000
0100
0010
1000
0100
0010
1000
,
0001
1000
0100
0010
1000
0100
0010
1000
0001
1000
0100
0010
1000
0100
0010
1000
,
0010
1000
0001
0010
1000
0001
0010
0100
0010
1000
0001
0010
1000
0001
0010
0100
,
1000
0001
0100
0010
1000
0100
0010
0001
0100
0010
0200
0000
0000
0000
0300
0000
,
0001
0010
1000
0100
0001
0010
1000
0100
0001
0010
1000
0100
0001
0010
0100
1000
,
0002
0000
2003
0010
3100
0000
0020
0000
2030
0000
3002
0100
0023
0000
0000
0030
,
1000
0100
0001
0010
1000
0100
0001
0010
1000
0100
0001
0010
1000
0100
0010
0001
,
2000
0000
3002
0100
0013
0000
0100
0000
0001
0010
0100
0000
0010
0100
1000
0000
,
0100
1000
0100
0000
1001
0000
0000
0000
1001
0000
0000
0000
0000
0000
0000
0000
,
0000
1100
0101
2002
0000
0000
0000
3003
,
1001
0000
0000
0000
1100
0000
0010
0000
0001
0100
0001
0000
1000
0100
1000
0000
,
1001
0000
0000
0000
1010
0000
0100
0000
0001
0010
0100
0000
1000
0000
0010
0100
,
1010
0000
0000
0000
0101
0000
1000
0000
0010
0100
0001
0000
1000
0000
0010
0100
,
0011
0000
0000
0000
1010
0000
0100
0000
0001
1000
0001
0000
0100
0000
1000
0100
,
0011
0000
0000
0000
1100
0000
1000
0100
0011
0000
0000
0000
1100
0000
1000
0100
,
0011
0100
1000
0001
0100
0010
1000
0001
,
1001
0000
0000
0000
0110
0000
1000
0000
0010
0100
0001
0000
0100
0000
0001
0010
,
1100
0000
0000
0000
1000
0001
0100
0000
0010
1000
0010
0000
0100
0001
0010
0000
,
1001
0000
0000
0000
0011
0000
0100
0000
1000
0010
1000
0000
0001
0010
0001
0000
,
1001
0000
0000
0000
0101
0000
0010
0000
1000
0100
0010
0000
0001
0000
0100
0010
,
0101
0000
0000
0000
1010
0000
0001
0000
0100
0010
1000
0000
0001
0000
0100
0010
,
1100
0000
0000
0000
0101
0000
0010
0000
1000
0001
1000
0000
0010
0000
0001
0010
,
1100
0000
0000
0000
0011
0000
0001
0010
1100
0000
0000
0000
0011
0000
0001
0010
,
1100
0010
0001
1000
0010
0100
0001
1000
,
1001
0000
1010
0000
0100
0001
0011
0000
,
1100
0000
0010
1001
0000
1000
0001
0010
,
1100
0000
0000
0000
0010
0000
0101
0000
0000
0000
1000
0000
0100
0000
0001
0010
,
0100
1000
0001
1100
0000
1100
0000
1000
,
1100
0000
0110
0000
0001
1000
1010
0000
,
0101
0000
0010
1100
0000
0100
1000
0010
,
0101
0000
0000
0000
0010
0000
1001
0000
0000
0000
0100
0000
0010
0000
1000
0010
,
0100
0000
0001
0000
0010
0000
0200
0000
0000
0000
0000
0000
0300
0000
0001
1000
,
0101
0101
0101
0000
0000
0000
0000
1001
,
0000
1000
0010
0000
0100
0100
1001
0100
,
1001
0000
0010
0000
1100
0000
0010
0000
0011
0000
0001
0010
0100
1000
0200
0000
,
0000
0000
0001
0300
2002
0000
0000
3003
,
2002
3003
0100
1000
0002
0000
0103
1000
,
0001
0020
0130
1000
0200
0000
0300
0010
,
0001
0010
0001
0000
0010
0100
0010
0000
0100
1000
0100
0000
1000
0001
1000
0000
,
1000
0100
1000
0000
0100
0010
0100
0000
0010
0001
0010
0001
0010
0100
1000
0100
,
1002
1000
0100
0100
1000
1000
0100
0103
,
1000
0000
0000
0010
0000
0000
0100
0000
0000
0001
0000
0000
0010
0000
0000
0100
0000
0000
1000
0000
0000
0010
0000
0000
0100
0000
0000
0001
0000
0000
0010
0000
0000
0100
0000
0000
1000
0000
0100
0000
0010
0000
0100
0000
0010
0000
0001
0000
,
0200
0000
0000
0001
0302
0000
0000
0010
0023
0000
0000
0100
0230
0000
0301
0000
,
0001
0010
0100
1000
0100
0010
0100
1000
0001
0100
0010
1000
0010
0100
0001
0010
,
0100
0010
0001
0100
0010
1000
0010
0100
0001
0010
0100
1000
0020
0000
0030
0000
,
1001
0000
2000
0000
0000
0010
3000
0000
0200
0000
0000
0000
0000
0000
0000
0000
,
0000
0000
0000
0000
0300
0000
1000
0100
2000
0000
3002
0000
0000
2003
0000
3020
,
0000
0000
0230
0000
0302
0000
0000
2003
0000
0000
0000
0000
3000
1000
0001
2000
,
0000
0000
0000
0000
0000
0000
0000
0000
0000
0000
3000
0000
0100
1000
0100
0020
,
0000
0000
0000
0000
0000
0000
0000
0000
0030
0000
0100
1000
0100
0010
0001
0010
,
0002
0000
0000
0000
0000
0000
0020
0033
,
1001
0100
1000
0010
0100
0001
0010
0100
0010
0001
1000
0001
0100
0010
1000
0010
,
0100
0001
0010
0100
1000
0100
1000
0010
0100
0001
1000
0001
0010
0100
0010
0001
,
0020
0000
0000
0000
0032
0003
0002
0003
,
2000
0000
3001
0200
0000
0000
0000
0310
,
1000
0000
0000
0100
0000
0000
0010
0000
0001
0000
0100
0000
0010
0000
1000
0000
0010
0000
0100
0000
0001
0000
0010
0000
,
0100
1000
0010
0100
0001
0010
0100
1000
0100
0010
0001
0010
,
0002
0000
0000
0000
0000
0000
0000
0000
1003
0100
0010
0000
0020
0000
0000
0000
,
1030
0001
1000
0100
0020
0000
0000
0000
1030
0001
1000
0100
0020
0000
0000
0000
,
0230
0000
0000
0000
0301
0010
0100
1000
0100
1000
0010
0100
0002
0000
0000
0000
,
0003
1000
0100
0010
0001
0010
0100
1000
0001
0100
0010
1000
0010
0100
0001
0000
,
1001
0110
1001
0000
0000
0000
0000
1001
,
0000
0001
1000
0000
0010
0100
1001
0010
,
1001
0000
1100
0000
0101
0000
0000
0000
1001
0000
0001
0010
0001
0010
0200
0000
,
0000
0000
2000
3300
,
1001
0000
0200
2300
3002
0003
0200
2300
,
3002
0023
0230
0320
0032
0000
0000
0003
,
0011
0100
1000
1010
0100
0001
0011
0100
,
1000
1010
0100
0001
0011
0110
1100
0000
,
0010
2002
3013
2002
,
3013
0000
0000
0000
2002
0000
0000
0000
3013
0000
1000
0100
0010
0000
0000
0000
,
1001
0000
0000
0000
1100
0000
0010
0000
0001
0100
0001
0000
1000
0100
1000
0000
,
1001
0000
0000
0000
1010
0000
0100
0000
0001
0010
0100
0000
1000
0000
0010
0100
,
1010
0000
0000
0000
0101
0000
1000
0000
0010
0100
0001
0000
1000
0000
0010
0100
,
0011
0000
0000
0000
1010
0000
0100
0000
0001
1000
0001
0000
0100
0000
1000
0100
,
0011
0000
0000
0000
1100
0000
1000
0100
0011
0000
0000
0000
1100
0000
1000
0100
,
0011
0100
1000
0001
0100
0010
1000
0001
,
1001
0000
0000
0000
0110
0000
1000
0000
0010
0100
0001
0000
0100
0000
0001
0010
,
1100
0000
0000
0000
1000
0001
0100
0000
0010
1000
0010
0000
0100
0001
0010
0000
,
1001
0000
0000
0000
0011
0000
0100
0000
1000
0010
1000
0000
0001
0010
0001
0000
,
1001
0000
0000
0000
0101
0000
0010
0000
1000
0100
0010
0000
0001
0000
0100
0010
,
0101
0000
0000
0000
1010
0000
0001
0000
0100
0010
1000
0000
0001
0000
0100
0010
,
1100
0000
0000
0000
0101
0000
0010
0000
1000
0001
1000
0000
0010
0000
0001
0010
,
1100
0000
0000
0000
0011
0000
0001
0010
1100
0000
0000
0000
0011
0000
0001
0010
,
1100
0000
0010
0000
0001
0000
1000
0000
0010
0000
0100
0001
0010
0100
1000
0100
,
1001
0000
1010
0000
0100
0001
0011
0000
,
1100
0000
0010
1001
0000
1000
0001
0010
,
1100
0000
0000
0000
0010
0000
0101
0000
0000
0000
1000
0000
0100
0000
0001
0010
,
0100
1000
0001
1100
0000
1100
0000
1000
,
1100
0000
0110
0000
0001
1000
1010
0000
,
0101
0000
0010
1100
0000
0100
1000
0010
,
0101
0000
0000
0000
0010
0000
1001
0000
0000
0000
0100
0000
0010
0000
1000
0010
,
0100
0000
0001
0000
0010
0000
0200
0000
0000
0000
0000
0000
0300
0000
0001
1000
,
0101
0101
0101
0000
0000
0000
0000
1001
,
0000
1000
0010
0000
0100
0100
1001
0100
,
1001
0000
0010
0000
1100
0000
0010
0000
0011
0000
0001
0010
0100
1000
0200
0000
,
0000
0000
0001
0300
2002
0000
0000
3003
,
2002
3003
0100
1000
0002
0000
0103
1000
,
0001
0020
0130
1000
0200
0000
0300
0010
,
1001
0000
0000
0002
0000
0000
2003
0000
3020
0000
0000
0000
0000
0000
0000
0000
,
0000
0000
0000
0000
0030
0000
1000
0100
2000
0000
3000
0000
0001
1000
0001
1000
,
0010
0100
0001
0010
0100
0010
0001
0100
0010
1000
0001
0100
0010
1000
0010
0100
,
0010
1000
0100
0010
0001
0100
0010
1000
0010
0100
0001
0010
0100
0010
0001
1000
,
0010
0100
0010
1000
0010
0100
0001
0010
0100
1000
0100
0010
0001
0100
0010
1000
,
0010
0100
0001
0010
0100
1000
0001
1000
0010
0100
0001
1000
0100
0010
0001
0010
,
0100
1000
0010
0100
0001
0100
0010
1000
0100
1000
0001
0010
0100
1000
0001
0100
,
0010
0100
0001
0010
0100
1000
0100
1000
0010
0100
0001
0010
0100
0010
0001
0100
,
0010
1000
0001
1000
0010
0100
0001
0010
0100
0010
0001
0100
0010
1000
0010
0100
,
0001
1000
0100
1000
0010
1000
0100
0010
0001
0010
0100
0010
0001
0100
0010
0100
,
1001
0100
1000
1001
0100
1000
1001
0100
,
1000
0010
0100
0001
0010
0100
1000
0100
0010
0001
0100
0010
1000
0010
0100
0001
,
1100
0001
0010
1100
0001
0010
1100
0010
,
0101
1000
0010
0100
0001
0010
0100
0010
0001
1000
0001
0100
0010
1000
0010
0100
,
0001
0010
0100
1000
0100
0010
0001
0100
0010
1000
0001
1000
0010
0100
0010
1000
,
0100
0010
0100
1000
0001
0100
0010
1000
0010
0100
0001
0010
0100
1000
0100
0010
,
0001
0100
0010
1000
0010
0100
0001
0010
0100
0010
0001
1000
0001
0100
0010
1000
,
0010
0100
0001
0010
0100
1000
0010
0100
0001
0010
0100
0010
0001
0100
0010
1000
,
2001
0000
0001
0000
0100
0000
0100
0000
0001
0000
0001
0000
0100
0000
3100
0110
,
1001
0000
0001
0000
0100
0000
0100
0000
0001
0000
0001
0000
0100
0000
0100
0110
,
2001
0000
0001
0000
0100
0000
0100
0000
0001
0000
0001
0000
0100
0000
3100
0110
,
1001
0000
0001
0000
0100
0000
0100
0000
0001
0000
0001
0000
0100
0000
0100
0110
,
2001
0000
0001
0000
0100
0000
0100
0000
0001
0000
0001
0000
0100
0000
3100
0110
,
1001
0000
0001
0000
0100
0000
0100
0000
0001
0000
0001
0000
0100
0000
0100
0110
,
2001
0000
0001
0000
0100
0000
0100
0000
0001
0000
0001
0000
0100
0000
3100
0110
,
1001
0000
0001
0000
0100
0000
0100
0000
0001
0000
0001
0000
0100
0000
0100
0110
,
2002
0000
0000
0000
0000
0000
0000
0000
0000
0000
0000
0000
0000
0000
3003
0110
,
1001
0000
0000
0000
;

//---------------dance-single - ----------------
#NOTES:
     dance-single:
     :
     Challenge:
     11:
     0.795,0.828,0.600,0.356,0.749,1267.000,165.000,98.000,0.000,3.000:
0001
0010
1000
0100
0001
0010
1000
0100
0001
0010
1000
0100
0001
0010
0100
1000
,
0002
0000
2003
0010
3100
0000
0020
0000
2030
0000
3002
0100
0023
0000
0000
0030
,
1000
0100
0001
0010
1000
0100
0001
0010
1000
0100
0001
0010
1000
0100
0010
0001
,
2000
0000
3002
0100
0013
0000
0200
0000
0301
1000
0100
0010
0002
0000
0000
0000
,
1003
0001
0010
0100
0001
0010
0100
0001
1000
0001
0010
0100
0001
0010
0100
0001
,
1000
0001
0010
0100
0001
0010
0100
0001
1000
0001
0010
0100
0001
0010
0100
0001
,
0100
0001
1000
0100
0001
1000
0100
0010
0100
0001
1000
0100
0001
1000
0100
0010
,
0001
1000
0010
0100
0001
0010
0100
1000
0010
0100
0020
0000
0000
0000
0030
0000
,
0001
1000
0100
0010
1000
0100
0010
1000
0001
1000
0100
0010
1000
0100
0010
1000
,
0001
1000
0100
0010
1000
0100
0010
1000
0001
1000
0100
0010
1000
0100
0010
1000
,
0010
1000
0001
0010
1000
0001
0010
0100
0010
1000
0001
0010
1000
0001
0010
0100
,
1000
0001
0100
0010
1000
0100
0010
0001
0100
0010
0200
0000
0000
0000
0300
0000
,
0001
0010
1000
0100
0001
0010
1000
0100
0001
0010
1000
0100
0001
0010
0100
1000
,
0002
0000
2003
0010
3100
0000
0020
0000
2030
0000
3002
0100
0023
0000
0000
0030
,
1000
0100
0001
0010
1000
0100
0001
0010
1000
0100
0001
0010
1000
0100
0010
0001
,
2000
0000
3002
0100
0013
0000
0100
0000
0001
0010
0100
0000
0010
0100
1000
0000
,
0100
1000
0100
0000
1001
0000
0000
0000
1001
0000
0000
0000
0000
0000
0000
0000
,
0000
1100
0101
2002
0000
0000
0000
3003
,
1001
0000
0000
0000
1100
0000
0010
0000
0001
0100
0001
0000
1000
0100
1000
0000
,
1001
0000
0000
0000
1010
0000
0100
0000
0001
0010
0100
0000
1000
0000
0010
0100
,
1010
0000
0000
0000
0101
0000
1000
0000
0010
0100
0001
0000
1000
0000
0010
0100
,
0011
0000
0000
0000
1010
0000
0100
0000
0001
1000
0001
0000
0100
0000
1000
0100
,
0011
0000
0000
0000
1100
0000
1000
0100
0011
0000
0000
0000
1100
0000
1000
0100
,
0011
0100
1000
0001
0100
0010
1000
0001
,
1001
0000
0000
0000
0110
0000
1000
0000
0010
0100
0001
0000
0100
0000
0001
0010
,
1100
0000
0000
0000
1000
0001
0100
0000
0010
1000
0010
0000
0100
0001
0010
0000
,
1001
0000
0000
0000
0011
0000
0100
0000
1000
0010
1000
0000
0001
0010
0001
0000
,
1001
0000
0000
0000
0101
0000
0010
0000
1000
0100
0010
0000
0001
0000
0100
0010
,
0101
0000
0000
0000
1010
0000
0001
0000
0100
0010
1000
0000
0001
0000
0100
0010
,
1100
0000
0000
0000
0101
0000
0010
0000
1000
0001
1000
0000
0010
0000
0001
0010
,
1100
0000
0000
0000
0011
0000
0001
0010
1100
0000
0000
0000
0011
0000
0001
0010
,
1100
0010
0001
1000
0010
0100
0001
1000
,
1001
0000
1010
0000
0100
0001
0011
0000
,
1100
0000
0010
1001
0000
1000
0001
0010
,
1100
0000
0000
0000
0010
0000
0101
0000
0000
0000
1000
0000
0100
0000
0001
0010
,
0100
1000
0001
1100
0000
1100
0000
1000
,
1100
0000
0110
0000
0001
1000
1010
0000
,
0101
0000
0010
1100
0000
0100
1000
0010
,
0101
0000
0000
0000
0010
0000
1001
0000
0000
0000
0100
0000
0010
0000
1000
0010
,
0100
0000
0001
0000
0010
0000
0200
0000
0000
0000
0000
0000
0300
0000
0001
1000
,
0101
0101
0101
0000
0000
0000
0000
1001
,
0000
1000
0010
0000
0100
0100
1001
0100
,
1001
0000
0010
0000
1100
0000
0010
0000
0011
0000
0001
0010
0100
1000
0200
0000
,
0000
0000
0001
0300
2002
0000
0000
3003
,
2002
3003
0100
1000
0002
0000
0103
1000
,
0001
0020
0130
1000
0200
0000
0300
0010
,
0001
0010
0001
0000
0010
0100
0010
0000
0100
1000
0100
0000
1000
0001
1000
0000
,
1000
0100
1000
0000
0100
0010
0100
0000
0010
0001
0010
0001
0010
0100
1000
0100
,
1002
1000
0100
0100
1000
1000
0100
0103
,
1000
0000
0000
0010
0000
0000
0100
0000
0000
0001
0000
0000
0010
0000
0000
0100
0000
0000
1000
0000
0000
0010
0000
0000
0100
0000
0000
0001
0000
0000
0010
0000
0000
0100
0000
0000
1000
0000
0100
0000
0010
0000
0100
0000
0010
0000
0001
0000
,
0200
0000
0000
0001
0302
0000
0000
0010
0023
0000
0000
0100
0230
0000
0301
0000
,
0001
0000
0000
0010
0000
0000
0100
0000
0000
1000
0000
0000
0100
0000
0000
0010
0000
0000
0100
0000
0000
1000
0000
0000
0001
0000
0000
0100
0000
0000
0010
0000
0100
0000
0010
0000
1000
0000
0100
0000
0010
0000
0001
0000
0000
1000
0000
0000
,
0100
0000
0010
0000
0001
0000
0100
0000
0000
0001
0000
0000
1000
0000
0100
0000
0010
0000
0001
0000
0010
0000
0100
0000
1000
0000
0010
0000
0100
0000
0001
0000
0010
0000
0100
0000
2000
0000
0000
0000
0000
0000
3000
0000
0000
0000
0000
0000
,
1001
0000
2000
0000
0000
0010
3000
0000
0200
0000
0000
0000
0000
0000
0000
0000
,
0000
0000
0000
0000
0000
0000
0000
0000
0300
0000
0000
0000
0100
0000
1000
0100
0020
0000
0000
0000
0032
0000
0000
0000
0000
0000
2003
0000
0000
0000
3020
0000
,
0000
0000
0230
0000
0302
0000
0000
2003
0000
0000
0000
0000
3000
1000
0001
2000
,
0000
0000
0000
0000
0000
0000
0000
0000
0000
0000
3000
0000
0100
1000
0100
0020
,
0000
0000
0000
0000
0000
0000
0000
0000
0000
0000
0000
0000
0030
0000
0000
0010
0100
1000
0100
0010
0001
0010
0100
1000
,
0002
0000
0000
0000
0000
0000
0020
0033
,
1001
0010
0100
1000
0100
1000
0001
0010
0100
1000
0100
1000
0010
0100
0010
0100
0001
0010
0100
1000
0001
0010
0100
1000
,
0001
0000
0000
0100
0000
0000
0001
0000
0000
0100
0000
0000
0010
0000
1000
0000
0010
0000
1000
0000
0001
0000
0010
0000
0100
0000
0000
1000
0000
0000
0001
0000
0000
1000
0000
0000
0001
0000
0000
0010
0000
0000
0100
0000
0000
1000
0000
0000
,
0020
0000
0000
0000
0032
0003
0002
0003
,
2000
0000
3001
0200
0000
0000
0000
0310
,
1000
0000
0000
0100
0000
0000
0010
0000
0001
0000
0100
0000
0010
0000
1000
0000
0010
0000
0100
0000
0001
0000
0010
0000
,
0100
1000
0010
0100
0001
0010
0100
1000
0100
0010
0001
0010
,
0002
0000
0000
0000
0000
0000
0000
0000
1003
0100
0010
0000
0020
0000
0000
0000
,
1030
0100
1000
0010
0002
0000
0000
0000
1003
0100
1000
0010
0002
0000
0000
0000
,
0203
0000
0000
0000
0301
0010
0100
1000
0100
1000
0010
0100
0002
0000
0000
0000
,
0003
0000
0000
1000
0000
0000
0100
0000
0000
0010
0000
0000
0001
0000
1000
0000
0100
0000
0010
0000
0001
0000
0010
0000
0001
0000
0000
0100
0000
0000
1000
0000
0001
0000
0010
0000
0100
0000
0000
0010
0000
0000
0100
0000
0000
0000
0000
0000
,
1001
0110
1001
0000
0000
0000
0000
1001
,
0000
0001
1000
0000
0010
0100
1001
0010
,
1001
0000
1100
0000
0101
0000
0000
0000
1001
0000
0001
0010
0001
0010
0200
0000
,
0000
0000
2000
3300
,
1001
0000
0200
2300
3002
0003
0200
2300
,
3002
0023
0230
0320
0032
0000
0000
0003
,
0011
0100
1000
1010
0100
0001
0011
0100
,
1000
1010
0100
0001
0011
0110
1100
0000
,
0010
2002
3013
2002
,
3013
0000
0000
0000
0000
0000
2002
0000
0000
0000
0000
0000
3013
0000
0000
1000
0100
1000
0001
0000
0000
0000
0000
0000
,
1001
0000
0000
0000
1100
0000
0010
0000
0001
0100
0001
0000
1000
0100
1000
0000
,
1001
0000
0000
0000
1010
0000
0100
0000
0001
0010
0100
0000
1000
0000
0010
0100
,
1010
0000
0000
0000
0101
0000
1000
0000
0010
0100
0001
0000
1000
0000
0010
0100
,
0011
0000
0000
0000
1010
0000
0100
0000
0001
1000
0001
0000
0100
0000
1000
0100
,
0011
0000
0000
0000
1100
0000
1000
0100
0011
0000
0000
0000
1100
0000
1000
0100
,
0011
0100
1000
0001
0100
0010
1000
0001
,
1001
0000
0000
0000
0110
0000
1000
0000
0010
0100
0001
0000
0100
0000
0001
0010
,
1100
0000
0000
0000
1000
0001
0100
0000
0010
1000
0010
0000
0100
0001
0010
0000
,
1001
0000
0000
0000
0011
0000
0100
0000
1000
0010
1000
0000
0001
0010
0001
0000
,
1001
0000
0000
0000
0101
0000
0010
0000
1000
0100
0010
0000
0001
0000
0100
0010
,
0101
0000
0000
0000
1010
0000
0001
0000
0100
0010
1000
0000
0001
0000
0100
0010
,
1100
0000
0000
0000
0101
0000
0010
0000
1000
0001
1000
0000
0010
0000
0001
0010
,
1100
0000
0000
0000
0011
0000
0001
0010
1100
0000
0000
0000
0011
0000
0001
0010
,
1100
0000
0010
0000
0001
0000
1000
0000
0010
0000
0100
0001
0010
0100
1000
0100
,
1001
0000
1010
0000
0100
0001
0011
0000
,
1100
0000
0010
1001
0000
1000
0001
0010
,
1100
0000
0000
0000
0010
0000
0101
0000
0000
0000
1000
0000
0100
0000
0001
0010
,
0100
1000
0001
1100
0000
1100
0000
1000
,
1100
0000
0110
0000
0001
1000
1010
0000
,
0101
0000
0010
1100
0000
0100
1000
0010
,
0101
0000
0000
0000
0010
0000
1001
0000
0000
0000
0100
0000
0010
0000
1000
0010
,
0100
0000
0001
0000
0010
0000
0200
0000
0000
0000
0000
0000
0300
0000
0001
1000
,
0101
0101
0101
0000
0000
0000
0000
1001
,
0000
1000
0010
0000
0100
0100
1001
0100
,
1001
0000
0010
0000
1100
0000
0010
0000
0011
0000
0001
0010
0100
1000
0200
0000
,
0000
0000
0001
0300
2002
0000
0000
3003
,
2002
3003
0100
1000
0002
0000
0103
1000
,
0001
0020
0130
1000
0200
0000
0300
0010
,
1001
0000
0000
0002
0000
0000
2003
0000
3020
0000
0000
0000
0000
0000
0000
0000
,
0000
0000
0000
0000
0030
0000
1000
0100
2000
0000
3000
0000
0001
1000
0001
1000
,
0010
0100
0001
0010
0100
0010
0001
0100
0010
1000
0001
0100
0010
1000
0010
0100
,
0010
1000
0100
0010
0001
0100
0010
1000
0010
0100
0001
0010
0100
0010
0001
1000
,
0010
0100
0010
1000
0010
0100
0001
0010
0100
1000
0100
0010
0001
0100
0010
1000
,
0010
0100
0001
0010
0100
1000
0001
1000
0010
0100
0001
1000
0100
0010
0001
0010
,
0100
1000
0010
0100
0001
0100
0010
1000
0100
1000
0001
0010
0100
1000
0001
0100
,
0010
0100
0001
0010
0100
1000
0100
1000
0010
0100
0001
0010
0100
0010
0001
0100
,
0010
1000
0001
1000
0010
0100
0001
0010
0100
0010
0001
0100
0010
1000
0010
0100
,
0001
1000
0100
1000
0010
1000
0100
0010
0001
0010
0100
0010
0001
0100
0010
0100
,
1001
0100
1000
1001
0100
1000
1001
0100
,
1000
0010
0100
0001
0010
0100
1000
0100
0010
0001
0100
0010
1000
0010
0100
0001
,
1100
0001
0010
1100
0001
0010
1100
0010
,
0101
1000
0010
0100
0001
0010
0100
0010
0001
1000
0001
0100
0010
1000
0010
0100
,
0001
0010
0100
1000
0100
0010
0001
0100
0010
1000
0001
1000
0010
0100
0010
1000
,
0100
0010
0100
1000
0001
0100
0010
1000
0010
0100
0001
0010
0100
1000
0100
0010
,
0001
0100
0010
1000
0010
0100
0001
0010
0100
0010
0001
1000
0001
0100
0010
1000
,
0010
0100
0001
0010
0100
1000
0010
0100
0001
0010
0100
0010
0001
0100
0010
1000
,
2001
0000
0001
0000
0100
0000
0100
0000
0001
0000
0001
0000
0100
0000
3100
0110
,
1001
0000
0001
0000
0100
0000
0100
0000
0001
0000
0001
0000
0100
0000
0100
0110
,
2001
0000
0001
0000
0100
0000
0100
0000
0001
0000
0001
0000
0100
0000
3100
0110
,
1001
0000
0001
0000
0100
0000
0100
0000
0001
0000
0001
0000
0100
0000
0100
0110
,
2001
0000
0001
0000
0100
0000
0100
0000
0001
0000
0001
0000
0100
0000
3100
0110
,
1001
0000
0001
0000
0100
0000
0100
0000
0001
0000
0001
0000
0100
0000
0100
0110
,
2001
0000
0001
0000
0100
0000
0100
0000
0001
0000
0001
0000
0100
0000
3100
0110
,
1001
0000
0001
0000
0100
0000
0100
0000
0001
0000
0001
0000
0100
0000
0100
0110
,
2002
0000
0000
0000
0000
0000
0000
0000
0000
0000
0000
0000
0000
0000
3003
0110
,
1001
0000
0000
0000
;
