#TITLE:Strange Gabber Music;
#SUBTITLE:;
#ARTIST:Imil;
#TITLETRANSLIT:;
#SUBTITLETRANSLIT:;
#ARTISTTRANSLIT:;
#CREDIT:;
#BANNER:strange gabber bn.png;
#BACKGROUND:strange gabber bg.png;
#LYRICSPATH:;
#CDTITLE:;
#MUSIC:Strange Gabber Music.ogg;
#OFFSET:0.007;
#SAMPLESTART:13.452;
#SAMPLELENGTH:12.000;
#SELECTABLE:YES;
#DISPLAYBPM:250.000;
#BPMS:0.000=249.749;
#STOPS:;
#BGCHANGES:;
// cache tags:
#FIRSTBEAT:56.000;
#LASTBEAT:552.000;
#SONGFILENAME:Songs/SPEEEDCOOOORE 3/Strange Gabber Music - [Aoreo]/Strange Gabber Music.sm;
#HASMUSIC:1;
#HASBANNER:1;
#MUSICLENGTH:132.959;
// end cache tags

//---------------dance-single - J. Nero----------------
#NOTES:
     dance-single:
     J. Nero:
     Challenge:
     17:
     1.000,1.000,0.331,0.331,1.000,917.000,44.000,44.000,37.000,0.000:
0000
0000
0000
0000
,
0000
0000
0000
0000
,
0000
0000
0000
0000
,
0000
0000
0000
0000
,
0000
0000
0000
0000
,
0000
0000
0000
0000
,
0000
0000
0000
0000
,
0000
0000
0000
0000
,
0000
0000
0000
0000
,
0000
0000
0000
0000
,
0000
0000
0000
0000
,
0000
0000
0000
0000
,
0000
0000
0000
0000
,
0000
0000
0000
0000
,
1000
0001
0100
0001
1000
0010
0100
0010
1000
0001
0100
0001
1000
0100
1000
0001
,
0010
0100
1000
0001
0010
0001
1000
0001
0100
0010
0100
0001
1000
0001
0100
0001
,
1000
0100
1000
0001
0010
0001
1000
0100
0010
0001
1000
0001
0100
0010
0100
0001
,
1000
0001
0100
0200
,
0301
1000
0001
0100
0010
0100
0001
1000
0001
0010
0100
1000
0001
0010
0001
1000
,
0100
0010
0001
1000
0001
0100
0010
0100
0001
1000
0010
1000
0001
0100
0001
1000
,
0100
1000
0001
0010
0100
1000
0001
0010
0001
1000
0100
1000
0001
0100
0010
1000
,
0001
0000
0000
0000
,
1000
0100
1000
0001
0100
0001
1000
0010
0100
0001
1000
0001
0100
0010
1000
0001
,
1000
0100
1000
0001
0010
0001
1000
0001
0010
0100
1000
0001
0100
0001
1000
0010
,
1000
0001
0010
0001
1000
0100
1000
0001
0100
0010
1000
0001
0100
0001
1000
0001
,
0400
0000
0000
0000
0304
0000
0000
0003
4000
0000
0000
0000
0000
0000
0000
3000
,
0001
0100
0001
1000
0100
1000
0001
0010
0100
1000
0001
0010
0001
1000
0010
0100
,
0010
1000
0001
0100
0001
1000
0010
1000
0001
0100
0001
1000
0100
1000
0001
0010
,
0400
0000
0000
0000
,
03M0
0000
0000
0000
00M0
0000
0000
0000
00M0
0000
0000
00M0
0000
0000
00M0
0000
,
1000
0001
0100
0001
1000
0010
0100
0010
1000
0001
0010
0100
1000
0001
0010
0001
,
1000
0100
1000
0001
0010
0100
1000
0001
0100
0001
1000
0010
0100
0010
1000
0001
,
0100
0001
1000
0100
1000
0001
0010
0100
4000
0000
0000
0000
3040
0000
0000
0000
,
M130
M000
M000
0000
,
0001
0100
0001
1000
0010
1000
0001
0100
0010
0100
0001
1000
0100
1000
0001
0010
,
0100
1000
0001
0010
0001
1000
0010
1000
0001
0000
0200
0300
0020
0000
0000
0030
,
1000
0100
1000
0001
0010
0100
1000
0001
0100
0010
0100
0001
1000
0100
0010
0001
,
2000
3000
0200
0300
0020
0000
0030
0000
0002
0000
0000
0000
0000
0000
0003
0000
,
1000
0100
1000
0001
0100
0001
1000
0010
0100
0010
1000
0001
0010
0001
1000
0100
,
0010
0001
1000
0100
1000
0001
0100
0001
1000
0010
0100
0001
1000
0001
0010
0100
,
1000
0001
0100
0001
1000
0010
0100
0010
1000
0001
0010
0001
1000
0100
0010
0001
,
1M00
0000
0M00
0M00
,
0001
0010
0001
1000
0100
1000
0001
0100
0001
1000
0010
0100
0001
0100
0010
1000
,
0100
1000
0001
0010
0001
1000
0100
0010
0001
1000
0010
1000
0001
0000
0040
0000
,
0130
1000
0001
0100
0010
0100
0001
1000
0001
0100
0010
0100
0001
1000
0100
0010
,
0004
0000
0000
0000
0000
0000
0000
0000
4003
0000
0000
0000
3020
0030
0000
0000
,
0000
0000
0000
0000
0000
0000
0000
0000
0000
0000
0000
0000
0000
0000
0000
0000
0000
0000
0000
0000
0000
0000
0000
0000
0200
0000
0000
0300
0000
0000
0000
0000
0000
0000
0000
0000
0000
0000
0000
0000
0000
0000
0000
0000
0000
0000
0000
0000
0000
0000
0000
0000
0000
0000
0000
0000
0000
0000
0000
0000
0000
0000
0000
0000
0000
0000
0000
0000
0000
0000
0000
0000
0002
0000
0000
0003
0000
0000
0000
0000
0000
0000
0000
0000
0000
0000
0000
0000
0000
0000
0000
0000
0000
0000
0000
0000
0000
0000
0000
0000
0000
0000
0000
0000
0000
0000
0000
0000
0000
0000
0000
0000
0000
0000
0000
0000
0000
0000
0000
0000
0020
0000
0000
0000
0030
0000
0000
0000
0000
0000
0000
0000
0000
0000
0000
0000
0000
0000
0000
0000
0000
0000
0000
0000
0000
0000
0000
0000
0000
0000
0000
0000
0000
0000
0000
0000
0000
0000
0000
0000
0000
0000
0000
0000
0000
0000
0000
0000
0200
0000
0000
0000
0300
0000
0000
0000
0000
0000
0000
0000
0000
0000
0000
0000
0000
0000
0000
0000
0000
0000
0000
0000
,
0000
0000
0000
0000
0000
0000
0000
0000
0000
0000
0000
0000
0000
0000
0000
0000
0000
0000
0000
0000
0000
0000
0000
0000
2000
0000
0000
0000
0000
0000
3000
0000
0000
0000
0000
0000
0000
0000
0000
0000
0000
0000
0000
0000
0000
0000
0000
0000
0000
0000
0000
0000
0000
0000
0000
0000
0000
0000
0000
0000
0000
0000
0000
0000
0000
0000
0000
0000
0000
0000
0000
0000
0002
0000
0000
0000
0000
0000
0003
0000
0000
0000
0000
0000
0000
0000
0000
0000
0000
0000
0000
0000
0000
0000
0000
0000
0000
0000
0000
0000
0000
0000
0000
0000
0000
0000
0000
0000
0000
0000
0000
0000
0000
0000
0000
0000
0000
0000
0000
0000
0200
0000
0000
0000
0000
0000
0300
0000
0000
0000
0000
0000
0000
0000
0000
0000
0000
0000
0000
0000
0000
0000
0000
0000
0000
0000
0000
0000
0000
0000
0000
0000
0000
0000
0000
0000
0000
0000
0000
0000
0000
0000
0000
0000
0000
0000
0000
0000
0020
0000
0000
0000
0000
0000
0000
0000
0030
0000
0000
0000
0000
0000
0000
0000
0000
0000
0000
0000
0000
0000
0000
0000
,
0000
0000
0000
0000
0000
0000
2000
0000
3000
0000
0000
0000
0000
0000
0000
0000
0000
0000
0200
0000
0300
0000
0000
0000
0000
0000
0000
0000
0000
0000
0020
0000
0000
0030
0000
0000
0000
0000
0000
0000
0000
0000
0002
0000
0000
0003
0000
0000
,
0000
0000
2000
3000
0000
0000
0200
0000
0300
0000
2000
0000
3000
0000
0002
0000
,
0203
0000
0320
0000
0000
0030
2000
0000
0000
3000
0200
0000
0000
0300
2000
0000
,
0000
0000
3020
0000
0000
0000
0230
0000
0000
0000
0002
0300
1003
0100
1000
0001
,
0100
0000
0001
0001
0010
0000
0100
0100
,
1000
0000
0001
0001
0200
0300
0010
0010
,
1000
0000
0100
0000
0010
0000
0100
0000
1000
0000
0001
0100
0001
1000
0100
0000
,
1000
0000
0001
0000
0010
0000
0100
0000
1000
0000
0001
0100
0001
0000
1000
0100
,
1000
0000
0001
0000
0100
0000
0010
1000
0100
0000
0010
0000
0001
0000
1000
0001
,
0100
0010
0100
0000
0001
0100
0001
0000
1000
0010
1000
0000
0100
0010
0001
1000
,
0001
0000
0001
0000
1100
1000
0001
0100
,
0010
0100
0001
0010
0100
1000
0001
0100
,
0010
0000
0000
0400
0000
0000
0302
0000
0003
2000
3000
0000
,
1100
0000
0000
0000
0100
1000
0001
0100
,
0001
0100
0001
1000
0010
0100
0010
1000
0001
0100
0001
1000
0100
1000
0001
0010
,
0100
1000
0001
0010
0001
1000
0100
1000
0001
0100
0001
1000
0010
0100
0010
1000
,
0001
0100
0001
1000
0100
1000
0001
0010
0001
1000
0100
1000
0001
0100
0010
1000
,
0001
0000
0010
0000
0100
0000
1000
0000
0001
0000
0100
0000
0040
0000
0000
0030
,
1000
0100
1000
0001
0010
0001
1000
0100
0010
0001
1000
0100
1000
0001
0100
0001
,
1000
0010
0100
0010
1000
0001
0100
0001
1000
0100
1000
0001
0010
0100
1000
0001
,
2000
0000
0000
3000
2002
0000
0000
3003
,
20M2
3003
0000
0000
00M0
0000
0000
0000
00M0
0000
0000
0000
0M00
0M00
0M00
0000
,
0001
1000
0100
1000
0001
0010
0100
1000
0001
0010
0001
1000
0010
0100
0010
1000
,
0001
0100
0001
1000
0010
1000
0001
0010
0001
1000
0100
0010
0004
0000
0003
0000
,
1000
0010
1000
0001
0100
0001
1000
0100
1000
0001
0010
0100
1000
0001
0100
0001
,
2000
3000
2000
3000
2000
3000
0MM0
0000
,
0001
0100
0001
1000
0010
1000
0001
0100
0001
1000
0100
1000
0001
0010
0001
1000
,
0100
0010
0001
1000
0001
0100
0001
1000
0010
0100
0010
1000
0001
0100
0001
1000
,
0100
4000
3001
0100
,
0000
0000
0000
0000
,
0001
0100
0001
1000
0100
1000
0001
0010
0001
1000
0010
0100
0010
1000
0001
0100
,
0001
1000
0100
0010
0001
1000
0100
1000
0001
0010
0100
1000
0002
0003
0000
0000
,
1000
0010
1000
0001
0400
0000
0000
0300
0001
1000
0001
0100
0040
0000
0030
0000
,
1000
1000
1000
0000
,
0001
0010
0001
1000
0100
0010
0001
1000
0010
0100
0010
1000
0001
0010
0100
1000
,
0001
0100
0010
0100
0001
1000
0100
0010
0001
1000
0100
1000
0001
0000
0000
0000
,
4000
3400
0340
0000
,
0031
0000
0000
0000
0000
0000
0000
0000
1000
0100
0000
0000
,
1100
0000
1000
0000
1001
0000
0001
0010
,
0000
0010
0000
0100
1000
0010
0100
0001
,
0101
0000
0100
0000
1010
0000
0010
1000
,
0000
1000
0100
0000
0110
0000
0010
0000
,
0011
0001
1001
1000
,
0100
1000
0000
1000
0000
0010
0100
0001
,
0010
0100
1000
0000
1100
0000
0100
0000
,
1000
0010
0100
0001
0100
0000
0004
0003
,
0101
0000
0110
0000
1010
0000
1000
0100
,
0000
0100
0000
0010
0001
0100
0010
1000
,
1010
0000
0010
0000
0101
0000
0100
0001
,
0000
0001
0010
0000
0110
0000
0400
0300
,
1100
1000
1001
0001
,
0101
0100
1010
1100
,
0110
0010
0011
0001
,
1001
1000
0010
0010
,
0100
0001
1000
0100
0010
0100
1000
0001
,
0100
0010
0100
0001
0010
0100
1000
0001
,
1000
0100
0010
0100
1000
0001
0100
0010
,
0100
0001
1000
0100
0010
0001
1000
0100
,
1000
0001
0100
0010
0100
0001
0010
0100
,
1000
0001
0100
0001
1000
0100
0010
0100
,
1000
0001
0100
0010
0100
0001
0010
0100
,
1000
0001
01M0
0001
10M0
01M0
10M0
00M1
,
1001
1000
1010
0010
,
0100
0010
0100
0001
0010
0100
1000
0000
,
1001
0001
0011
0010
,
0100
0000
1000
0000
0010
0000
0100
0000
0001
0000
0100
0000
0001
1000
0001
0100
,
0010
1000
1100
0100
,
0010
0001
0100
0010
0100
0001
1000
0000
,
1000
0000
0000
0000
,
0000
0000
0000
0000
0M00
0M00
0M00
0M00
0M01
0M00
0M00
0M00
0M01
0000
0000
0000
,
0011
0010
1100
0100
,
1000
0100
0010
0100
1000
0010
0100
0000
,
0101
0001
0011
0010
,
0100
1000
0010
0100
0001
0010
0100
0000
,
1100
0000
4000
3000
1001
0000
0001
0000
,
0400
0000
0304
0000
,
1003
0000
0000
0000
,
0000
0000
0000
0001
,
0000
0000
0000
0000
,
0000
0000
0000
0000
,
0000
0000
0000
0000
,
0000
0000
0000
0000
,
0000
0000
0000
0000
,
0000
0000
0000
0000
,
0000
0000
0000
0000
,
0000
0000
0000
0000
,
0000
0000
0000
0000
,
0000
0000
0000
0000
,
0000
0000
0000
0000
,
0000
0000
0000
0000
,
MMMM
0000
0000
0000
;
