#TITLE:Electrohell;
#SUBTITLE:;
#ARTIST:The Quick Brown Fox;
#TITLETRANSLIT:;
#SUBTITLETRANSLIT:;
#ARTISTTRANSLIT:;
#CREDIT:Aoreo;
#BANNER:electrohell bn.png;
#BACKGROUND:electrohell bg.png;
#LYRICSPATH:;
#CDTITLE:;
#MUSIC:Electrohell.ogg;
#OFFSET:-0.226;
#SAMPLESTART:30.714;
#SAMPLELENGTH:12.000;
#SELECTABLE:YES;
#BPMS:0.000=252.000;
#STOPS:;
#BGCHANGES:;
// cache tags:
#FIRSTBEAT:32.000;
#LASTBEAT:548.000;
#SONGFILENAME:Songs/SPEEEDCOOOORE 2/Electrohell - [Aoreo]/Electrohell.sm;
#HASMUSIC:1;
#HASBANNER:1;
#MUSICLENGTH:132.619;
// end cache tags

//---------------dance-single - J. Nero----------------
#NOTES:
     dance-single:
     J. Nero:
     Challenge:
     16:
     1.000,1.000,0.106,0.339,0.894,1108.000,14.000,45.000,28.000,0.000:
0000
0000
0000
0000
,
0000
0000
0000
0000
,
0000
0000
0000
0000
,
0000
0000
0000
0000
,
0000
0000
0000
0000
,
0000
0000
0000
0000
,
0000
0000
0000
0000
,
0000
0000
0000
0000
,
2001
3000
0000
0000
0000
0000
0002
0003
0010
0000
0000
0000
0200
0300
0000
0000
,
1000
0000
0002
0003
0000
0000
0000
0000
0200
0300
0000
0000
0000
0000
0002
0003
,
1000
0000
0000
0000
0200
0300
0000
0000
0010
0000
0002
0003
0000
0000
0000
0000
,
0200
0300
0000
0000
0000
0000
0020
0030
1000
0000
0000
0000
0002
0003
0000
0000
,
0010
0000
0200
0300
0000
0000
0000
0000
2000
3000
0000
0000
0000
0000
0002
0003
,
0100
0000
0000
0000
0020
0030
0000
0000
0100
0000
0002
0003
0000
0000
0000
0000
,
1001
0000
0001
0100
0000
0010
0000
0010
,
0000
0000
1000
0010
0100
0000
0000
0000
0001
0000
0000
0000
0001
0000
0000
0000
,
1000
0100
1000
0010
0000
1000
0000
0100
,
1000
0001
0100
0010
0000
0100
0000
0001
,
0010
0100
1000
0010
0000
0100
0000
0001
,
1000
0100
0010
0100
1000
0001
0100
0010
,
0100
0001
0010
0100
0000
1000
0000
0001
,
0010
0100
1000
0010
0000
0100
0000
0001
,
1000
0100
0010
0100
0000
1000
0000
0001
,
0100
0000
0001
0100
0001
0000
1000
0000
0010
0100
0001
0100
0001
0000
1000
0000
,
0001
1000
0100
0010
0000
10M0
0100
0010
,
0000
10M0
0100
0010
0000
10M0
0100
0010
,
0000
10M0
0001
0100
0000
1M00
0001
0100
,
0000
1M00
0001
0100
0000
1M00
0001
0100
,
0000
0001
0100
0010
0000
00M1
0100
0010
,
0000
00M1
0100
0010
0000
00M1
0100
0010
,
0000
00M1
1000
0100
0000
0M01
1000
0100
,
0000
0M01
1000
0100
0000
0M01
1000
0100
,
1000
0001
0100
0100
1000
0001
0010
0010
,
1000
0001
0100
0100
1000
0001
0010
0010
,
0100
0001
0100
0100
1000
0001
0010
0010
,
0100
0001
0100
0100
1000
0001
0010
0010
,
1000
0001
0100
0100
1000
0100
0010
0010
,
1000
0001
0100
0100
1000
0001
0010
0010
,
1000
0000
0010
0100
0000
0001
0000
0001
,
0000
0000
1000
0001
0100
0000
0000
0000
0010
0000
0000
0000
0010
0000
0000
0000
,
1000
0010
1000
0010
0100
0000
0001
0000
0010
0000
0100
1000
0001
0000
0100
0000
,
0001
0100
0001
1000
0010
1000
0001
0100
0010
0000
1000
0001
1000
0000
0001
0000
,
0010
0100
1000
0001
1000
0000
0001
0000
0100
0001
0100
0010
1000
0000
0100
0000
,
1000
0000
0001
0100
0010
0000
1000
0000
0001
1000
0100
0000
0010
0000
0001
0000
,
1000
0100
1000
0100
0010
0000
0001
0000
0100
0000
0001
1000
0001
0000
0100
0000
,
0001
1000
0001
0100
0010
1000
0001
0010
0100
0000
1000
0001
1000
0000
0001
0000
,
1000
0100
1000
0001
0100
0000
0010
0000
0100
0001
1000
0001
1000
0000
0010
0000
,
0100
0000
0001
1000
0100
0000
0010
0000
0001
1000
0001
0000
0100
0000
0010
0000
,
0100
0001
0100
0001
1000
0000
0100
0000
1000
0000
0001
0010
0100
0000
1000
0000
,
0010
0100
0001
0100
0010
1000
0001
1000
0100
0000
1000
0001
0100
0000
0010
0000
,
0100
0001
0010
0100
1000
0000
0001
0000
0100
0010
0100
0001
1000
0000
0001
0000
,
0100
0000
0001
0010
0100
0000
1000
0000
0010
1000
0010
0000
0100
0000
0001
0000
,
1000
0100
1000
0001
0100
0000
0010
0000
0100
0000
0001
1000
0010
0000
0100
0000
,
0001
1000
0100
0010
0001
1000
0001
0010
0100
0000
1000
0001
1000
0000
0010
0000
,
0100
0001
0100
0010
1000
0000
0001
0000
0100
0001
1000
0001
1000
0000
0100
0000
,
0010
0000
0001
1000
0010
0000
0100
0000
0010
1000
0001
0000
0100
0000
0001
0000
,
1002
0003
0000
0000
0000
0000
2000
3000
0100
0000
0000
0000
0020
0030
0000
0000
,
0001
0000
0200
0300
0000
0000
0000
0000
0020
0030
0000
0000
0000
0000
2000
3000
,
0001
0000
0000
0000
0020
0030
0000
0000
0100
0000
2000
3000
0000
0000
0000
0000
,
0002
0003
0000
0000
0000
0000
0200
0300
0010
0000
0000
0000
2000
3000
0000
0000
,
0100
0000
0020
0030
0000
0000
0000
0000
0002
0003
0000
0000
0000
0000
2000
3000
,
0100
0000
0000
0000
2000
3000
0000
0000
0010
0000
0200
0300
0000
0000
0000
0000
,
0101
0000
0001
1000
0000
0100
0000
0100
,
0000
0000
1000
0001
0100
0000
0000
0000
0010
0000
0000
0000
0010
0000
0000
0000
,
0100
0001
0100
0001
1000
0000
0010
0000
0100
0000
0001
0010
0100
0000
1000
0000
,
0001
0100
0010
1000
0010
0100
0001
1000
0001
0000
1000
0100
1000
0000
0001
0000
,
1000
0010
0100
0001
0010
0000
0100
0000
1000
0001
1000
0010
0100
0000
0001
0000
,
1000
0000
0100
0010
0001
0000
1000
0000
0010
1000
0001
0000
0100
0000
0010
0000
,
0100
0001
1000
0001
1000
0000
0100
0000
1000
0000
0010
0100
0001
0000
1000
0000
,
0001
1000
0100
0010
0001
1000
0001
0100
0010
0000
1000
0001
0100
0000
0010
0000
,
0100
0001
0010
0100
1000
0000
0010
0000
0100
0001
0100
0010
1000
0000
0001
0000
,
0010
0000
0100
1000
0001
1000
0001
1000
0100
0010
0001
0000
0100
0000
0010
0000
,
1000
0100
1000
0001
0100
0000
0001
0000
1000
0100
1000
0001
0100
0000
0001
0000
,
1000
0010
0100
0001
0100
0010
1000
0001
1000
0000
0001
0100
0010
0000
1000
0000
,
0001
0010
0100
1000
0010
0000
0100
0000
0001
1000
0100
1000
0001
0000
0100
0000
,
0010
0000
0100
0001
1000
0000
0001
0000
0010
0100
1000
0000
0001
0000
0100
0000
,
0001
0100
0001
1000
0100
0000
1000
0000
0001
0000
0010
0100
0010
0000
0100
0000
,
1000
0001
0100
0001
1000
0100
0010
0001
1000
0000
0001
0100
0010
0000
0100
0000
,
0001
0010
0100
1000
0010
0000
0100
0000
0001
0100
0001
1000
0100
0000
1000
0000
,
0004
0043
0130
0100
,
2002
3003
1000
0100
0000
0M01
1000
0100
,
0000
0M01
1000
0100
0000
0M01
1000
0100
,
0000
0M01
0010
0100
0000
0M01
0010
0100
,
0000
0M01
0010
0100
0000
0M01
0010
0100
,
0000
1000
0100
0010
0000
10M0
0100
0010
,
0000
10M0
0100
0010
0000
10M0
0100
0010
,
0000
10M0
0001
0100
0000
1M00
0001
0100
,
0000
1M00
0001
0100
0000
1M00
0001
0100
,
0001
1000
0100
0100
0001
1000
0010
0010
,
0001
1000
0100
0100
0001
1000
0010
0010
,
0100
1000
0100
0100
0001
1000
0010
0010
,
0100
1000
0100
0100
0001
1000
0010
0010
,
0001
1000
0100
0100
0001
0100
0010
0010
,
0001
1000
0100
0100
0001
1000
0010
0010
,
0100
0000
1000
0001
0000
0100
0000
0100
,
0000
0000
0001
1000
0100
0000
0000
0000
1000
0000
0000
0000
1000
0000
0000
0000
,
0010
1000
0010
0100
0001
0000
1000
0000
0100
0000
1000
0001
1000
0000
0001
0000
,
1000
0100
0010
0001
1000
0001
0010
0100
1000
0000
0001
1000
0001
0000
0100
0000
,
0001
0010
0100
1000
0010
0000
0100
0000
0001
1000
0100
1000
0001
0000
0100
0000
,
0010
0000
1000
0001
1000
0000
0001
0000
0010
0100
0010
0000
0100
0000
1000
0000
,
0001
0100
0001
0100
0010
0000
0100
0000
0001
0000
1000
0100
1000
0000
0001
0000
,
0100
0010
1000
0001
0010
0100
1000
0001
1000
0000
0010
0100
0001
0000
1000
0000
,
0010
1000
0100
0010
0001
0000
0100
0000
0001
1000
0001
1000
0100
0000
1000
0000
,
0010
0000
0100
0001
0100
0000
0001
0000
0010
0100
1000
0000
0001
0000
0100
0000
,
0001
0010
0001
0010
0100
0000
1000
0000
0001
0000
0100
0001
1000
0000
0010
0000
,
0100
0001
0100
0010
1000
0001
1000
0100
0010
0000
0001
1000
0001
0000
1000
0000
,
0001
0010
0100
1000
0010
0000
0100
0000
0001
0100
0001
1000
0100
0000
1000
0000
,
0010
0000
0100
0001
0100
0000
0001
0000
1000
0100
0010
0000
0001
0000
0100
0000
,
0010
1000
0010
0100
0001
0000
0100
0000
0001
0000
1000
0100
1000
0000
0001
0000
,
0010
0100
1000
0010
0100
0001
0010
0100
1000
0000
0001
1000
0001
0000
0100
0000
,
0002
0003
2200
3300
2000
3000
0202
0303
,
0020
0030
2020
3030
2000
3000
0004
0000
,
0103
0010
1000
0001
1000
0000
0010
0100
0001
0000
1000
0000
0100
1000
0100
0000
,
1000
0100
0010
0001
1000
0001
1000
0010
0100
0000
0001
0100
0001
0000
1000
0000
,
0001
0010
0100
1000
0010
0000
0100
0000
0001
1000
0100
1000
0001
0000
0100
0000
,
0010
0000
1000
0001
1000
0000
0001
0000
0010
0100
1000
0000
0001
0000
0100
0000
,
0010
0100
0001
1000
0001
0000
1000
0000
0001
0000
0100
0001
0010
0000
0100
0000
,
1000
0001
1000
0010
0100
0001
1000
0001
0010
0000
0100
1000
0001
0000
1000
0000
,
0010
1000
0100
0010
0001
0000
0100
0000
0001
0100
0010
0000
1000
0000
0001
0000
,
0100
0000
0001
1000
0100
0000
1000
0000
0010
0100
0001
0000
1000
0000
0001
0000
,
0100
0010
0100
0001
1000
0000
0001
1000
0001
0000
1000
0010
0100
0000
0001
0000
,
1000
0100
1000
0001
0010
0100
1000
0001
1000
0000
0001
0100
0010
0000
0100
0000
,
0001
0010
0100
1000
0010
0000
0100
0000
0001
1000
0010
0100
0001
0000
1000
0000
,
0100
0000
1000
0001
0100
0000
0010
0000
0100
0001
0010
0000
0100
0000
1000
0001
,
1000
0001
0100
0010
0100
0000
0001
0000
1000
0000
0001
0100
0010
0000
0100
0000
,
0001
0010
0100
1000
0001
0100
0010
0100
0001
0000
1000
0100
1000
0000
0001
0000
,
0100
0001
1000
0100
1000
0000
0001
0000
0100
0010
1000
0001
1000
0000
0001
0000
,
0040
0430
1300
1000
,
0001
0000
0100
0000
0001
0000
1000
0000
0001
0100
0001
0000
0100
0000
0010
0000
,
0010
0100
0001
1000
0001
0100
0040
0000
,
0130
0001
1000
0001
1000
0000
0010
0000
0400
0000
0000
0300
0001
0000
0001
0000
,
1000
0000
0100
0000
1000
0000
0004
0000
0000
0003
1000
0000
0001
0000
0001
0000
,
0010
0100
4000
0000
3001
0001
0100
0010
,
0100
0001
0100
0000
0001
0000
0000
0000
1000
0000
0100
0010
0100
0000
0010
0000
,
0001
1000
0001
0000
0100
0000
0001
0000
0100
0000
0100
0000
0001
0000
0010
0000
,
0010
0000
0000
0000
0000
0000
0001
0000
0000
0000
0000
0000
1000
0000
0000
0000
0100
0000
0000
0000
0010
0000
0000
0000
0100
0000
0000
0000
0000
0000
1000
0000
0000
0001
0000
0000
4000
0000
0000
0000
0000
0000
0000
0000
0000
0000
0000
0000
,
3020
0000
0000
0000
,
0030
0000
0000
0000
;
