#TITLE:The Wizards Last Rhymes;
#SUBTITLE:;
#ARTIST:Rhapsody;
#TITLETRANSLIT:;
#SUBTITLETRANSLIT:;
#ARTISTTRANSLIT:;
#CREDIT:;
#BANNER:(cerdo_claro)The Wizards Last Rhymes-bn.JPG;
#BACKGROUND:(cerdo_claro)The Wizards Last Rhymes-bg.jpg;
#LYRICSPATH:;
#CDTITLE:cdtitle.png;
#MUSIC:(cerdo_claro)The Wizards Last Rhymes.mp3;
#OFFSET:-0.349;
#SAMPLESTART:99.720;
#SAMPLELENGTH:12.000;
#SELECTABLE:YES;
#BPMS:0.000=150.000,250.000=75.000,264.000=150.000,300.000=75.000,308.000=150.000,490.000=75.000,504.000=150.000,540.000=75.000,548.000=150.000,708.000=75.000,743.000=37.500,756.000=75.000,776.000=150.000,904.000=75.000,918.000=150.000,954.000=75.000,962.000=150.000,1118.000=75.000,1126.000=150.000;
#STOPS:;
#BGCHANGES:;
// cache tags:
#FIRSTBEAT:0.000;
#LASTBEAT:1170.000;
#SONGFILENAME:Songs/toune 2/(cerdo_claro)The Wizards Last Rhymes/(cerdo_claro)The Wizards Last Rhymes.sm;
#HASMUSIC:1;
#HASBANNER:1;
#MUSICLENGTH:637.395;
// end cache tags

//---------------dance-single - ----------------
#NOTES:
     dance-single:
     :
     Hard:
     11:
     0.834,1.000,0.828,0.635,0.805,2787.000,528.000,405.000,0.000,93.000:


2000
0000
0000
3001
0000
0000
0000
0000
,
0002
0000
0000
1003
0000
0000
0000
0000
,
2000
3010
0002
1003
,
2000
3020
0230
0302
0023
2030
3200
0302
,
0203
0320
2030
3002
2003
3020
0230
0302
,
2003
3001
0002
1003
,
2000
3010
0200
0310
,
0000
0110
1010
0101
,
2002
0000
0000
3003
,
1001
0000
1010
1010
,
1001
0000
0000
1001
1001
0000
0000
0000
,
2020
0000
0000
0000
3131
0000
1001
1010
,
0202
0000
0000
0303
0000
0000
0002
0003
,
0101
0000
0000
0000
2000
3000
0200
0300
,
0012
0000
0003
1001
1001
0000
0000
0000
,
0012
0000
0000
0000
0000
0000
1000
0000
1000
0000
1000
0000
2100
0000
0000
3003
0000
0000
0110
0000
0000
0000
0000
0000
,
0012
0000
0000
0000
1003
0100
0010
0001
1000
0001
1000
0001
0010
0100
1000
0100
,
0011
0001
0001
0001
0001
0001
0001
0001
,
0101
0100
0100
0100
0100
0100
0100
0100
,
1100
1000
1000
1000
1001
0001
0001
0001
,
0011
0010
0010
0010
0010
0010
0010
0010
,
0110
0100
0100
0100
0100
0100
0100
0100
,
1100
0000
1000
0000
1000
0000
1000
0100
1020
0000
0000
0000
0000
0000
0030
0000
,
0001
0010
2000
0000
3110
0000
0101
0000
,
1000
0010
0002
0000
0113
0000
1010
0000
,
0202
0000
1313
1010
2020
0000
3131
0101
,
0220
0000
2332
0000
,
3103
0000
0000
0000
0001
0000
0000
0000
1000
0000
0000
0000
0010
0000
0000
0000
0100
0000
0000
0000
0001
0000
0000
0000
1100
0000
0000
0000
0000
0000
0001
0000
0000
0100
0000
0000
0010
0000
0000
0000
0000
0000
1000
0000
0000
0010
0000
0000
,
0100
0000
0001
1000
0010
0000
1000
0010
0100
0000
0001
1000
0100
0000
1000
0001
,
0010
0000
1000
0000
0220
0000
0000
0330
0001
0000
1000
0010
0100
0000
0001
1000
,
0010
0000
1000
0001
1000
0000
0001
0010
1000
0000
0001
0100
1000
0000
1000
0010
,
0001
0000
1000
0000
0220
0000
0000
0330
1000
0000
0001
0100
0010
0000
1000
0010
,
0001
0000
1000
0010
0100
0000
0001
0100
0010
0000
0010
0001
1000
0000
1000
0010
,
0100
0000
1000
0000
0220
0000
0000
0330
0100
0000
0010
0001
1000
0000
0100
0010
,
0001
0000
0010
0100
0010
0000
0100
0001
0010
0000
0100
1000
0010
0000
0010
0001
,
0100
0000
1000
0000
0220
0000
0000
0330
0001
0000
0100
1000
0001
0000
0010
0001
,
0100
0000
0010
0001
1000
0000
0100
1000
0001
0000
0001
0100
0010
0000
0010
0001
,
1000
0000
0001
0000
0220
0000
0000
0330
1000
0000
0001
0100
0010
0000
1000
0001
,
0100
0000
0001
1000
0001
0000
1000
0100
0001
0000
1000
0010
0001
0000
0001
0100
,
1000
0000
0001
0000
0220
0000
0000
0330
0001
0000
1000
0010
0100
0000
0001
0100
,
1000
0000
0001
0100
0010
0000
1000
0010
0100
0000
0100
1000
0001
0000
0001
0100
,
0010
0000
0001
0000
0220
0000
0000
0330
1000
0000
0001
1000
0010
0000
0002
0000
,
2003
0000
3020
0230
0302
0000
0000
0000
,
0000
0003
1010
0000
2010
0000
0000
0000
,
3001
2000
0000
0000
3002
0000
0003
1000
,
0010
0001
0110
0000
2000
0000
0010
0000
,
0001
0100
0010
0001
,
0001
0000
0000
3001
0000
0100
0000
0010
0000
1001
0000
0000
1001
0000
0000
0000
0000
0000
0001
0000
0000
1000
0000
0000
,
0011
0000
0001
1000
0110
0000
1000
0001
,
0110
0000
0001
1000
1002
1000
1000
1000
,
1000
1000
1000
1000
1023
1000
1000
1000
,
1000
1000
1000
1000
1230
1000
1320
1000
,
1032
1000
1203
1000
1320
1000
1032
1000
,
1023
1000
1031
0000
0012
1000
0010
0100
,
0010
1000
0010
0100
2103
0000
0000
0000
,
0000
0000
0000
3000
0001
1000
0010
0100
,
0001
1000
0010
0001
2100
0010
0001
0100
,
0010
0001
0100
3001
1000
0010
0100
0001
,
1000
0010
0100
0001
0220
0000
0000
0000
,
0000
0000
0000
0330
0001
1000
0010
0100
,
0001
0010
0100
0010
2001
0010
0100
0001
,
0100
0010
0001
0100
0010
0001
0100
0001
,
0010
0000
0100
0000
3001
0000
0000
0000
1001
0000
0012
0000
0003
0000
2100
3000
,
0011
0000
2010
0000
0000
3000
0120
0030
1001
0000
0120
0030
1001
0000
0012
0003
,
0002
0003
2100
0000
3000
0001
0001
0000
1001
0000
2100
0000
0000
3000
0102
0003
,
1100
0000
0120
0000
0000
0030
2100
0000
3012
0000
1023
0000
0231
0000
2310
3000
,
2002
0000
0000
0000
0000
0000
0000
0000
0000
3003
0000
0000
1000
0000
0010
0000
0100
0000
0001
0000
0010
0000
0100
0000
,
1000
0001
1000
0011
0100
0001
1000
0010
0001
0110
1000
0001
,
0100
0010
1000
0110
0001
1000
0100
0010
0001
1100
0001
1000
,
0010
0100
0010
0101
0010
1000
0010
0001
0100
1010
0001
1000
,
0010
0100
0001
1100
0001
1000
0001
1000
0001
0110
1000
0001
,
0100
0010
1000
0011
1000
0001
0100
0010
0100
1010
0001
0100
,
0010
1000
0001
0110
0001
1000
0010
0100
0001
1010
0100
0001
,
1000
0010
0100
0011
1000
0010
0100
0001
0100
1010
0100
0001
,
1000
0010
0100
0011
1000
0010
0001
0001
1000
1000
0001
0001
,
2001
3200
0320
0032
,
2013
0000
0000
0000
0000
0000
0000
0000
3002
0000
0000
0000
0000
0000
0000
0000
0023
0000
0000
0000
0000
0000
0000
0000
1031
0000
0000
0001
1000
0001
1000
0001
,
2100
0010
0010
0001
0001
0100
0100
3010
,
0102
1000
1000
0010
0010
0100
0100
0010
,
1203
1000
1000
0010
0321
1000
1000
0001
,
2130
0010
0010
0100
0100
0001
0001
0100
,
3012
0100
0100
0010
0010
1000
1000
0010
,
2103
0010
0010
0001
3202
0000
1313
0000
,
0001
1000
0010
0000
0101
0000
0101
0000
,
0010
1000
0001
0000
1100
0000
1100
0000
,
0001
0000
1100
1100
1100
0000
0011
0011
,
0011
0110
0220
0000
,
0000
0000
0000
0000
0000
0000
0000
0330
1100
0000
1000
0010
0001
0000
0001
0100
,
0010
0000
1000
0001
0100
0000
0001
0100
0010
0000
1000
0001
0100
0000
0001
1000
,
0100
0000
0001
0000
0220
0000
0000
0330
1000
0000
0001
0100
0010
0000
1000
0001
,
0100
0000
0001
1000
0010
0000
1000
0100
0001
0000
1000
0010
1000
0000
0001
0100
,
1000
0000
0001
0000
0220
0000
0000
0330
0001
0000
1000
0010
0001
0000
0001
0100
,
1000
0000
0001
0100
0010
0000
1000
0010
0100
0000
0100
1000
0010
0000
0001
0100
,
0010
0000
0001
0000
0220
0000
0000
0330
0010
0000
0100
1000
0001
0000
0010
0100
,
1000
0000
0100
0010
1000
0000
0010
1000
0100
0000
0010
0001
0100
0000
0100
1000
,
0010
0000
0001
0000
0220
0000
0000
0330
1000
0000
0010
0001
1000
0000
0100
1000
,
0010
0000
0100
1000
0001
0000
0010
0001
1000
0000
1000
0010
0100
0000
0100
1000
,
0001
0000
1000
0000
0220
0000
0000
0330
0001
0000
1000
0010
0001
0000
0001
1000
,
0010
0000
1000
0001
0100
0000
0001
0010
1000
0000
0001
0100
0010
0000
1000
0010
,
0001
0000
1000
0000
0220
0000
0000
0330
1000
0000
0001
0100
0010
0000
1000
0010
,
0001
0000
1000
0010
1000
0000
0001
0100
0010
0000
0010
0001
1000
0000
1000
0010
,
0100
0000
1000
0000
0220
0000
0000
0330
1000
0000
1000
0001
0010
0000
2000
0000
,
3002
0000
0203
0320
2030
0000
0000
0000
,
0000
3000
0101
0000
0102
0000
0000
0000
,
1003
0002
0000
0000
2003
0000
3000
0001
,
0100
1000
0110
0000
0002
0000
0100
0000
,
1000
0000
0000
0000
0010
0000
0000
0000
0100
0000
0000
0000
1000
0000
0010
0100
,
1000
0000
0010
0003
1000
0000
0100
0000
0000
1001
0000
0000
1001
0000
0000
0000
0000
0000
1000
0000
0000
0001
0000
0000
,
1100
0000
1000
0001
0110
0000
0001
1000
,
0110
0000
1000
0001
2001
0001
0001
0001
,
0001
0001
0001
0001
3201
0001
0001
0001
,
0001
0001
0001
0001
0321
0001
0231
0001
,
2301
0001
3021
0001
0231
0001
2301
0001
,
3201
0001
1301
0000
0012
1000
0010
0100
,
0010
1000
0010
0100
2103
0000
0000
0000
,
0000
0000
0000
3000
0001
1000
0010
0100
,
0001
1000
0010
0001
2100
0010
0001
0100
,
0010
0001
0100
3001
1000
0010
0100
0001
,
1000
0010
0100
0001
0220
0000
0000
0000
,
0000
0000
0000
0330
0001
1000
0010
0100
,
0001
0010
0100
0010
2001
0010
0100
0001
,
0100
0010
0001
0100
0010
0001
0100
0001
,
0010
0000
0100
0000
3001
0000
0000
0000
1001
0000
2100
0000
3000
0000
0012
0003
,
1100
0000
0102
0000
0000
0003
0210
0300
1001
0000
0210
0300
1001
0000
2100
3000
,
2000
3000
0012
0000
0003
1000
1000
0000
1001
0000
0012
0000
0000
0003
2010
3000
,
0011
0000
0210
0000
0000
0300
0012
0000
2103
0000
3201
0000
1320
0000
0132
0003
,
2002
0000
0000
0000
0000
0000
0000
0000
0000
3003
0000
0000
0001
0000
0100
0000
0010
0000
1000
0000
0100
0000
0010
0000
,
0001
1000
0001
1100
0010
1000
0001
0100
1000
0110
0001
1000
,
0010
0100
0001
0110
1000
0001
0010
0100
1000
0011
1000
0001
,
0100
0010
0100
1010
0100
0001
0100
1000
0010
0101
1000
0001
,
0100
0010
1000
0011
1000
0001
1000
0001
1000
0110
0001
1000
,
0010
0100
0001
1100
0001
1000
0010
0100
0010
0101
1000
0010
,
0100
0001
1000
0110
1000
0001
0100
0010
1000
0101
0010
1000
,
0001
0100
0010
1100
0001
0100
0010
1000
0010
0101
0010
1000
,
0001
0100
0010
1100
0001
0100
1000
1000
0001
0001
1000
1000
,
0012
0023
0230
2300
,
3012
0000
0000
0000
0000
0000
0000
0000
0023
0000
0000
0000
0000
0000
0000
0000
0230
0000
0000
0000
0000
0000
0000
0000
0301
1000
0001
1000
0001
0100
0010
0100
,
0012
0100
0100
1000
1000
0010
0010
0103
,
2010
0001
0001
0100
0100
0010
0010
0100
,
3021
0001
0001
0100
1230
0001
0001
1000
,
0312
0100
0100
0010
0010
1000
1000
0010
,
2103
0010
0010
0100
0100
0001
0001
0100
,
3012
0100
0100
1000
1103
0000
0000
0000
,
1000
0001
0100
0000
1010
0000
1010
0000
,
0100
0001
1000
0000
0011
0000
0011
1000
,
2100
0000
3012
0000
,
0123
0000
0132
0000
,
1103
1100
1100
0011
0000
0000
0011
0011
0011
1100
0000
0000
,
1100
0110
0011
0110
0000
1100
0011
0000
0011
1100
0000
2000
,
3011
0011
1100
1100
1100
0110
0110
0110
1001
1001
1010
1010
,
1010
0101
0101
0101
0000
0000
1010
1010
1010
0101
0000
0000
,
0101
0101
0101
1010
0000
0011
0101
0000
1100
1010
0000
0001
,
0100
0010
1000
0002
0000
1003
0010
0100
0001
2000
0000
3000
,
0011
0011
0011
1100
0000
0000
1100
1100
1100
0011
0000
0000
,
0011
0110
1100
0110
0000
0011
1100
0000
1100
0011
0000
0002
,
1103
1100
0011
0011
0011
0110
0110
0110
1001
1001
0101
0101
,
0101
1010
1010
1010
0000
0000
0101
0101
0101
1010
0000
0000
,
1010
1010
1010
0101
0000
1100
1010
0000
0011
0101
0000
1000
,
0010
0100
0001
2000
0000
3001
0100
0010
1000
0002
0000
0003
,
1000
0100
0010
0001
0010
0100
1000
0001
0010
0100
1000
0010
0100
0001
1000
0100
0010
0001
1000
0100
0010
0001
1000
0100
,
0010
0001
0010
0100
1000
0010
0100
0001
0010
0100
0010
0001
1000
0010
0100
0001
,
1000
0100
0010
0001
0010
0100
1000
0001
0010
0100
1000
0010
0100
0001
1000
0100
0010
0001
1000
0100
0010
0001
0100
0010
,
1000
0010
0100
0001
0010
0100
1000
0010
0100
0001
0010
0100
0010
0001
1000
0001
,
1000
0010
0100
0001
1000
0100
0010
0001
0010
0001
0010
0100
0010
0100
1000
0100
1000
0010
0100
0001
0010
0100
1000
0001
,
1000
0010
0100
0001
0010
0100
1000
0001
0010
0100
0010
0001
1000
0010
0100
0001
,
0010
0100
0001
0010
0100
1000
0010
0100
0001
1000
0001
1000
0010
0100
0001
1000
0100
0010
0001
1000
0010
0100
0001
1000
,
0001
1000
0010
0100
0001
1000
0001
1000
0010
0100
0001
0010
0100
1000
0001
0010
0100
1000
0001
1000
0010
0100
0001
1000
,
0001
0010
0100
1000
0010
0100
0001
0100
0010
1000
0100
1000
0100
0010
0100
0010
,
0001
0010
0001
0100
0010
1000
0001
1000
0001
0100
0010
1000
0100
0010
0001
0010
,
0100
1000
0010
0100
0001
0010
0100
1000
0001
0100
0010
1000
0001
1000
0010
0100
,
0001
0010
0100
1000
0001
1000
0001
0100
0010
1000
0010
0100
0001
0010
0100
1000
,
0100
0010
0001
1000
0001
1000
0010
0100
0001
0010
0100
1000
0010
0100
0001
1000
,
0001
1000
0010
0100
0001
0010
0100
1000
0100
0010
0001
1000
0010
0100
0001
0010
,
0001
0010
0100
0010
0100
1000
0100
1000
0010
0100
0001
1000
0001
1000
0010
0100
,
0001
1000
0100
0010
0001
0010
0100
1000
0001
1000
0001
0100
0010
1000
0001
0010
,
0100
1000
0100
0010
0001
1000
0010
0100
0001
1000
0001
1000
0010
0100
0001
1000
,
0010
0100
0001
0010
0001
0010
0100
0010
0100
1000
0100
1000
0010
0100
0001
1000
,
0002
0000
1000
0000
0010
0000
0100
0000
1003
0020
0000
0030
0001
0010
0100
1000
,
0002
0000
1000
0000
0010
0000
0100
0000
0013
2000
0000
3000
1000
0100
0010
0001
,
2000
0000
0001
0000
3010
0000
1000
0001
0100
0020
0000
0030
0001
1000
0010
0000
,
0200
0000
0000
0000
0300
0001
0010
0200
0300
1000
0010
0001
2000
0000
0000
3000
,
2000
0000
0001
0000
0100
0000
0010
0000
3001
0200
0000
0300
1000
0100
0010
0001
,
2000
0000
0001
0000
0100
0000
0010
0000
3100
0002
0000
0003
0001
0010
0100
1000
,
0002
0000
1000
0000
0103
0000
0001
1000
0010
0200
0000
0300
1000
0001
0100
0000
,
0020
0000
0000
0000
0030
1000
0100
0020
0030
0001
0100
1000
0001
0100
0010
2100
,
3001
1000
0010
1000
0002
0000
0000
0000
0003
1000
0010
0100
0001
2000
3200
0320
,
0032
0000
2003
0000
3010
0100
0001
0010
0200
0000
2300
0000
3020
0000
0230
0000
0302
0000
0023
0000
0130
1000
0010
0100
0002
0000
0203
0000
0320
0000
2030
0000
,
3020
0000
0230
0000
0301
0010
0100
1000
0020
0000
0230
0000
0300
0010
0001
0010
1001
0000
0002
0000
0203
0000
0320
0000
2030
0000
3002
0000
0103
0010
1000
0100
,
0020
0000
0032
0000
0203
0000
0320
0000
2030
0000
3200
0000
0310
0001
0100
0010
2000
0000
3020
0000
0230
0000
0302
0000
2003
0000
3020
0000
1030
0100
0010
0001
,
0220
0000
0000
0330
,
0102
0000
1000
1000
1203
0000
0000
0300
,
2010
0000
0001
0001
0020
0000
3030
0000
,
0201
0000
0000
0300
0001
0000
0010
0000
2100
0000
0000
0000
0000
0000
3000
0000
,
0012
0000
0000
0000
0000
0000
0000
0000
0100
0000
0000
0000
1000
0000
0000
0000
2013
0000
0000
0000
0000
0000
3000
0000
0001
0010
0100
1000
0010
0100
0001
1000
,
0012
0100
0010
1000
0100
1000
0010
0100
2003
0010
0100
0001
3020
0100
0001
1000
,
0230
0001
0010
0001
1000
0001
0010
1000
0001
1000
0010
0001
1000
0001
1000
0010
,
0302
1000
0010
0100
1000
0100
0010
0100
2003
0010
0001
0100
3020
1000
0001
0100
,
0032
1000
0010
0100
0010
1000
0010
1000
0203
0001
1000
0001
1000
0010
0001
0010
,
2300
0001
0100
0010
0001
0100
0001
0100
3002
0010
1000
0010
0203
1000
0001
0010
,
2300
0001
0010
0100
0010
0001
0010
0100
0010
0001
0010
0100
0010
0001
0010
0100
,
3020
0001
1000
0100
1000
0001
0100
1000
0032
0100
0010
1000
0203
0010
0001
1000
,
0302
0010
0100
1000
0100
0010
0100
1000
0100
0010
0100
1003
0110
0000
0000
0000
,
2010
0000
0001
0100
0010
0000
0001
0100
0010
0000
0001
0100
0001
0000
0010
0001
,
0100
0000
0001
0010
0001
0000
0100
0010
0001
0000
0001
0100
3001
0000
0100
0010
,
1000
0000
0010
0100
0001
0000
1000
0010
0100
0000
0001
1000
0010
0000
1000
0010
,
0100
0000
0001
1000
0001
0000
1000
0010
0100
0000
0001
0100
0010
0000
1000
0010
,
0100
0000
0001
1000
0010
0000
0100
0010
0001
0000
1000
0010
0100
0000
0001
1000
,
0010
0000
1000
0010
0100
0000
0001
0100
0010
0000
1000
0010
0100
0000
0001
0100
,
0010
0000
1000
0001
1000
0000
0001
1000
0010
0000
0100
0001
0010
0000
0100
1000
,
0010
0000
1000
0001
1000
0000
0010
0100
0001
0000
1000
0010
0100
0001
0010
0100
,
2001
0010
0001
0100
0010
0001
0010
0100
3002
0100
0010
1000
0100
1000
0010
0100
,
0023
0100
1000
0001
0100
0001
1000
0100
0001
1000
0100
1000
0001
0100
0001
0100
,
2030
0001
0010
0100
0010
0001
0100
0001
3020
0100
1000
0001
0100
0001
1000
0001
,
2030
0100
0010
0001
0010
0100
0010
0001
0010
0100
0001
0010
0001
0100
0010
0100
,
3002
0010
0100
1000
0010
1000
0100
1000
0203
0010
0001
1000
0001
1000
0001
0010
,
0302
1000
0100
1000
0010
0100
0010
1000
0100
0010
0100
1000
0100
1000
0013
0000
,
1100
0000
1001
0110
,
2002
3003
0110
0011
,
2100
0010
0001
0010
0100
0010
0001
0010
0100
0010
0001
0010
0100
0010
0001
0010
,
3102
1000
0100
0010
0100
1000
0100
0010
0100
1000
0100
0010
0100
1000
0100
0010
,
2103
0010
0100
0010
0001
0010
0100
0010
0001
0010
0100
0010
0001
0010
0100
0010
,
3102
1000
0100
0010
0100
1000
0100
0010
0100
1000
0100
0010
0100
1000
0100
0010
,
2103
0000
0000
0001
3102
0000
0000
1000
,
2103
0000
0000
0001
3012
0000
0000
0000
,
1003
0100
0010
0001
0010
0100
1000
0100
0010
0001
0010
0100
1000
0100
0010
0001
,
0010
0100
1000
0001
0010
0100
1000
0001
0110
1000
0011
0100
1010
0001
0110
1000
,
1010
0000
2100
0000
3000
0000
0012
0003
1100
0000
0102
0000
0000
0003
0210
0300
,
1001
0000
0210
0300
1001
0000
2100
3000
2000
3000
0012
0000
0003
1000
1000
0000
,
1001
0000
0012
0000
0000
0003
2010
3000
0011
0000
0210
0000
0000
0300
0012
0000
,
2103
0000
3201
0000
1320
0000
0132
0003
2002
0000
0000
0000
0000
0000
3003
0000
,
0001
0100
0010
1000
0100
0010
0001
1000
0001
1100
0010
1000
,
0001
0100
1000
0110
0001
1000
0010
0100
0001
0110
1000
0001
,
0010
0100
1000
0011
1000
0001
0100
0010
0100
1010
0100
0001
,
0100
1000
0010
0101
1000
0001
0100
0010
1000
0011
1000
0001
,
1000
0001
1000
0110
0001
1000
0010
0100
0001
1100
0001
1000
,
0010
0100
0010
0101
1000
0010
0100
0001
1000
0110
1000
0001
,
0100
0010
1000
0101
0010
1000
0001
0100
0010
1100
0001
0100
,
0010
1000
0010
0101
0010
1000
0001
0100
0010
1100
0001
0100
,
1000
1000
0001
0001
1000
1000
1002
0000
0000
0023
0000
0000
,
0230
2300
3102
2003
,
3200
0000
0000
0000
0000
0000
0000
0000
1301
0000
0000
0000
0001
1000
0001
1000
0012
0000
0000
0000
0100
0000
0000
0000
0100
0000
0000
0000
1000
0000
0000
0000
,
1000
0010
0010
0103
2010
0001
0001
0100
,
0100
0010
0010
0100
3021
0001
0001
0100
,
1230
0001
0001
1000
0312
0100
0100
0010
,
0010
1000
1000
0010
2103
0010
0010
0100
,
0100
0001
0001
0100
3012
0100
0100
1000
,
2023
0000
3131
0000
1000
0001
0100
0000
,
1010
0000
1010
0000
0100
0001
1000
0000
,
0011
0000
0011
0000
1000
0000
0011
0011
,
0011
0000
1100
1100
1100
0000
0110
0000
,
0012
0000
0000
0000
0003
0000
0000
0000
2100
0010
0001
0100
0010
0100
0001
0010
,
3002
0100
0010
1000
0203
0010
0001
1000
0302
0100
0010
1000
0100
0010
0100
1000
,
0010
0100
0010
1000
0100
1000
0010
1000
0203
0010
1000
0010
1000
0001
1000
0010
,
0302
1000
0010
0100
2003
0010
0100
0001
3020
0100
1000
0100
0032
1000
0010
0100
,
2003
0100
0001
0010
3002
0100
0010
0100
0023
1000
0100
1000
0001
0100
0001
1000
,
0230
0001
0010
0001
0320
1000
0100
1000
0230
0001
0010
0001
1000
0001
1000
0010
,
0302
1000
0010
0100
0010
1000
0100
0010
2003
0100
0010
0001
0010
0100
0001
0010
,
3002
0100
0010
1000
0203
0010
0001
0010
0302
1000
0100
0010
0100
1000
0010
0100
,
2003
0010
0100
0001
0010
0100
0001
0010
3002
0100
0010
0100
1000
0010
0100
0010
,
0203
0010
1000
0001
0320
1000
0001
0100
2030
0100
0010
0001
0010
0100
0010
0100
,
0001
0010
0001
0100
0010
0001
0010
0100
3020
0001
0100
0001
1000
0100
1000
0001
,
1000
0001
0100
0001
0230
0001
0010
0001
2300
0010
0100
0001
3020
0001
1000
0100
,
0032
0100
1000
0010
0203
0010
0001
1000
0320
1000
0001
0100
0001
1000
0100
1000
,
0032
0100
0010
0100
2003
0010
0100
0001
3020
0100
0001
1000
0100
1000
0001
1000
,
0001
0100
0001
1000
0100
1000
0001
0100
0032
1000
0010
0100
0010
1000
0010
0100
,
2023
3232
0323
0000
0032
0000
0000
0000
,
0000
0000
0000
0000
0000
0000
0000
0000
0000
0003
0000
0000
1100
0000
1100
0000
1100
0000
0011
0000
0000
0000
0000
0000
,
0011
0011
0011
1100
0000
0000
1100
0110
0011
0110
0000
1100
,
0011
0000
0011
1100
0000
2000
3011
0011
1100
1100
1100
0110
,
0110
0110
1001
1001
1010
1010
1010
0101
0101
0101
0000
0000
,
1010
1010
1010
0101
0000
0000
0101
0101
0101
1010
0000
0011
,
0101
0000
1100
1010
0000
0001
0100
0010
1000
0002
0000
1003
,
0010
0100
0001
2000
0000
3000
0011
0011
0011
1100
0000
0000
,
1100
1100
1100
0011
0000
0000
0011
0110
1100
0110
0000
0011
,
1100
0000
1100
0011
0000
0002
1103
1100
0011
0011
0011
0110
,
0110
0110
1001
1001
0101
0101
0101
1010
1010
1010
0000
0000
,
0101
0101
0101
1010
0000
0000
1010
1010
1010
0101
0000
1100
,
1010
0000
0011
0101
0000
1000
0010
0100
0001
2000
0000
3001
,
0100
0010
1000
0002
0000
0003
1100
1100
1100
0011
0000
0000
,
0011
0011
0011
2002
3003
0000
2001
0000
0000
3200
0000
0000
,
0320
0032
2013
3002
,
0023
0000
0000
0000
0000
0000
0000
0000
0031
0100
0010
1000
0001
1000
0001
0010
2100
0000
0000
0000
0010
0000
0000
0000
0010
0000
0000
0000
0001
0000
0000
0000
,
0001
0100
0100
3010
0102
1000
1000
0010
,
0010
0100
0100
0010
1203
1000
1000
0010
,
0321
1000
1000
0001
2130
0010
0010
0100
,
0100
0001
0001
0100
3012
0100
0100
0010
,
0010
1000
1000
0010
2103
0010
0010
0001
,
3202
0000
1313
0000
0001
1000
0010
0000
,
0101
0000
0101
0000
0010
1000
0001
0000
,
1100
0000
1100
0000
0001
0000
1100
1100
,
1100
0000
0011
0011
0011
0000
0110
0000
,
1001
1001
1001
1001
0000
0000
0000
0000
,
0000
0000
1001
0000
;
