#TITLE:Zealous Entropy;
#SUBTITLE:;
#ARTIST:Ashane;
#TITLETRANSLIT:;
#SUBTITLETRANSLIT:;
#ARTISTTRANSLIT:;
#CREDIT:Darkmage;
#BANNER:zealousentropy-bn.png;
#BACKGROUND:zealousentropy-bg.png;
#LYRICSPATH:;
#CDTITLE:!darkmagetitle2.png;
#MUSIC:Zealous Entropy.ogg;
#OFFSET:1.622;
#SAMPLESTART:51.700;
#SAMPLELENGTH:29.000;
#SELECTABLE:YES;
#BPMS:0.000=112.000;
#STOPS:547.500=0.540
;
#BGCHANGES:0.000=zealousentropy-bg.png=1.000=0=0=1,
99999=-nosongbg-=1.000=0=0=0 // don't automatically add -songbackground-
;
// cache tags:
#FIRSTBEAT:4.000;
#LASTBEAT:1167.500;
#SONGFILENAME:Songs/Archmage and Dark0wl Hammer of Thor UltraHyperMegaPack/Zealous Entropy/Zealous Entropy.sm;
#HASMUSIC:1;
#HASBANNER:1;
#MUSICLENGTH:105.000;
// end cache tags

//---------------dance-single - Darkmage----------------
#NOTES:
     dance-single:
     Darkmage:
     Hard:
     13:
     1.000,1.000,1.000,1.000,1.000,2710.000,164.000,152.000,0.000,3.000:
0000
0000
0000
0000
,
1000
0100
0010
0001
0010
0000
0000
0000
,
0000
0000
0000
0000
,
1000
0100
0010
0001
0010
0000
0000
0000
,
0000
0000
0000
0000
,
0001
0000
0000
0001
0100
0000
0001
0000
0000
0000
0001
0000
0100
0000
0010
1000
,
0001
0000
0000
0001
0100
0000
0010
0000
0000
0000
0100
0000
0001
0000
0100
0010
,
1000
0000
0000
1000
0100
0000
1000
0000
0000
0000
1000
0000
0100
0000
1000
0010
,
0100
0000
0000
0100
0010
0000
0100
0000
0000
0000
0100
0000
0010
0000
0100
0001
,
0010
0000
0000
0010
0001
0000
0010
0000
0000
0000
0010
0000
0001
0000
0100
0010
,
1000
0000
0000
1000
0001
0000
1000
0000
0000
0000
1000
0000
0010
0000
0100
0001
,
0010
0000
0000
0010
0001
0000
0010
0000
0000
0000
0010
0000
0001
0000
0100
0010
,
1000
0000
0000
1000
0100
0000
1000
0000
0000
0000
1000
0000
0100
0000
0010
0001
,
1100
0000
0000
1100
0000
0000
1001
0101
,
1100
0000
0000
1100
0000
0000
0101
0011
,
1100
0000
0000
1100
0000
0000
0011
0110
,
1100
0000
0000
1100
0000
0000
0101
0101
,
1100
0000
0000
1100
0000
0000
0101
1001
,
1100
0000
0000
1100
0000
0000
0101
0011
,
1100
0000
0000
1100
0000
0000
0011
0110
,
1100
0000
0000
1100
0000
0000
1010
0200
,
0301
0000
1000
0100
0000
0000
1000
0000
1000
0000
0000
0000
0000
0000
0000
0000
,
0000
0000
0000
0000
0000
0000
0100
0010
0001
0000
0000
1000
0000
0001
0100
0010
,
0000
1000
0000
0100
0100
0000
0000
0000
,
0000
0000
0000
0000
0000
0000
0000
0100
,
0010
0000
0000
1000
0000
0000
0001
0000
0001
0000
0000
0000
0000
0000
0000
0000
,
0000
0000
0000
0000
0000
0000
0100
0000
0010
0000
0000
1000
0000
0000
0001
0000
,
0010
0000
0000
0100
0000
0000
1000
0000
0000
0000
0000
0000
0000
0000
0000
0000
,
0000
0000
0000
0000
0000
0000
1000
0000
0100
0000
0000
0010
0000
0000
0001
0000
,
0000
0000
0000
0000
,
0000
0000
0000
1000
0010
0000
1000
0000
,
0001
0000
0000
0010
0000
0000
0100
0000
0000
0000
0000
0000
1000
0000
0100
0000
,
0000
0000
0000
0000
0000
0000
0000
0100
,
0010
0000
0001
0000
1000
0000
0010
0000
0100
0000
0000
0001
0000
0000
0010
0000
,
0100
0000
1000
0000
0001
0000
0100
0000
0010
0000
0000
1000
0000
0000
0001
0000
,
0010
0000
0000
0000
0000
0000
0000
1000
,
0001
0000
0000
0000
0000
0100
0010
1000
,
0101
0000
0000
0000
0000
0100
0001
0010
,
1100
0000
0000
0000
0000
0010
1000
0100
,
0011
0000
0000
0000
0000
0010
0001
0100
,
1010
0000
0000
0000
0000
1000
0100
0010
,
0101
0000
0000
0000
0000
0001
0100
0010
,
1010
0000
0000
0000
0000
1000
0100
0010
,
0011
0000
0000
0000
0000
0001
0100
0010
,
1100
0000
0000
0000
0000
0100
0010
1000
,
0101
0000
0000
0000
0000
0000
0000
0000
0000
0000
0000
0010
1000
0000
0000
0010
,
0100
0000
0000
0000
0000
0000
0000
0000
0000
0000
0100
0000
0010
0000
0100
0001
,
1100
0000
0000
0000
0000
0000
0100
1000
0101
0000
0000
0000
0000
0000
0100
0001
,
1100
0000
0000
0000
0000
0000
0001
1000
1100
0000
1000
0001
0101
0000
0001
1000
,
1100
0000
0000
0000
0000
1000
0100
0010
,
0001
0000
0100
0010
0000
1000
0100
0000
0010
0001
0000
0100
0010
0000
1000
0000
,
0001
0000
0010
0100
0000
1000
0010
0000
0100
0001
0000
0010
0100
0000
1000
0000
,
0100
0000
0010
0001
0000
1000
0010
0000
0100
0001
0000
0010
0100
0000
1000
0000
,
0000
0000
0100
0010
0001
1000
0010
0100
0001
0010
0100
1000
0010
0100
0001
0000
,
1000
0100
0010
0001
1000
0010
0100
0001
0100
0010
1000
0100
0010
0001
1000
0010
,
0100
0000
0000
0000
0000
0000
0001
0010
0100
0000
0000
0000
0000
0000
1000
0100
,
0010
0000
0000
0000
0000
0000
0001
0100
0010
0000
0000
0000
0000
0000
1000
0100
,
0010
0001
0000
0000
0000
0000
0000
0000
,
1000
0010
0000
0100
0001
0000
0010
0100
0000
0001
0100
0000
0010
0001
0000
1000
,
0010
0000
0100
0010
0000
0001
0010
0000
1000
0001
0000
0100
0010
0000
1000
0100
,
0000
0000
0000
0000
0000
0000
0000
0000
0000
0000
0000
1000
0000
0001
0000
0000
,
0010
0000
0000
0000
0000
0000
0100
1000
0010
0000
0000
0000
0000
0000
0100
0001
,
0010
0000
0000
0000
0000
0000
0100
0010
0001
0000
0000
0000
0000
0000
1000
0010
,
0001
0000
0000
0000
0000
0100
0010
1000
,
0001
0000
0000
0000
0000
0000
0000
0000
0000
1000
0100
0000
0010
0000
0001
0000
,
1000
0010
0100
0000
0001
0010
0000
0100
1000
0000
0000
0000
0000
0000
0100
0010
,
0001
1000
0010
0000
0100
0001
1000
0100
,
0010
0000
0000
0000
0000
0000
0000
0000
0000
0000
0001
0010
0100
1000
0010
0100
,
0001
0000
0000
1001
1001
0000
0000
0000
,
1000
0100
0010
0001
0010
0000
0000
0000
,
0000
0000
0000
0000
,
1000
0100
0010
0001
0010
0000
0000
0000
,
0000
0000
0000
0000
,
0001
0100
0010
1000
0010
0000
0000
0000
,
0000
0000
0000
0000
,
0001
0100
0010
1000
0010
0000
0000
0000
,
0000
0000
0000
0000
0000
0000
0000
0000
0000
0000
0000
0000
0000
0000
0000
1000
,
0000
0000
0010
0100
0001
0000
1000
0000
0100
0000
0010
0000
0001
0010
0100
1000
,
0001
0000
0100
0010
1000
0000
0010
0000
0100
0000
0001
0000
0010
0000
0100
1000
,
0001
0000
0100
1000
0100
0000
0010
0000
1000
0000
0100
0000
0001
0100
0010
0001
,
1000
0000
0010
0100
1000
0000
0100
0000
0010
0000
1000
0000
0100
0001
0100
0010
,
0001
0000
1000
0010
0100
0000
0001
0000
1000
0000
0100
0000
0010
0100
0001
0100
,
0010
0000
0001
1000
0010
0000
0100
0000
0001
0000
1000
0000
0100
0010
0001
1000
,
0010
0000
0100
0001
0010
0000
0100
0000
0001
0000
0100
0000
1000
0010
0001
0010
,
0100
0000
0001
0010
0100
0000
1000
1000
0000
1000
0100
0010
0001
1000
0010
0100
,
0101
0000
0001
1000
1100
0000
1100
0000
0011
0000
0011
0000
0101
0000
0101
0000
,
1010
0000
0010
0100
0101
0000
0101
0000
1010
0000
1010
0000
0110
0000
0001
0100
,
1001
0000
1000
0010
1010
0000
1010
0000
0101
0000
0101
0000
0011
0000
0011
0000
,
1100
0000
0001
0010
0011
0000
0011
0000
1100
0000
1100
0000
1010
0000
0001
0100
,
2010
0000
0000
3020
0000
0000
0230
0000
0302
0000
0000
0000
0000
0000
0000
0000
,
0000
0000
0000
0000
0000
0000
0103
0010
2000
0000
0000
3002
0000
0000
1003
0100
,
0020
0000
0000
0032
0000
0000
2003
0000
3020
0000
0000
0000
0000
0000
0000
0000
,
0000
0000
0000
0230
,
2301
0000
0000
3200
0000
0000
0320
0000
0032
0000
0000
0000
0000
0000
0000
0000
,
0000
0000
0000
0000
0000
0000
2003
0000
3020
0000
0000
0230
0000
0000
0302
0000
,
2003
0000
0000
3200
0000
0000
0320
0000
0000
0000
0000
0000
0000
0000
0000
0000
,
0000
0000
0000
0000
0000
0000
0032
0000
2003
0000
3000
0020
0000
0000
0230
0000
,
0000
0000
0000
0000
,
0000
0000
0000
0302
0203
0000
0320
0000
,
2030
0000
0000
3200
0000
0000
0320
0000
0000
0000
0000
0000
0032
0000
2003
0000
,
0000
0000
0000
0000
0000
0000
0000
0000
0000
0000
0000
0000
3100
0010
0001
1000
,
0101
0000
0001
0100
0001
0000
0200
0000
0320
0000
0000
2030
0000
0000
3200
0000
,
0311
0000
0002
0000
0023
0000
0230
0000
2300
0000
0000
3020
0000
0000
0230
0000
,
0302
0000
0000
0000
0000
0000
0000
0000
0000
0000
0000
0000
0000
0000
0000
0000
0000
0000
0000
0000
0000
0000
0000
0000
0000
0000
0000
0000
0000
0000
0103
0000
0010
0000
1000
0000
0001
0000
0000
0100
0000
0000
0010
0000
0000
1000
0000
0000
,
0002
0000
0000
2003
0000
0000
3200
0310
,
1001
0100
0010
0001
0010
0100
1000
0001
,
2000
0100
0010
0001
3200
0010
0001
1000
,
0320
0001
0100
1000
0100
0001
0100
1000
,
0032
0100
0010
0100
2003
0100
3020
0001
,
0230
1000
0010
0001
0010
1000
0010
0001
,
1000
0010
0001
1000
0302
0100
0023
0001
,
2030
0100
0010
0001
3200
1000
0001
0010
,
2300
0001
0100
0010
3002
0010
0203
0320
,
2031
0001
0100
0010
0001
0010
0100
0010
,
3200
0001
0010
1000
0320
0001
0100
1000
,
0032
1000
0010
0100
0010
1000
0010
0100
,
2003
0100
0010
0001
3020
0100
0032
1000
,
0203
0010
0001
0010
1000
0010
0001
0010
,
1000
0010
0001
1000
0320
0001
0100
0001
,
2030
0100
0010
0001
0010
0100
0010
0001
,
0010
0100
0010
0001
0010
0100
0010
0001
,
3100
0000
1000
0100
1000
0000
0100
1000
0100
1000
0100
1000
0100
1000
0100
1000
,
0100
0000
0010
0100
0010
0000
0100
0010
0100
0010
0100
0010
0100
0010
0100
0010
,
0100
0000
0010
0001
0010
0000
0001
0010
0001
0010
0001
0010
0001
0010
0001
0010
,
0001
0000
0100
0001
0100
0000
0001
0100
0001
0100
0001
0100
0001
0100
0001
0100
,
0001
0000
0100
0010
0100
0000
0010
0100
0010
0100
0010
0100
0010
0100
0010
0100
,
0010
0000
1000
0010
1000
0000
0010
1000
0010
1000
0010
1000
0010
1000
0010
1000
,
0010
0000
1000
0100
1000
0000
0100
1000
0100
1000
0100
1000
0100
1000
0100
1000
,
0100
0000
0010
0001
0010
0000
0001
0010
0001
0010
0001
0010
0001
0010
0001
0010
,
0001
0000
1000
0010
1000
0000
0001
0100
0001
0100
0001
0100
0001
0100
0001
0100
,
0001
0000
1000
0100
1000
0000
0001
0010
0001
0010
0001
0010
0001
0010
0001
0010
,
0001
0000
0100
0001
0100
0000
0010
0100
0010
0100
0010
0100
0010
0100
0010
0100
,
0010
0000
1000
0010
1000
0000
0001
1000
0001
1000
0001
1000
0001
1000
0001
1000
,
0001
0000
0010
0001
0010
0000
0100
1000
0100
1000
0100
1000
0100
1000
0100
1000
,
0100
0000
1000
0010
1000
0000
0010
0100
0010
0100
0010
0100
0010
0100
0010
0100
,
0010
0000
0100
0001
0100
0000
0001
0010
0001
0010
0001
0010
0001
0010
0001
0010
,
0001
0000
1000
0100
1000
0000
0001
0010
0100
1000
0010
0100
0001
0100
0010
0000
,
1000
0100
1000
0010
0100
0001
1000
0100
0010
0001
0010
0100
1000
0010
0100
0001
0100
0010
1000
0100
0010
0001
0010
0100
,
1000
0100
0010
0001
1000
0010
0100
0001
0010
0001
0100
0010
1000
0100
0010
0001
1000
0010
0100
0010
1000
0100
0010
0100
,
1000
0100
0010
0001
1000
0100
0010
0100
1000
0010
0100
0001
1000
0100
0010
0001
1000
0100
0010
0100
1000
0010
0100
0001
,
1000
0000
0100
0010
0001
0000
1000
0010
0100
0000
0001
0010
0100
0000
1000
0010
,
0101
0000
0000
0000
0000
0100
0010
1000
,
0001
0000
1000
0100
0000
0010
0001
0000
1000
0010
0000
0100
0001
0000
1000
0000
,
0001
0000
0100
0010
0000
1000
0100
0000
0010
0001
0000
1000
0010
0000
0100
0000
,
0001
0100
0010
1000
0010
0100
0001
0010
0100
1000
0100
0010
0001
1000
0010
0100
,
1001
0000
0000
0000
0000
0000
0000
0001
,
1000
0000
0100
0000
0010
0000
0001
0000
0000
1000
0000
0000
0100
0000
0000
0010
0000
0000
0001
0000
0000
1000
0000
0000
0100
0000
0010
0000
0001
0000
1000
0000
0000
0100
0000
0000
0010
0000
0000
0001
0000
0000
1000
0000
0000
0100
0000
0000
,
0010
0000
0001
0000
1000
0000
0100
0000
0000
0010
0000
0000
0001
0000
0000
1000
0000
0000
0100
0000
0000
0010
0000
0000
0001
0000
0000
0010
0000
0000
0100
0000
0000
0010
0000
0000
0001
0000
0000
0010
0000
0000
0100
0000
0000
0010
0000
0000
,
0001
0000
0000
0000
0000
1000
0010
0100
,
0001
0100
0010
1000
0010
0100
0001
0100
0010
1000
0010
0100
0001
0100
0010
1000
0010
0100
0001
0010
0100
1000
0100
0010
,
0001
0100
0010
1000
0010
0100
0001
0100
0010
1000
0010
0100
0001
0100
0010
1000
0010
0100
0001
0010
0100
1000
0001
0100
,
0010
1000
0010
1000
0010
1000
0100
1000
0100
1000
0100
1000
0001
0010
0001
0010
0001
0010
0001
0100
0001
0100
0001
0100
,
0010
1000
0010
1000
0010
1000
0001
0010
0100
1000
0010
0100
0001
0000
0000
0000
0000
0000
0000
0000
0000
0000
0000
0000
,
1000
0100
0010
0001
0010
0100
1000
0100
0010
0001
0010
0100
1000
0100
0010
0001
0010
0100
1000
0010
0100
0001
0010
0100
,
1000
0100
0010
0001
0010
0100
1000
0100
0010
0001
0010
0100
1000
0100
0010
0001
0010
0100
1000
0010
0100
0001
0100
0010
,
1000
0000
0100
0000
0010
0000
0001
0000
0010
0000
0100
0000
1000
0000
0000
0100
0000
0000
0010
0000
0000
0001
0000
0000
1000
0000
0000
0000
0000
0000
0000
0000
0000
0000
0000
0000
0010
0000
0000
0000
0000
0000
0100
0000
0000
0000
0000
0000
,
0001
0000
0000
0000
0000
0010
0100
0001
,
1000
0100
0010
0001
1000
0010
0100
0001
1000
0100
0010
0001
1000
0100
1000
0010
0100
0001
0010
0001
0100
0010
1000
0100
,
1000
0100
0010
0001
0010
0100
1000
0100
0010
0001
0010
0100
1000
0010
0100
0001
0100
0010
1000
0010
0100
0001
0100
0010
,
1000
0100
0010
0001
0010
0100
0010
0001
0010
0100
1000
0001
0100
0010
1000
0010
0100
0001
0010
0001
0100
0010
1000
0010
,
1000
0100
0010
0001
0010
0100
1000
0010
0100
0001
0100
0010
1000
0100
0010
0001
0010
0100
2000
0000
0000
3000
0000
0000
,
2002
0000
0000
0000
3003
0011
0110
1100
,
2002
0000
0000
0000
3003
0101
0110
1010
,
2002
0000
0000
0000
3003
1100
0110
0011
,
2002
0000
0000
0000
3003
0101
0110
1010
,
2002
0000
0000
0000
0000
3003
1100
0110
,
2002
0000
0000
0000
3003
0011
0110
1100
,
2002
0000
0000
0000
3003
1010
0110
0101
,
2002
0000
0000
0000
0000
0000
0000
0000
0000
0000
0000
0000
0000
0000
0000
0000
0000
0000
0000
0000
0000
0000
0000
0000
0000
0000
0000
0000
0000
0000
3003
0000
0000
0000
0000
0000
1000
0000
0000
0100
0000
0000
0010
0000
0001
0000
0010
0000
,
1100
0000
0000
0000
0000
0000
0000
0000
0000
0000
0000
0000
1000
0000
0000
0000
0000
0000
0000
0000
0000
0000
0000
0000
0010
0000
0000
0000
0000
0000
1000
0000
0100
0000
0010
0000
0001
0000
0000
0011
0000
0000
0000
0000
0000
0000
0000
0000
,
1001
0000
0000
1010
0000
0000
0101
0000
0000
0000
1000
0000
0010
0000
0100
0000
,
1001
0000
0000
0000
0000
0000
0000
0000
0000
0000
0000
0000
0001
0000
0000
0000
0000
0000
0000
0000
0000
0000
0000
0000
0100
0000
0000
0000
0000
0000
0010
0000
1000
0000
0001
0000
0100
0000
0000
0110
0000
0000
0000
0000
0000
0000
0000
0000
,
1010
0000
0000
0000
0000
0000
0000
0000
0000
1001
0000
0000
0000
0000
0000
0000
0000
0000
0101
0000
0000
0000
0000
0000
0001
0000
0000
0100
0000
0000
0000
0000
0000
0010
0000
0000
1000
0000
0100
0000
0010
0000
0001
0000
0010
0000
0100
0000
,
1001
0000
0000
0000
0000
0000
0000
0000
0000
0000
0000
0000
1000
0000
0000
0000
0000
0000
0000
0000
0000
0000
0000
0000
0001
0000
0000
0000
0000
0000
0100
0000
0010
0000
1000
0000
0001
0000
0000
1001
0000
0000
0000
0000
0000
0000
0000
0000
,
0101
0000
0000
0110
0000
0000
1010
0000
0000
0000
1000
0000
0100
0000
0010
0000
,
1001
0000
0000
0000
0000
0000
0010
0000
0000
0000
0000
0000
1000
0000
0000
0001
0010
0100
1000
0100
0010
0001
0010
0100
,
1000
0010
1000
0010
1000
0010
0100
0001
0100
0001
0100
0001
0010
0001
0010
0001
0010
0001
0010
0000
0001
0000
0010
0000
,
0001
0010
0100
1000
0100
0010
0001
0011
,
0010
0100
1000
0100
1100
1000
0010
0100
,
1001
0010
0100
1000
0100
0010
0100
0110
,
0100
1000
0001
0100
0110
1000
0001
0010
,
1100
0001
0100
0010
1000
0010
0100
0101
,
0010
0001
0100
0010
1010
1000
0100
0010
,
0101
1000
0001
0010
0100
1000
0001
0101
,
0100
0000
0000
0000
0000
0000
0010
0000
0000
0000
0000
0000
1000
0000
0000
0100
0000
0000
1000
0000
0000
0000
0000
0000
0001
0000
0000
0010
0000
0000
0001
0000
0000
1000
0000
0000
0010
0000
0000
0100
0000
0000
0001
0000
0010
0000
0100
0000
,
1000
0100
0010
0001
0010
0100
0001
0101
,
0100
0010
0001
1000
1010
0010
0001
0010
,
1100
0100
1000
0010
0001
1000
0100
0101
,
0010
0100
1000
0001
0101
0100
1000
0100
,
1010
1000
0100
0001
0100
0010
0001
0101
,
0100
1000
0100
0010
1010
1000
0100
0010
,
1001
0100
1000
0001
0010
0100
1000
0110
,
0001
0100
0010
1000
0101
0010
0100
1000
,
2002
0000
0000
0000
0000
3003
0000
0000
,
1000
0100
0010
0001
0010
0100
0001
0100
,
0010
0100
0001
0100
0010
0001
1000
0010
,
1000
0100
0010
0001
0010
0100
0001
0100
,
0011
0000
1100
0000
0000
0000
1010
0000
0101
0000
0000
0001
1000
0000
0010
0000
,
0102
0000
0000
0010
0000
0000
0103
0000
2000
0000
0000
0000
0000
0000
0000
0000
,
0000
0000
0000
0000
0000
0000
3100
0010
2000
0000
0000
3002
0000
0000
0013
0100
,
2000
0000
0000
3020
0000
0000
0230
0000
0302
0000
0000
0000
0000
0000
0000
0000
,
0000
0000
0000
0000
0000
0000
0000
0000
0103
1000
0100
0010
1000
0001
0010
0100
,
1200
0000
0000
0010
0000
0000
1300
0000
0020
0000
0000
0000
0000
0000
0000
0000
,
0000
0000
0000
0000
0000
0000
0032
0000
0203
0000
0000
0320
0000
0000
2030
0000
,
3200
0000
0000
2300
0000
0000
3020
0000
0000
0000
0000
0000
0000
0000
0000
0000
,
0000
0000
0000
0000
0000
0000
0230
0000
0302
0000
0000
0023
0000
0000
0130
0000
,
0000
0000
0010
1000
0010
0000
0001
0000
1000
0000
0010
0000
0100
1000
0100
0001
,
0010
0000
0100
1000
0100
0000
2000
0000
3002
0000
0000
0000
0203
0000
0000
0000
,
2300
0000
0000
3002
0000
0000
0203
0000
0000
0000
0000
0000
0310
0000
2000
0000
,
0000
0000
3010
0100
0001
0000
0010
0000
0100
1000
0100
0010
1000
0001
0010
0100
,
0011
0000
0100
1000
0100
0000
2000
0000
3020
0000
0000
0230
0000
0000
0301
0000
,
1010
0000
0100
0001
0100
0000
0020
0000
2030
0000
0000
3002
0000
0000
1003
0000
,
1100
0000
0000
0000
0000
0000
0100
0000
0000
1000
0000
0000
0100
0000
0000
0000
0000
0000
1000
0000
0000
0000
0000
0000
0010
0000
0000
0000
0000
0000
0100
0000
0001
0000
0100
0000
1000
0000
0000
0100
0000
0000
0010
0000
0000
1000
0000
0000
,
0002
0000
0000
0203
0000
0000
1300
0010
,
1001
0100
0010
0001
0010
0100
1000
0100
,
0020
0000
0001
0000
0100
0000
1000
0000
0230
0000
0010
0000
0001
0000
1300
0100
,
0002
0010
0100
1000
0100
0010
0100
1000
,
0023
0000
0100
0000
0001
0000
1000
0000
0230
0000
0001
0000
2300
0000
3100
0010
,
0021
0001
0100
1000
0100
0001
0100
1000
,
0100
0000
0001
0000
0100
0000
1000
0000
0032
0000
0100
0000
2003
0000
3010
0100
,
0201
0001
1000
0010
2300
0010
0100
0001
,
3020
0000
0100
0000
1000
0000
0001
0000
0230
0000
1000
0000
0302
0000
0103
0010
,
1020
1000
0001
0100
0001
1000
0100
1000
,
0230
0000
0001
0000
1000
0000
0010
0000
2300
0000
0001
0000
0100
0000
3010
0100
,
0102
0100
0010
1000
0010
1000
0100
0010
,
0203
0000
1000
0000
0010
0000
0001
0000
0320
0000
0001
0000
2030
0000
3100
1000
,
1002
0010
0100
1000
0100
0010
0100
1000
,
0100
0000
0010
0000
0100
0000
1000
0000
0023
0000
0100
0000
1000
0000
0031
1000
,
2001
0100
0010
0001
0010
0100
0010
0001
,
0010
0100
0010
0001
0010
0100
0010
0001
,
3100
0000
0010
1000
0010
0000
0100
0001
0100
0001
0100
0001
0100
0001
0100
0001
,
1000
0000
0100
1000
0100
0000
0010
0001
0010
0001
0010
0001
0010
0001
0010
0001
,
0100
0000
0010
1000
0010
0000
0100
0001
0100
0001
0100
0001
0100
0001
0100
0001
,
0010
0000
0100
1000
0100
0000
1000
0010
1000
0010
1000
0010
1000
0010
1000
0010
,
0100
0000
0001
0010
0001
0000
1000
0100
1000
0100
1000
0100
1000
0100
1000
0100
,
0010
0000
0001
0100
0001
0000
1000
0100
1000
0100
1000
0100
1000
0100
1000
0100
,
1000
0000
0010
0100
0010
0000
0100
0001
0100
0001
0100
0001
0100
0001
0100
0001
,
1000
0000
0100
0010
0100
0000
1000
0010
1000
0010
1000
0010
1000
0010
1000
0010
,
0100
0000
0001
0010
0001
0000
1000
0010
0100
0001
0010
0001
0100
0010
1000
0100
,
1000
0000
0001
0010
0001
0000
0100
0010
1000
0001
0010
0100
0010
0001
1000
0010
,
0100
0000
0010
1000
0010
0000
0100
0001
0010
0001
0100
0010
1000
0001
0010
0100
,
1000
0000
0010
0100
0010
0000
0100
0010
1000
0001
0010
0001
0100
0010
0100
0001
,
1000
0000
0100
1000
0100
0000
1000
0010
0100
0001
0100
0010
1000
0001
0010
0100
,
1000
0000
0100
0010
0100
0000
1000
0010
0100
0001
0100
0010
1000
0001
0010
0100
,
0010
0000
0001
0010
0001
0000
1000
0010
0100
0010
1000
0001
0010
0100
0010
0001
,
0100
0000
0001
0100
0001
0000
0100
0010
1000
0001
0010
0001
0100
0010
1000
0100
,
1000
0000
0100
0001
0100
0000
0010
0001
1000
0010
0100
1000
0100
0010
1000
0001
,
0010
0000
0100
0001
0100
0000
1000
0001
0100
1000
0100
0001
1000
0100
0010
0001
,
1000
0000
0010
0001
0010
0000
0100
0010
1000
0001
0010
0100
0001
0100
0010
0001
,
1000
0000
0010
1000
0010
0000
0100
1000
0100
0010
1000
0100
0001
0100
0010
0001
,
1000
0000
0010
0001
0010
0000
0100
0010
1000
0001
0010
0100
0001
0100
0010
0001
,
1000
0000
0010
0001
0010
0000
0100
0010
1000
0100
0001
0100
0010
0001
1000
0010
,
0100
0000
0001
0010
0001
0000
1000
0010
0001
0010
0100
0001
0010
0100
0001
0100
,
0010
0000
0100
1000
0100
0000
0001
0100
1000
0001
0100
0010
1000
0001
0010
0100
,
1000
0000
0001
0100
1000
0000
0100
0010
1000
0001
0010
0100
1000
0001
0100
0010
,
1000
0000
0001
0010
1000
0000
0010
0001
1000
0010
0100
1000
0100
0010
1000
0001
,
0010
0000
0100
1000
0010
0000
0100
0001
0010
0100
0001
0100
0010
0001
1000
0010
,
0100
0000
1000
0100
0010
0000
1000
0001
0010
1000
0010
0001
1000
0010
0100
0001
,
0100
0000
0010
1000
0001
0000
0010
0100
0001
0100
0010
0001
1000
0010
0100
1000
,
0100
0000
0010
1000
0001
0000
0010
0100
0001
0100
0010
0001
1000
0010
0100
1000
,
0100
0000
0010
1000
0001
0000
0010
0100
0001
0100
1000
0001
0100
1000
0100
0010
,
1000
0000
0001
0010
0100
0000
0001
0100
1000
0010
0100
1000
0100
0010
1000
0001
,
0010
0000
0100
1000
0010
0000
0100
1000
0100
0001
1000
0100
0001
0100
0010
0001
,
1000
0000
0001
0100
1000
0000
0100
0010
1000
0001
0010
0100
0001
0100
1000
0001
,
0100
0000
1000
0100
0001
0000
1000
0100
0001
0100
1000
0010
0100
0010
1000
0001
,
0010
0000
0100
1000
0010
0000
0100
0001
0010
0100
0010
0001
1000
0010
0100
1000
,
0100
0000
0001
1000
0100
0000
0010
0100
0001
0100
1000
0001
0100
0010
0001
0010
,
0100
0000
0001
0010
0100
0000
0001
0100
0010
0001
1000
0010
0001
0010
0100
0001
,
0010
0000
0100
0001
0100
0000
1000
0001
0100
1000
0100
0001
0010
1000
0010
0100
,
1000
0000
0001
0100
0010
0000
0100
0010
1000
0001
0010
0100
0001
0100
1000
0010
,
0100
0000
0010
1000
0010
0000
1000
0010
1000
0010
1000
0010
1000
0010
1000
0010
,
1000
0000
0100
1000
0100
0000
1000
0100
1000
0100
1000
0100
1000
0100
1000
0100
,
1000
0000
0010
0100
0010
0000
0100
0010
0100
0010
0100
0010
0100
0010
0100
0010
,
0100
0000
0001
0010
0001
0000
0010
0001
0010
0001
0010
0001
0010
0001
0010
0001
,
0010
0000
0100
0001
0100
0000
0001
0100
0001
0100
0001
0100
0001
0100
0001
0100
,
0001
0000
1000
0010
1000
0000
0010
1000
0010
1000
0010
1000
0010
1000
0010
1000
,
0010
0000
0001
0010
0001
0000
0010
0001
0010
0001
0010
0001
0010
0001
0010
0001
,
0010
0000
0100
0001
0100
0000
0001
0100
0001
0100
0001
0100
0001
0100
0001
0100
,
0010
1000
0010
0100
0001
0010
0001
0100
0010
1000
0100
0010
0100
1000
0001
0100
,
0010
1000
0010
0100
0001
0010
0100
0001
0100
0010
0001
1000
0010
0100
1000
0100
,
0010
1000
0001
0010
0001
1000
0010
0100
1000
0100
0001
1000
0100
0001
0100
0010
,
0001
1000
0010
0100
1000
0100
0010
1000
0001
0010
0100
0010
0001
1000
0100
1000
,
0010
0100
0001
0010
0100
0001
0100
0010
0001
1000
0010
0100
1000
0100
0010
1000
,
0001
0010
0100
0010
0001
1000
0010
0100
0001
0100
0010
1000
0100
0001
0100
0010
,
0001
1000
0010
0001
0010
0100
0001
0010
0100
0001
0100
0010
0001
1000
0010
0100
,
1000
0100
0010
1000
0001
0010
0100
1000
0010
0100
0001
0010
0100
1000
0100
0010
,
0001
0010
0100
1000
0100
0010
0001
0010
,
0100
0010
0001
0010
0100
0010
0001
0010
,
0100
1000
0010
0100
0001
0100
0010
0100
,
0001
0100
0010
0100
0001
0100
0010
0100
,
0010
1000
0100
0010
0001
1000
0010
0100
,
0001
0100
0010
1000
0001
0010
0100
1000
;
