#TITLE:BXY!;
#SUBTITLE:;
#ARTIST:10 side;
#TITLETRANSLIT:;
#SUBTITLETRANSLIT:;
#ARTISTTRANSLIT:;
#CREDIT:;
#BANNER:BXY.png;
#BACKGROUND:BXY-bg.png;
#LYRICSPATH:;
#CDTITLE:cdtitle.png;
#MUSIC:BXY.mp3;
#OFFSET:-0.525;
#SAMPLESTART:78.370;
#SAMPLELENGTH:12.000;
#SELECTABLE:YES;
#DISPLAYBPM:148.000;
#BPMS:0.000=147.960,128.000=147.800;
#STOPS:;
#BGCHANGES:;
// cache tags:
#FIRSTBEAT:16.000;
#LASTBEAT:255.000;
#SONGFILENAME:Songs/Japanese Collaboration Mix/BXY/BXY.sm;
#HASMUSIC:1;
#HASBANNER:1;
#MUSICLENGTH:105.320;
// end cache tags

//---------------dance-single - ----------------
#NOTES:
     dance-single:
     :
     Challenge:
     10:
     0.532,0.757,0.332,0.085,0.152,348.000,35.000,9.000,0.000,0.000:
0000
0000
0000
0000
,
0000
0000
0000
0000
,
0000
0000
0000
0000
,
0000
0000
0000
0000
,
2000
0100
0000
0100
,
3002
0010
0000
0010
,
0103
0010
0100
0010
,
0110
0000
0000
0000
,
1000
0100
0001
0000
1000
0001
1000
0000
,
0001
0100
1000
0000
0001
1000
0001
0000
,
0010
0100
1000
0000
0010
0100
0010
0000
,
0100
0001
0010
0000
0100
0010
0100
0000
,
1000
0010
0100
0000
0010
0100
0001
0000
,
0010
0100
1000
0000
0100
0010
0001
0000
,
1000
0100
0001
0000
0001
0100
1000
0000
,
0000
0101
0000
1010
,
0010
0100
0110
0000
0001
0100
0101
0000
,
1000
0100
1100
0000
1000
0001
1001
0000
,
0100
0010
0110
0000
1000
0010
1010
0000
,
0001
0010
0011
0000
0001
1000
1001
0000
,
0010
0100
0110
0000
1000
0100
1000
0000
,
0100
0010
0110
0000
0001
0010
0001
0000
,
1000
0001
1001
0000
1000
0100
0010
0000
,
0001
1000
1001
0000
0001
0010
0100
1000
,
0002
2000
0000
0000
0000
0000
0000
0000
,
0000
0000
0000
0000
,
0000
0000
0000
0000
,
0000
0000
0000
3003
,
0200
0020
0000
0000
0000
0000
0000
0000
,
0000
0000
0000
0000
,
0000
0000
0000
0000
,
0000
0000
0000
0330
,
1000
0100
1100
0100
1000
0100
1100
0000
,
0001
0100
0101
0100
0001
0100
0101
0000
,
0100
0010
0110
0100
0010
0100
0110
0000
,
1000
0010
1010
0010
1000
0010
1010
0000
,
0100
0010
0110
0010
0100
0010
0101
0000
,
0010
0100
0110
0100
0010
0100
1010
0000
,
1000
0100
0001
0100
1000
0100
0001
0100
,
1000
0100
1000
0100
1000
0010
1000
0010
1000
0001
1000
0001
1000
0001
1000
0001
,
0100
0010
1000
0010
0100
0001
0100
0010
,
0100
0010
1000
0010
1000
0001
0100
0010
,
0100
0001
0100
0001
0010
0100
1000
0010
,
1000
0100
1000
0100
0010
0100
0010
0100
,
1000
0100
0010
0001
0010
0100
0010
0100
,
1000
0100
1000
0001
0010
0100
0010
0001
,
1000
0001
1000
0010
0100
0010
0100
0001
,
2000
0000
0000
3000
,
1000
0000
0001
0000
1000
0100
1000
0010
1000
0100
1000
0000
0010
0000
0100
0000
,
0001
0000
1000
0000
0001
0010
0001
0100
0001
0010
0001
0000
0010
0000
0100
0000
,
1000
0000
0100
0000
1000
0010
1000
0100
1000
0010
1000
0000
0010
0000
0100
0000
,
0001
0000
0010
0000
0001
0100
0001
0010
0001
0100
0001
0000
1000
0000
0001
0000
,
0100
0000
0001
0000
0100
0010
0100
0001
0100
0010
0100
0000
0001
0000
1000
0000
,
0100
0000
1000
0000
0100
0010
0100
1000
0100
0010
0100
0000
0010
0000
0001
0000
,
1000
0000
0100
0000
1000
0001
0100
0001
1000
0010
1000
0000
0010
0000
0100
0000
,
0010
0000
1000
0000
0001
0010
0001
0100
0001
1000
0001
0000
1000
0000
0100
0000
,
1000
0000
1000
0000
1000
0011
0000
0000
,
0100
0000
0100
0000
0100
1010
0000
0000
,
0010
0000
0010
0000
0010
1100
0000
0000
,
0001
0000
0001
0000
0001
0110
0000
0000
,
0100
0000
0001
0000
0100
1001
0000
0000
,
1000
0000
0010
0000
1000
1001
0000
0000
,
0100
0000
0010
0000
0100
1001
0000
0000
,
0220
0000
0000
0330
;
