#TITLE:7 Years & 50 Days;
#SUBTITLE:;
#ARTIST:Groove Coverage;
#TITLETRANSLIT:;
#SUBTITLETRANSLIT:;
#ARTISTTRANSLIT:;
#CREDIT:;
#BANNER:7 Years & 50 Days-bn.jpg;
#BACKGROUND:7 Years & 50 Days-bg.jpg;
#LYRICSPATH:;
#CDTITLE:CDTitle.png;
#MUSIC:7 Years & 50 Days.ogg;
#OFFSET:-0.070;
#SAMPLESTART:33.997;
#SAMPLELENGTH:11.960;
#SELECTABLE:YES;
#BPMS:0.000=140.000,152.000=70.000,155.000=140.000,160.000=70.000,163.000=105.000,166.000=140.000;
#STOPS:152.000=0.857
,155.000=1.286
,160.000=0.857
;
#BGCHANGES:;
// cache tags:
#FIRSTBEAT:16.000;
#LASTBEAT:296.000;
#SONGFILENAME:Songs/lvsb tourney pack/7 Years & 50 Days/7 Years & 50 Days.sm;
#HASMUSIC:1;
#HASBANNER:1;
#MUSICLENGTH:105.000;
// end cache tags

//---------------dance-single - ----------------
#NOTES:
     dance-single:
     :
     Easy:
     1:
     0.144,0.245,0.057,0.000,0.000,100.000,6.000,0.000,0.000,0.000:
0000
0000
0000
0000
,
0000
0000
0000
0000
,
0000
0000
0000
0000
,
0000
0000
0000
0000
,
1000
0000
0000
0000
,
0001
0000
0000
0000
,
1001
0000
0000
0000
,
1001
0000
0000
0000
,
0010
0000
0000
0000
,
0100
0000
0000
0000
,
0110
0000
0000
0000
,
0110
0000
0000
0000
,
1000
0000
1000
0000
,
1000
0000
0000
0000
,
0001
0000
0000
0000
,
0001
0000
0000
0000
,
0010
0000
0010
0000
,
0010
0000
0000
0000
,
0100
0000
0000
0000
,
1000
0000
0000
0000
,
1001
0000
0000
0000
,
0001
0000
0000
0000
,
0010
0000
0010
0000
,
0010
0000
0000
0000
,
0100
0000
0000
0000
,
1000
0000
0000
0000
,
0001
0000
0000
0000
,
0100
0000
0100
0000
,
0100
0000
0000
0000
,
0010
0000
0000
0000
,
1000
0000
0000
0000
,
0001
0000
0010
0000
,
0010
0000
0000
0000
,
0100
0000
0000
0000
,
1000
0000
0000
0000
,
0010
0000
0010
0000
,
0010
0000
0000
0000
,
0100
0000
0100
0000
,
0100
0001
0001
0001
,
1000
0000
1000
0000
,
1000
0010
0010
0010
,
0000
1000
0000
0000
0001
0000
0000
0000
,
0001
0000
0001
0000
,
0000
0000
0100
0000
,
0100
0000
0100
0000
,
0000
0000
0010
0000
,
0010
0000
0010
0000
,
0000
0000
1000
0000
,
1000
0000
1000
0000
,
0000
0000
1001
0000
,
0000
0000
0010
0010
,
0000
0000
0001
0001
,
0000
0000
1000
1000
,
0000
1000
1000
0000
,
0000
0000
0010
0010
,
0000
0000
0100
0100
,
0000
0000
0001
0001
,
0000
0001
0001
0000
,
0000
0000
0010
0000
,
0010
0000
0010
0000
,
0000
0000
0001
0000
,
0000
0000
1000
0000
,
0000
0000
0010
0000
,
0000
0000
0100
0000
,
0000
0000
0001
0000
,
0001
0000
0001
0000
,
0000
1000
1000
0000
,
0000
0000
0001
0000
,
0000
0000
0010
0000
,
0000
0000
0100
0000
,
0000
0000
1000
0000
,
0000
0000
0001
0000
,
0000
0000
0010
0000
,
0000
0000
0100
0000
;

//---------------dance-single - ----------------
#NOTES:
     dance-single:
     :
     Medium:
     4:
     0.297,0.351,0.133,0.076,0.000,196.000,14.000,8.000,0.000,0.000:
0000
0000
0000
0000
,
0000
0000
0000
0000
,
0000
0000
0000
0000
,
0000
0000
0000
0000
,
1000
0100
1000
0000
,
0001
0000
0000
0010
0000
0000
0000
0000
,
0001
0100
0001
0100
,
0001
0000
0000
0000
,
1000
0100
1000
0010
,
1000
0001
0000
0000
,
1000
0010
0100
0001
,
1000
0000
0000
0000
,
0001
0010
0010
0001
,
1000
0000
0000
0100
0000
0000
0000
0000
,
0010
0001
0100
0001
,
0010
0000
0000
0000
,
0100
1000
0001
0000
,
0100
0001
0000
0001
0000
0000
0000
0000
,
0010
0100
0010
0001
,
1000
0000
0000
0000
,
0001
0100
0001
0010
,
0100
1000
1000
0000
,
0010
1000
0010
0100
,
0001
0000
0000
1000
0000
0000
0000
0000
,
0001
0010
0001
0001
,
0100
0010
1000
0000
,
0001
0010
0001
0100
,
0020
0000
0000
0030
,
1000
0100
1000
0010
,
0100
0010
1000
0000
,
0001
0010
0001
1000
,
0100
0000
0000
0010
0000
0000
0000
0000
,
0001
0100
0001
1000
,
0010
1000
0100
0000
,
0010
0001
0100
0001
,
0020
0000
0000
0030
,
1001
0000
0000
0000
,
1000
0000
0001
0000
,
0010
0100
1000
0010
,
0100
0000
0001
0000
,
0010
0100
1000
0100
,
0000
0110
0000
0000
0100
0000
1000
0000
,
0010
0000
1000
0000
0001
0000
0000
0110
,
0000
0000
0001
1000
,
0001
0010
0002
0000
,
0000
1003
0001
0010
,
0100
0000
1000
0010
,
0100
0000
0001
1000
,
0001
0010
0110
0000
,
1001
1001
0110
0000
,
0000
0000
0010
1000
,
0001
0100
0001
1000
,
0100
0000
1000
0100
,
0010
0000
0000
0000
1001
0000
0000
1001
,
0000
0000
0010
0001
,
0100
0001
0010
0100
,
1000
0000
0010
1000
,
0100
0000
0220
0000
,
0300
0130
0010
0001
,
0100
0000
0010
1000
,
0100
0000
1000
0001
,
1000
0000
0000
0000
1001
0000
0000
1001
,
0000
0000
0010
1000
,
0100
0000
1000
0010
,
0100
0000
0001
0010
,
0100
1000
2002
0000
,
3000
1003
1001
0000
,
0010
0000
1000
0000
,
0100
0000
0010
0000
,
0001
0000
0100
0000
,
0001
1000
0001
0000
,
0010
0000
0100
0000
,
1000
0000
0010
0000
,
1000
0000
0002
0003
;

//---------------dance-single - ----------------
#NOTES:
     dance-single:
     :
     Hard:
     8:
     0.588,0.599,0.181,0.200,0.214,392.000,19.000,21.000,0.000,0.000:
0000
0000
0000
0000
,
0000
0000
0000
0000
,
0000
0000
0000
0000
,
0000
0000
0000
0000
,
2000
0000
0100
0000
3100
0000
0000
0100
,
1000
0100
0000
1001
0000
0000
0000
0010
,
0001
0100
0010
1000
,
0001
0010
0100
1000
0100
0010
0001
0000
,
1000
0001
0100
0010
,
1000
0000
0001
0020
0000
0000
0030
0100
,
0010
0000
0001
0000
0100
0010
0100
0000
,
0001
0010
0001
0000
1000
0100
1000
0001
,
0010
0000
0010
0100
0010
0000
0011
0000
,
0001
0100
0000
2002
0000
3003
0000
0001
,
1000
0000
0010
1000
0100
0000
0110
0000
,
0100
1000
0010
1000
0100
1000
0010
0000
,
0100
0000
0001
0010
0002
0000
0003
1000
,
0100
1000
0000
1001
0000
0000
0000
0001
,
0010
0000
0001
0100
0001
0000
1000
0000
,
0200
0000
0000
0000
0000
0300
0010
0100
,
1000
0000
0100
1000
0100
0000
0010
0000
0100
0000
1000
0000
0010
0000
0000
0000
,
0100
0000
0001
0100
0001
0000
0100
0000
0010
0000
0100
0000
0001
0000
0000
0000
,
1000
0000
0001
1000
0001
0000
0010
0000
0001
0000
0000
0000
0100
0000
0000
0000
,
0001
0000
1000
0000
0000
0000
0110
0000
0000
0000
0100
0000
0001
0100
0000
0000
,
0010
0000
0100
0010
0100
0000
0010
0000
0100
0000
0000
0000
0001
0000
0000
0000
,
1000
0000
0100
1000
0100
0000
1000
0000
0100
0000
0000
0000
0010
0000
0000
0000
,
0100
0000
1000
0100
1000
0000
0100
0000
0010
0000
0000
0000
0001
0000
0000
0000
,
0200
0001
0301
0102
,
1003
0001
0010
0001
1000
0000
0100
1000
,
0100
0000
0010
0000
1001
0000
0100
0001
,
1000
0010
0100
0010
1000
0000
0001
0000
,
0010
0001
0000
1100
0000
0000
0001
1000
,
0001
0010
0001
0010
0002
0000
1003
0001
,
0100
0001
0100
0001
0200
0000
0310
0100
,
0001
0000
0010
0100
1000
0000
0010
0000
,
2002
0000
3000
1003
,
1001
0000
0000
0000
,
1000
0000
0000
0100
0000
0000
0001
0000
0100
0000
0000
1000
0000
0000
0010
0000
,
0100
0000
0000
0000
0000
0000
0000
0000
0001
0000
0000
0100
0000
0000
0010
0000
1000
0000
0000
0100
0000
0000
0010
0000
0001
0000
0000
0000
0000
0000
0000
0000
,
1000
0000
0000
0010
0000
0000
0100
0000
0010
0000
0000
0001
0000
0000
0010
0000
,
1000
0000
0000
0000
0000
0000
0000
0000
0001
0000
0000
0010
0000
0000
0001
0000
1000
0000
0000
0100
0000
0000
1000
0000
0001
0000
0000
0000
0000
0000
0000
0000
,
0000
0000
0100
0000
0000
0010
0000
0000
0100
0000
0000
0100
0001
0000
0100
0000
,
0010
0000
0000
0100
0010
0000
0100
0000
0001
0000
0000
1000
0001
0000
1000
0000
,
0100
0000
0000
0010
0001
0000
1000
0000
0100
0000
0000
1000
0100
0000
0010
0000
,
0001
0000
0000
1000
0010
0000
1000
0000
0001
0000
0000
0100
0001
0000
1000
0000
,
0100
0010
0100
0010
0100
0000
1000
0010
,
2000
0000
3000
0001
0100
0001
0000
1001
,
0000
0000
0000
0010
1000
0001
1000
0001
,
0100
0001
0010
0001
2000
0000
0100
0000
,
3002
0010
2000
0000
,
3003
0000
0000
0000
1001
0000
0000
0000
1000
0000
0000
0100
1000
0000
0100
0000
,
0010
0000
0001
0010
0001
0000
1000
0000
,
0010
0000
0100
0000
0010
0000
1000
0000
0001
0000
0000
0001
1000
0000
0001
0000
,
1000
0000
0100
0000
0010
0001
0000
0101
,
0000
0000
0000
0000
0001
0000
1000
0000
0001
0000
0000
0010
0100
0000
0000
0000
,
1000
0000
0010
0000
1010
0000
0000
0000
0100
0000
0000
0001
0010
0000
0000
0000
,
0100
0000
0010
0000
0110
0000
0000
0000
0001
0000
0000
1000
0010
0000
0000
0000
,
0100
0001
1001
0000
2000
0000
0010
0000
,
3100
0000
1000
0000
0001
0010
0001
0001
,
0010
0001
0010
0000
0100
1000
0010
0010
,
1000
0100
0010
0000
0100
0000
1000
0000
,
0001
0000
0010
0001
0100
0001
0000
2001
,
0000
0000
0010
0000
3010
1000
0010
0100
,
0001
0010
0001
0000
0100
0001
0010
0100
,
1000
0010
1000
0000
0002
0000
0100
0000
,
1000
0010
0200
0000
,
0303
0000
0000
0000
0101
0000
0000
0000
0001
0000
0000
0010
0000
0000
0001
0000
,
0010
0000
0000
0100
0000
0000
1000
0000
0100
0000
0000
1000
0000
0000
0010
0000
,
0100
0000
0000
0010
0000
0000
1000
0000
0001
0000
0000
0010
0000
0000
0001
0000
,
1000
0000
0000
0010
0000
0000
1000
0000
0001
0000
0000
0010
0000
0000
0100
0000
,
1000
0000
0000
0000
0001
0000
0000
0000
0100
0000
0000
0100
0000
0000
0001
0000
,
0100
0000
0000
0100
0000
0000
0010
0000
0100
0000
0000
0010
0000
0000
1000
0000
,
0010
0000
0000
0010
0000
0000
1000
0000
0001
0000
0000
0010
0000
0000
0001
0000
,
1000
0000
0000
0100
0000
0000
1000
0000
0002
0000
0000
0000
0000
0000
0000
0000
,
0003
0000
0000
0000
;
