#TITLE:Ω;
#SUBTITLE:;
#ARTIST:Max Dragon;
#TITLETRANSLIT:OMEGA;
#SUBTITLETRANSLIT:;
#ARTISTTRANSLIT:;
#CREDIT:Aperson;
#BANNER:../Zeppelin_bn.png;
#BACKGROUND:../bg_Zeppelin.png;
#LYRICSPATH:;
#CDTITLE:../cdtitle_ZAiA.png;
#MUSIC:Max Dragon - Omega.ogg;
#OFFSET:1.324;
#SAMPLESTART:117.540;
#SAMPLELENGTH:22.050;
#SELECTABLE:YES;
#DISPLAYBPM:150.000:175.000;
#BPMS:0.000=175.000,96.000=150.000,100.000=175.000,192.000=150.000,196.000=175.000,252.000=180.000,348.000=175.000;
#STOPS:;
#BGCHANGES:;
// cache tags:
#FIRSTBEAT:4.000;
#LASTBEAT:444.000;
#SONGFILENAME:Songs/Cirque du Zeppelin/Omega - [Zaia]/Omega.sm;
#HASMUSIC:1;
#HASBANNER:1;
#MUSICLENGTH:150.961;
// end cache tags

//---------------dance-single - 7-24-8/16----------------
#NOTES:
     dance-single:
     7-24-8/16:
     Challenge:
     13:
     1.000,1.000,0.046,0.629,1.000,1144.000,7.000,95.000,0.000,0.000:
0000
0000
0000
0000
,
2002
0000
0000
3003
,
0000
0000
0000
0000
,
2002
0000
0000
3003
,
0000
0000
0000
0000
,
2002
0000
0000
3003
,
0000
0000
0000
0000
,
2002
0000
0000
3003
,
0000
0000
0000
0000
,
1000
0010
0100
0010
1000
0000
0000
0000
0001
0010
0100
0010
0001
0000
0000
0000
,
1000
0010
1000
0000
0001
0010
0001
0000
0000
0000
0000
0000
0100
0010
1000
0000
,
0100
0010
0001
0000
1000
0001
1000
0000
0010
0100
0001
1000
0100
0000
0010
0000
,
0000
0000
0000
0000
,
0001
1000
0100
1000
0001
0000
0000
0000
0100
0010
1000
0010
0100
0000
0000
0000
,
0001
0010
0100
0000
1000
0010
0100
0000
0000
0000
0000
0000
0001
1000
0010
0000
,
0100
0001
1000
0000
0100
0010
0100
0000
1000
0001
0010
0001
0100
0000
0010
0000
,
2000
0000
3002
0000
0000
0000
0023
0000
0000
0000
0000
0030
0000
0000
0000
0000
,
0100
1000
0001
1000
0001
0010
0001
0100
0010
1000
0001
0010
0100
1000
0001
0100
,
0001
1000
0100
1000
0010
1000
0001
0010
0001
0100
0010
1000
0001
0100
0001
0100
,
0010
1000
0100
1000
0001
0100
0001
0010
0100
1000
0001
0100
0010
0100
0001
1000
,
0100
0010
0001
0100
0001
1000
0010
1000
0100
1000
0010
0100
0001
1000
0001
0010
,
0100
1000
0001
1000
0010
0100
0001
0010
0100
1000
0001
0100
0010
1000
0001
0010
,
0001
1000
0010
1000
0100
1000
0001
0100
0001
0010
0100
1000
0001
0010
0001
0010
,
0100
1000
0010
1000
0001
0010
0001
0100
0010
1000
0001
0010
0100
0010
0001
1000
,
0020
0030
0000
0000
0200
0300
0000
0000
0002
0003
0000
0000
0200
0300
0000
0000
0002
0003
0000
0000
0000
0000
0000
0000
0020
0030
0000
0000
0200
0300
0000
0000
2000
3000
0000
0000
0020
0030
0000
0000
2000
3000
0000
0000
0020
0030
0000
0000
0200
0300
0000
0000
0000
0000
0000
0000
0000
0000
0000
0000
0000
0000
0000
0000
,
0001
1000
0010
1000
0001
0010
0001
1000
0100
0010
0100
1000
0001
1000
0010
0100
,
0001
0010
0100
0010
0001
1000
0001
0100
0010
0100
0001
1000
0100
1000
0001
0100
,
0001
0010
0100
1000
0010
0100
0010
1000
0001
1000
0100
1000
0001
0010
0001
1000
,
0001
0100
0010
0100
0001
1000
0001
0010
0100
1000
0001
1000
0010
0100
0001
0100
,
0010
1000
0100
1000
0001
0010
0001
0100
0001
1000
0100
1000
0001
0010
0100
1000
,
0001
1000
0010
0100
0010
1000
0001
1000
0100
1000
0001
0100
0010
0100
0001
1000
,
0010
1000
0100
1000
0001
0100
0001
0010
0001
1000
0001
0010
0100
1000
0001
0100
,
0010
0100
0001
1000
0100
1000
0001
0100
0010
0100
0001
1000
0001
0010
0001
1000
,
0010
0100
0001
0100
0010
1000
0100
1000
0001
0010
0001
1000
0001
0100
0010
0100
,
0001
1000
0001
0010
0100
1000
0001
1000
0010
0100
0001
0010
0001
1000
0001
1000
,
0010
0100
0010
1000
0010
0100
0001
0010
0001
1000
0100
1000
0001
1000
0010
0100
,
0010
1000
0001
1000
0100
0010
0001
1000
0001
0100
0010
1000
0100
1000
0001
1000
,
0100
0010
0001
0010
0100
1000
0010
1000
0001
0100
0001
1000
0001
0010
0100
0010
,
0001
1000
0001
0100
0010
1000
0001
1000
0100
0010
0001
0100
0001
1000
0001
1000
,
0100
0010
0100
1000
0100
0010
0001
0100
0001
1000
0010
1000
0001
1000
0100
0010
,
0100
1000
0010
1000
0001
0100
0001
0010
0100
1000
0001
0100
0010
1000
0100
1000
,
0001
0010
0001
0100
0001
1000
0010
0100
0010
1000
0100
1000
0001
0100
0001
0010
,
0100
1000
0010
0100
0001
0010
0100
1000
0001
1000
0001
0100
0010
1000
0010
0100
,
0001
1000
0100
0010
0001
0100
0010
1000
0001
0100
0001
0010
0001
1000
0100
1000
,
0001
0010
0100
1000
0001
1000
0010
0100
0001
1000
0010
1000
0001
0100
0010
0100
,
0001
1000
0010
1000
0100
1000
0001
0010
0100
0010
0001
0100
0001
1000
0100
1000
,
0010
0100
0001
0010
0100
1000
0010
0100
0001
1000
0001
1000
0100
0010
0001
0010
,
0100
1000
0001
0100
0010
1000
0100
0010
0001
1000
0100
1000
0010
1000
0001
0100
,
0002
0003
0000
0000
2000
3000
0000
0000
0000
0000
0000
0000
0002
0003
0000
0000
0200
0300
0000
0000
0000
0000
0000
0000
0020
0030
0000
0000
2000
3000
0000
0000
0000
0000
0000
0000
0002
0003
0000
0000
0020
0030
0000
0000
0000
0000
0000
0000
0000
0000
0000
0000
0000
0000
0000
0000
0100
0000
0000
0000
0000
0000
0000
0000
,
1000
0001
0010
0001
1000
0100
1000
0010
0100
0001
0010
0100
1000
0010
0100
0010
,
0100
0001
1000
0010
1000
0100
1000
0001
0010
0001
1000
0010
1000
0100
0010
0100
,
0010
0001
1000
0100
1000
0010
0100
0001
0010
0001
0010
0100
1000
0010
0100
0010
,
1000
0100
0010
0001
0100
0001
1000
0010
1000
0100
0010
0100
1000
0010
1000
0010
,
0100
0001
0010
0001
1000
0010
1000
0100
0010
0001
0100
0010
1000
0100
0010
0100
,
0010
0001
1000
0100
1000
0010
1000
0001
0100
0001
1000
0100
1000
0010
0100
0010
,
0100
0001
1000
0010
1000
0100
0010
0001
0100
0001
0100
0010
1000
0100
0010
0100
,
1000
0010
0100
0001
0010
0001
1000
0100
1000
0010
0100
0010
1000
0001
1000
0010
,
0100
0000
0000
0000
,
0000
0000
0000
2002
3003
0000
0220
0330
,
2002
3003
0000
0000
0000
0000
0000
0000
,
0000
0000
0000
0000
,
0000
0000
0000
0000
,
0000
0000
0000
0000
,
1000
0100
0010
0100
1000
0010
0100
0001
,
0010
0100
1000
0001
0100
0010
1000
0001
,
0000
0010
0001
0100
0010
1000
0100
0010
,
0100
1000
0001
0100
0010
1000
0100
1000
,
0001
0010
0001
0100
0010
0100
0001
0010
,
0100
1000
0010
0100
0001
1000
0000
0000
,
0200
0320
0032
0203
0302
2003
3020
2030
,
3002
0023
0230
2300
3020
0230
0302
2003
,
3000
0200
0320
0230
2300
3020
0230
0320
,
2030
3002
0023
0230
2300
3200
0320
0032
,
0203
0302
2003
3020
2030
3200
0320
0230
,
2300
3020
2030
3002
0203
0320
0030
0000
,
1000
0100
0010
0001
0000
0000
0000
0000
,
1000
0000
0000
0010
0100
0010
1000
0000
,
0000
0001
0010
0000
0100
0000
0000
0000
,
1000
0001
0100
0000
0000
0000
0000
0000
,
0010
0000
0000
1000
0001
1000
0100
0000
,
0010
0001
1000
0000
0010
0000
0000
0000
,
0100
0001
1000
0000
0000
0000
0000
0000
,
0001
0000
0000
1000
0100
1000
0001
0000
,
0000
0100
0010
0000
1000
0000
0000
0000
,
0001
0010
0100
0000
0000
0000
0000
0000
,
1000
0000
0000
0010
0100
0001
1000
0000
,
0000
0100
0010
0000
0001
1000
0000
0000
,
0001
1000
0010
1000
0100
1000
0001
0010
0001
0100
0001
1000
0100
1000
0010
1000
,
0001
0100
0010
1000
0100
1000
0001
0100
0010
1000
0001
0100
0001
0010
0100
1000
,
0001
0010
0001
0100
0010
1000
0100
1000
0001
0100
0001
0010
0001
1000
0100
0010
,
0100
1000
0010
0100
0010
1000
0100
1000
0001
0010
0001
1000
0001
0100
0010
0100
,
0001
1000
0100
1000
0010
1000
0001
0100
0001
0010
0001
1000
0010
1000
0100
1000
,
0001
0010
0001
0100
0010
1000
0100
0010
0100
1000
0001
0010
0001
0100
0010
1000
,
0001
0100
0001
0010
0100
1000
0010
1000
0001
0010
0001
0100
0001
1000
0010
0100
,
0001
0010
0100
1000
0010
1000
0001
0100
0001
0010
0001
1000
0010
1000
0100
1000
,
0001
0100
0010
1000
0001
1000
0010
1000
0001
0010
0100
1000
0001
0010
0001
1000
,
0001
0100
0010
0100
0001
1000
0010
0100
0001
1000
0100
0010
0100
1000
0001
0010
,
0001
1000
0010
1000
0001
0100
0010
0100
0001
1000
0100
1000
0001
0010
0100
1000
,
0001
0100
0001
1000
0010
0100
0001
1000
0001
0010
0100
0010
0001
1000
0100
1000
,
0001
1000
0010
0100
0001
1000
0001
0100
0001
1000
0100
0010
0001
1000
0100
1000
,
0001
1000
0010
0100
0010
1000
0001
0100
0010
1000
0001
0010
0100
0010
0001
1000
,
0100
1000
0001
0100
0001
1000
0010
0100
0010
1000
0001
0010
0001
1000
0100
0010
,
0001
1000
0010
1000
0001
0100
0010
1000
0001
1000
0100
0010
0100
1000
0001
0010
,
0001
1000
0010
0000
0000
0000
0100
0001
1000
0000
0000
0000
,
0100
0010
0001
0000
0000
0000
0100
0010
1000
0000
0000
0000
,
0010
0100
0001
0000
0000
0000
0010
0100
1000
0000
0000
0000
,
0010
1000
0001
0000
0000
0000
0100
0001
1000
0000
0000
0000
,
0100
0010
0001
0000
0000
0000
1000
0010
0100
0000
0000
0000
,
0010
1000
0001
0000
0000
0000
0100
0001
0010
0000
0000
0000
,
0200
0300
0000
0000
2000
3000
0000
0000
0002
0003
0000
0000
0000
0000
0000
0000
0000
0000
0000
0000
0000
0000
0000
0000
0200
0300
0000
0000
0020
0030
0000
0000
0200
0300
0000
0000
0000
0000
0000
0000
0000
0000
0000
0000
0000
0000
0000
0000
,
0002
0003
0000
0000
0200
0300
0000
0000
0020
0030
0000
0000
2000
3000
0000
0000
0200
0300
0000
0000
2000
3000
0000
0000
0002
0000
0000
0000
0000
0000
0000
0000
0000
0000
0000
0000
0000
0000
0000
0000
0000
0000
0000
0000
0000
0000
0000
0000
,
0003
0000
0000
0000
;
