#TITLE:NO WAY OUT!;
#SUBTITLE:;
#ARTIST:PSYCHIC LOVER;
#TITLETRANSLIT:;
#SUBTITLETRANSLIT:;
#ARTISTTRANSLIT:;
#CREDIT:;
#BANNER:banner.png;
#BACKGROUND:bg.png;
#LYRICSPATH:;
#CDTITLE:cdtitle.png;
#MUSIC:NoWayOut.mp3;
#OFFSET:0.440;
#SAMPLESTART:49.460;
#SAMPLELENGTH:15.500;
#SELECTABLE:YES;
#BPMS:0.000=250.000;
#STOPS:;
#BGCHANGES:24.000=-random-=1.000=0=0=1,
40.000=-random-=1.000=0=0=1,
56.000=-random-=1.000=0=0=1,
72.000=-random-=1.000=0=0=1,
88.000=-random-=1.000=0=0=1,
104.000=-random-=1.000=0=0=1,
120.000=-random-=1.000=0=0=1,
136.000=-random-=1.000=0=0=1,
152.000=-random-=1.000=0=0=1,
168.000=-random-=1.000=0=0=1,
184.000=-random-=1.000=0=0=1,
200.000=-random-=1.000=0=0=1,
208.000=-random-=1.000=0=0=1,
224.000=-random-=1.000=0=0=1,
240.000=-random-=1.000=0=0=1,
256.000=-random-=1.000=0=0=1,
272.000=-random-=1.000=0=0=1,
288.000=-random-=1.000=0=0=1,
304.000=-random-=1.000=0=0=1,
320.000=-random-=1.000=0=0=1,
336.000=-random-=1.000=0=0=1,
352.000=-random-=1.000=0=0=1,
368.000=-random-=1.000=0=0=1,
384.000=-random-=1.000=0=0=1,
400.000=bg.png=1.000=0=0=1,
99999=-nosongbg-=1.000=0=0=0 // don't automatically add -songbackground-
;
// cache tags:
#FIRSTBEAT:24.000;
#LASTBEAT:432.021;
#SONGFILENAME:Songs/toune/NoWayOut/NoWayOut.sm;
#HASMUSIC:1;
#HASBANNER:1;
#MUSICLENGTH:106.274;
// end cache tags

//---------------dance-single - ----------------
#NOTES:
     dance-single:
     :
     Easy:
     4:
     0.359,0.508,0.198,0.320,0.000,212.000,21.000,34.000,0.000,0.000:
0000
0000
0000
0000
,
0000
0000
0000
0000
,
0000
0000
0000
0000
,
0000
0000
0000
0000
,
0000
0000
0000
0000
,
0000
0000
0000
0000
,
1000
0000
0100
0000
,
0001
0000
0100
0000
,
0020
0000
0000
0000
,
0000
0000
0030
0000
,
1000
0000
0010
0000
,
0001
0000
0010
0000
,
0200
0000
0300
1000
,
2000
0000
3000
0010
,
0001
0000
0100
0000
,
0010
0000
1000
0000
,
0200
0000
0300
0010
,
0020
0030
0200
0310
,
0001
0010
0100
0000
,
1000
0100
1000
0000
,
0001
0010
0001
0000
,
1000
0100
1000
0000
,
0001
0100
1000
0000
,
1000
0100
0001
0000
,
1000
0010
0001
0000
,
0001
0010
1000
0000
,
0001
0010
0100
0000
,
1000
0100
0010
0000
,
0001
1000
0010
0000
,
1000
0001
0010
0000
,
1000
0000
1000
0000
,
0001
0000
0001
0000
,
0020
0000
0130
0000
,
1100
0000
0101
0000
,
1000
0100
1000
0000
,
0010
0001
0010
0000
,
0100
1000
0100
0000
,
0001
0010
0001
0000
,
0010
1000
0100
0000
,
0001
0100
1000
0000
,
0001
0010
1000
0000
,
0010
0001
0100
0000
,
0001
0000
0001
0010
,
1000
0000
1000
0100
,
0001
0000
0010
0001
,
0100
0000
0010
1000
,
0100
0000
0010
0001
,
1000
0000
1000
0010
,
0100
0000
0001
0010
,
0100
0000
1000
0001
,
0020
0000
0000
0000
,
0000
0000
0030
0000
,
0010
1000
0100
0001
,
0100
0000
0010
0000
,
2002
0000
0000
0000
,
0000
0000
3003
0010
,
0001
0100
0010
1000
,
0001
0000
0100
0000
,
2000
0000
3000
0001
,
0002
0000
0003
0010
,
1000
0100
0010
0001
,
1000
0000
0100
0000
,
0020
0000
0031
0000
,
0200
0000
1300
0000
,
0020
0000
0030
0000
,
0200
0000
0300
0000
,
0020
0000
1000
0000
,
0001
0000
0030
1000
,
0001
0010
1000
0001
,
0100
0000
0010
0000
,
0200
0000
0000
0000
,
0000
0000
0300
0010
,
0001
0010
0100
1000
,
0100
0000
0010
0000
,
0200
0000
0300
0001
,
0020
0000
0030
1000
,
0001
0010
0100
0010
,
1000
0000
0100
0000
,
1000
0100
0010
0100
,
0001
0000
1000
0000
,
0020
0000
0030
0000
,
0200
0000
0300
0000
,
0220
0000
0000
0000
,
0000
0000
0330
0000
,
1000
0001
0001
0000
,
0010
0100
0100
0000
,
0010
1000
0001
0000
,
0100
0001
1000
0000
,
0011
0000
0110
0000
,
1100
0000
1001
0000
,
0220
0000
0000
0000
,
0000
0000
0330
0010
,
1010
0000
1001
0000
,
0101
0000
0110
0000
,
2002
0000
0000
0000
,
0000
0000
3003
0000
,
1100
0000
0110
0000
,
0101
0000
1001
0000
,
2200
0000
3300
0000
,
0022
0000
0033
0000
,
2002
0000
0000
0000
,
0000
0000
0000
0000
,
0000
0000
0000
0000
,
0000
0000
0000
0000
,
0000
0000
0000
0000
,
0000
0000
0000
0000
,
0000
0000
0000
0000
,
0000
0000
0000
0000
,
3003
0000
0000
0000
;

//---------------dance-single - ----------------
#NOTES:
     dance-single:
     :
     Beginner:
     2:
     0.192,0.508,0.113,0.301,0.000,99.000,12.000,32.000,0.000,0.000:
0000
0000
0000
0000
,
0000
0000
0000
0000
,
0000
0000
0000
0000
,
0000
0000
0000
0000
,
0000
0000
0000
0000
,
0000
0000
0000
0000
,
0010
0000
0000
0000
,
0100
0000
0000
0000
,
2002
0000
0000
0000
,
0000
0000
3003
0000
,
0010
0000
0000
0000
,
0100
0000
0000
0000
,
0002
0000
0003
0000
,
2000
0000
3000
0000
,
1000
0000
0000
0000
,
0001
0000
0000
0000
,
0020
0000
0030
0000
,
0200
0000
0300
0000
,
0100
0000
0000
0000
,
0100
0000
0000
0000
,
0010
0000
0000
0000
,
0010
0000
0000
0000
,
0100
0000
0000
0000
,
0100
0000
0000
0000
,
1000
0000
0000
0000
,
0001
0000
0000
0000
,
1000
0000
0000
0000
,
0001
0000
0000
0000
,
0010
0000
0000
0000
,
0100
0000
0000
0000
,
1000
0000
0000
0000
,
0001
0000
0000
0000
,
1001
0000
0000
0000
,
0000
0000
0000
0000
,
0010
0000
0000
0000
,
0010
0000
0000
0000
,
0100
0000
0000
0000
,
0100
0000
0000
0000
,
1000
0000
0000
0000
,
0001
0000
0000
0000
,
0010
0000
0000
0000
,
0100
0000
0000
0000
,
1000
0000
0000
0000
,
1000
0000
0000
0000
,
0001
0000
0000
0000
,
0001
0000
0000
0000
,
0010
0000
0000
0000
,
0100
0000
0000
0000
,
1000
0000
0001
0000
,
0010
0000
0100
0000
,
1001
0000
0000
0000
,
0000
0000
0000
0000
,
0010
0000
0000
0000
,
0100
0000
0000
0000
,
2002
0000
0000
0000
,
0000
0000
3003
0000
,
1000
0000
0000
0000
,
0001
0000
0000
0000
,
2000
0000
3000
0000
,
0002
0000
0003
0000
,
0010
0000
0000
0000
,
0100
0000
0000
0000
,
1000
0000
0000
0000
,
0001
0000
0000
0000
,
0020
0000
0030
0000
,
0200
0000
0300
0000
,
2002
0000
0000
0000
,
0000
0000
3003
0000
,
1000
0000
0000
0000
,
0001
0000
0000
0000
,
2002
0000
0000
0000
,
0000
0000
3003
0000
,
0001
0000
0000
0000
,
1000
0000
0000
0000
,
0020
0000
0030
0000
,
0200
0000
0300
0000
,
1000
0000
0000
0000
,
0001
0000
0000
0000
,
0100
0000
0000
0000
,
0010
0000
0000
0000
,
2000
0000
3000
0000
,
0002
0000
0003
0000
,
0220
0000
0000
0000
,
0000
0000
0330
0000
,
1000
0000
0001
0000
,
0010
0000
0100
0000
,
1000
0000
0001
0000
,
0100
0000
1001
0000
,
0010
0000
1000
0000
,
0001
0000
0100
0000
,
2002
0000
0000
0000
,
0000
0000
3003
0000
,
0010
0000
1000
0000
,
0001
0000
0100
0000
,
0020
0000
0030
0000
,
0200
0000
0300
0000
,
0001
0000
0100
0000
,
0010
0000
1000
0000
,
2002
0000
3003
0000
,
0220
0000
0330
0000
,
2002
0000
0000
0000
,
0000
0000
0000
0000
,
0000
0000
0000
0000
,
0000
0000
0000
0000
,
0000
0000
0000
0000
,
0000
0000
0000
0000
,
0000
0000
0000
0000
,
0000
0000
0000
0000
,
3003
0000
0000
0000
;

//---------------dance-single - ----------------
#NOTES:
     dance-single:
     :
     Medium:
     7:
     0.480,0.661,0.216,0.329,0.000,299.000,23.000,35.000,0.000,0.000:
0000
0000
0000
0000
,
0000
0000
0000
0000
,
0000
0000
0000
0000
,
0000
0000
0000
0000
,
0000
0000
0000
0000
,
0000
0000
0000
0000
,
1000
1000
0100
0010
,
0001
0100
0010
1000
,
0002
0000
0010
0000
,
0010
0000
0010
1003
,
1000
0001
0010
0100
,
1000
0001
0100
0010
,
2000
0000
0100
0000
,
0100
0000
3100
0001
,
0001
0010
0100
1000
,
0010
0100
0001
1000
,
2200
0000
3300
0000
,
0022
0000
0033
0000
,
0010
0010
0001
0100
,
1000
0010
0100
0000
,
0001
0001
0010
0100
,
1000
0010
0100
0000
,
1000
0100
0001
1000
,
0010
0001
0001
0000
,
0001
0100
1000
0001
,
0010
1000
1000
0000
,
1000
1000
0001
0100
,
0010
1000
0001
0000
,
0100
0100
0001
0010
,
0100
1000
0001
1000
,
0200
0000
0010
0000
,
0010
0000
0310
0000
,
2002
0000
0000
3003
,
0010
0010
0010
0000
,
1000
0001
0100
0010
,
1000
0100
0010
0001
,
0100
0010
1000
0100
,
0100
0010
0010
0000
,
0001
0001
1000
0010
,
0100
0001
0010
0100
,
1000
0001
0100
0010
,
1000
1000
0001
0000
,
1000
0100
0010
0001
,
0011
0100
0010
1000
,
0100
0010
0001
0100
,
0101
0010
1000
0100
,
0011
0000
1100
0000
,
0101
0000
0110
0000
,
1001
0000
1100
0000
,
0101
0000
0110
0000
,
2002
0000
0000
0000
,
0000
0000
0000
3003
,
1000
1000
0010
0100
,
0001
0010
0100
1000
,
0002
0000
0010
0000
,
0010
0003
1000
1000
,
0100
0010
0001
0100
,
0010
1000
0100
0010
,
0002
0000
0103
0100
,
0010
1000
0010
0001
,
1000
0100
0010
0001
,
0100
0010
1000
0100
,
0020
0000
0100
0000
,
0100
0000
0031
1000
,
0002
0100
0000
0103
,
2000
0010
0000
3001
,
0012
0000
0000
0100
0000
0000
1003
0000
,
2000
0000
0000
0010
0000
0000
3001
0000
,
1000
0001
0010
0100
,
1000
0001
0100
0010
,
2000
0000
0001
0000
,
0001
0000
3001
0010
,
0100
1000
0001
0010
,
0100
1000
0001
0100
,
0020
0000
0100
0000
,
0100
0000
0130
0010
,
0001
0100
0010
1000
,
0100
0010
0001
0100
,
0002
0000
0100
0000
,
0010
0000
1003
1000
,
2100
0000
3100
0010
,
0102
0000
0100
0013
,
2000
0000
0000
0001
0000
0000
3100
0000
,
0002
0000
0000
1000
0000
0000
0013
0000
,
1000
1000
0001
0100
,
0010
1000
0100
0010
,
0001
1000
0001
0100
,
1100
0000
0000
0110
0000
0000
0011
0000
,
1000
1000
0100
0010
,
0001
0100
0010
1000
,
0002
0000
0010
0000
,
0010
0000
0103
1000
,
0010
0010
1000
0100
,
0010
0001
0100
0010
,
2000
0000
0000
3001
,
0200
0000
0300
0010
,
0010
0100
1000
0010
,
0010
0001
1000
0100
,
0200
0000
0010
0300
,
2002
3003
0220
0330
,
2002
0000
0000
0000
,
0000
0000
0000
0000
,
0000
0000
0000
0000
,
0000
0000
0000
0000
,
0000
0000
0000
0000
,
0000
0000
0000
0000
,
0000
0000
0000
0000
,
0000
0000
0000
0000
,
0000
3003
0000
0000
0000
0000
0000
0000
0000
0000
0000
0000
0000
0000
0000
0000
0000
0000
0000
0000
0000
0000
0000
0000
0000
0000
0000
0000
0000
0000
0000
0000
0000
0000
0000
0000
0000
0000
0000
0000
0000
0000
0000
0000
0000
0000
0000
0000
0000
0000
0000
0000
0000
0000
0000
0000
0000
0000
0000
0000
0000
0000
0000
0000
0000
0000
0000
0000
0000
0000
0000
0000
0000
0000
0000
0000
0000
0000
0000
0000
0000
0000
0000
0000
0000
0000
0000
0000
0000
0000
0000
0000
0000
0000
0000
0000
0000
0000
0000
0000
0000
0000
0000
0000
0000
0000
0000
0000
0000
0000
0000
0000
0000
0000
0000
0000
0000
0000
0000
0000
0000
0000
0000
0000
0000
0000
0000
0000
0000
0000
0000
0000
0000
0000
0000
0000
0000
0000
0000
0000
0000
0000
0000
0000
0000
0000
0000
0000
0000
0000
0000
0000
0000
0000
0000
0000
0000
0000
0000
0000
0000
0000
0000
0000
0000
0000
0000
0000
0000
0000
0000
0000
0000
0000
0000
0000
0000
0000
0000
0000
0000
0000
0000
0000
0000
0000
0000
0000
0000
0000
0000
0000
;

//---------------dance-single - ----------------
#NOTES:
     dance-single:
     :
     Hard:
     10:
     0.698,0.915,0.376,0.301,0.000,447.000,40.000,32.000,0.000,0.000:
0000
0000
0000
0000
,
0000
0000
0000
0000
,
0000
0000
0000
0000
,
0000
0000
0000
0000
,
0000
0000
0000
0000
,
0000
0000
0000
0000
,
1000
0100
1000
0010
,
0100
0001
0010
0001
,
2000
0000
0100
0000
3100
0000
0001
1000
,
0100
0000
1000
0001
0000
1000
0010
0000
,
0001
0010
0001
0100
,
0010
1000
0100
1000
,
0002
0000
0010
0000
0013
0000
1000
0100
,
1000
0000
0001
1000
0000
0001
0010
0000
,
1000
0100
0001
0100
,
1000
0010
0001
0010
,
1000
0100
0010
0001
,
0001
0010
0100
1000
,
1010
0000
0001
0010
0001
0010
0001
0100
,
0010
1000
0100
0200
0000
0000
0310
0000
,
0101
0000
0001
1000
0010
1000
0010
1000
,
0100
0010
0000
0002
0000
1003
0100
1000
,
1010
0000
1000
0100
0000
0100
0020
0000
,
0000
0001
0001
0031
,
0101
0000
0010
1000
0000
1000
0200
0000
,
0000
0010
0010
0301
,
1100
0000
0010
0001
0010
0001
0100
0010
,
1000
0100
0000
0200
0000
0000
0310
0000
,
1010
0000
0001
0100
0001
0010
0001
1000
,
0001
0100
0000
0200
0000
0000
0310
0000
,
0012
0000
1003
0100
,
0000
0012
0000
1003
,
0000
0000
0100
0020
0000
0000
0000
0000
,
0030
1100
0110
0011
,
0101
0000
0010
1000
0000
1000
0200
0000
,
0000
0310
0001
0100
,
0101
0000
0001
0100
0000
0100
0020
0000
,
0000
1030
0100
1000
,
0010
0001
0010
0000
0001
0100
0001
0000
,
0100
1000
0100
0000
1000
0010
1000
0000
,
0002
0010
1000
0100
,
0013
0101
0110
1010
,
1100
0000
0001
0010
0000
0010
0200
0000
,
0000
1300
0001
0010
,
1100
0000
0010
1000
0000
1000
0002
0000
,
0000
1003
0100
0100
,
0012
0103
1200
0310
,
0021
1030
2100
3001
,
0012
0103
2001
3010
,
0201
0310
1002
0103
,
2002
0000
0000
0000
,
0000
0000
0000
3003
,
1000
0100
1000
0000
1000
0010
1000
0000
,
0001
0100
0001
0000
0001
0010
0001
0000
,
1000
0100
0010
0001
,
0011
0000
1000
0100
0000
1000
0100
0000
,
0001
0100
0001
0000
0001
0010
0001
0000
,
1000
0100
1000
0000
1000
0010
1000
0000
,
0001
0010
0100
1000
,
1100
0000
0010
0001
0000
0010
0001
0000
,
1000
0001
1000
0000
1000
0010
1000
0000
,
0001
1000
0001
0000
0001
0100
0001
0000
,
0001
0010
0100
1000
,
1000
0100
0010
0001
,
2010
0001
0100
3001
,
0102
1000
0010
1003
,
0101
0000
0010
0001
0000
0001
0100
0000
,
1010
0000
0100
1000
0000
1000
0010
0000
,
0100
1000
0100
0000
0010
1000
0010
0000
,
0100
0001
0100
0000
0010
0001
0010
0000
,
1000
0100
0010
0001
,
0001
0010
0100
1000
,
0010
0001
0010
0000
0100
0001
0100
0000
,
0010
1000
0010
0000
0100
1000
0100
0000
,
1000
0010
0100
0001
,
0001
1000
0010
0100
,
1000
0010
0100
0000
0001
0010
0100
0000
,
1000
0001
0100
0000
0001
1000
0010
0000
,
0100
1000
0010
0000
0100
0001
0010
0000
,
0001
0010
0100
0000
1000
0010
0100
0000
,
1000
0100
0001
0010
,
0001
0100
1000
0010
,
1010
0000
0100
0001
0000
0001
0010
0000
,
0011
0000
0100
1000
0000
1000
0010
0000
,
0011
0000
1000
0100
1000
0100
1000
0000
,
0020
0000
0000
0032
0000
0000
0103
0000
,
0010
0001
0010
0000
0100
1000
0100
0000
,
0011
0000
0000
1001
0000
0000
1100
0000
,
0001
0010
0100
0000
1000
0001
0100
0000
,
0010
0001
1000
0000
0001
0100
0010
0000
,
1000
0001
0100
0000
0010
1000
0001
1000
,
0001
0000
0001
1000
0000
1000
0001
0000
,
1000
0100
0010
0000
0001
0100
0010
0000
,
1000
0001
0100
0000
0010
0001
1000
0000
,
0001
0100
0010
0000
1000
0100
0010
0001
,
1000
0000
1000
0100
0000
0001
0100
0000
,
1000
0010
0100
0000
0001
0100
0010
0000
,
1000
0001
0100
0000
0010
0001
1000
0000
,
1000
0100
0010
0000
0001
0010
0100
0000
,
1000
0001
0100
0000
0010
0001
0100
0000
,
0220
0000
0000
0000
,
0000
0000
0000
0000
,
0000
0000
0000
0000
,
0000
0000
0000
0000
,
0000
0000
0000
0000
,
0000
0000
0000
0000
,
0000
0000
0000
0000
,
0000
0000
0000
0000
,
0330
0000
0000
0000
;
