#TITLE:The Sun and the Star;
#SUBTITLE:;
#ARTIST:The Flashbulb;
#TITLETRANSLIT:;
#SUBTITLETRANSLIT:;
#ARTISTTRANSLIT:;
#CREDIT:;
#BANNER:Sun and Star.png;
#BACKGROUND:Sun and Star.jpg;
#LYRICSPATH:;
#CDTITLE:CDtitletiger.png;
#MUSIC:the flashbulb - the sun and the star.mp3;
#OFFSET:-0.040;
#SAMPLESTART:100.000;
#SAMPLELENGTH:12.000;
#SELECTABLE:YES;
#BPMS:0.000=172.040;
#STOPS:;
#BGCHANGES:;
// cache tags:
#FIRSTBEAT:0.000;
#LASTBEAT:364.000;
#SONGFILENAME:Songs/new cedric/The Sun and the Star/Sun and Star.sm;
#HASMUSIC:1;
#HASBANNER:1;
#MUSICLENGTH:145.763;
// end cache tags

//---------------dance-single - ----------------
#NOTES:
     dance-single:
     :
     Challenge:
     11:
     1.000,1.000,0.185,1.000,1.000,945.000,27.000,281.000,0.000,2.000:
2100
3000
0001
0000
0110
0000
1000
0100
0010
0001
1000
0000
0110
0000
0001
0000
,
0210
0300
1000
0000
0011
0000
1000
0100
0010
0001
1000
0000
0110
0000
0001
0000
,
1020
0030
1000
0000
0101
0000
0010
1000
0010
1000
0001
0000
1100
0000
0001
0000
,
2001
3000
0001
0000
1100
0000
1100
0000
0001
0010
0100
0000
0011
0000
0100
0000
,
0120
0030
0100
0000
1001
0000
0010
0100
0010
0100
0001
0000
1100
0000
0001
0000
,
2001
3000
0001
0000
1010
0000
0100
0001
0100
0001
1000
0000
0101
0000
0010
0000
,
2010
3000
0010
0000
0101
0000
0010
1000
0001
0100
0010
0000
1100
0000
0001
0000
,
0201
0300
2000
0000
3110
0000
0110
0000
0001
0010
0100
0010
1001
0000
0000
0000
,
0002
0003
0001
0010
0100
0000
0002
0000
0000
0000
1003
0100
1000
0100
0010
0001
,
2000
3000
1000
0100
0010
0000
2000
0000
0000
0000
3001
0010
0001
0010
2000
0000
,
3002
0003
0001
1000
0001
0000
0002
0000
0000
0000
1003
0100
2000
0000
3001
0010
,
0200
0000
0301
0010
0001
0000
0002
0000
0000
1003
0200
0000
0320
0000
0032
0000
,
2003
3000
1000
0001
1000
0000
2000
0000
0000
0000
3001
0100
0020
0000
1030
0001
,
0200
0000
0301
0010
1000
0000
0200
0000
0320
0000
1030
0100
1000
0100
0002
0000
,
0203
0300
0100
0001
0100
0000
0020
0000
0000
0000
1030
0100
2000
0000
3001
0100
,
0002
0003
0001
0100
0010
0000
2000
0000
3000
0010
0100
0000
0002
0000
2003
0000
,
3002
0003
0001
0100
0001
0000
0020
0000
0000
0000
1030
0100
2000
0000
3001
0010
,
0002
0003
0001
1000
0001
0000
2000
0000
3200
0300
0001
0010
0001
1000
0020
0000
,
2030
3000
1000
0100
0010
0000
0002
0000
0000
0000
1003
0100
0020
0000
0031
0100
,
2000
3000
0010
0100
0010
0000
0002
0000
2003
0000
3200
0000
0320
0000
2030
0000
,
3002
0003
0100
0010
0100
0000
0002
0000
0000
0000
1003
0100
0020
0000
1030
0100
,
0002
0000
0103
0010
1000
0000
0020
0000
0032
0000
1003
0100
0010
0001
2000
0000
,
3002
0000
0103
0010
0100
0000
0002
0000
0000
0000
1003
0100
0020
0000
0031
1000
,
0200
0000
0301
0010
1000
0000
0002
0000
0023
0000
0230
0000
2300
0000
3020
0000
,
2030
3000
1000
0100
0010
0001
2000
0000
0000
0000
3001
0100
0020
0000
0031
1000
,
0200
0000
0301
0010
0100
1000
0200
0000
0000
0000
1300
0010
0002
0000
1003
0010
,
0200
0300
0100
0010
0100
0001
2000
3000
0010
0100
0002
0003
1000
0100
0020
0000
,
1030
0100
0010
0001
2000
3000
0010
1000
0001
0010
0200
1300
0001
0100
0010
1000
,
0002
0003
0001
0010
0100
1000
0002
0000
0000
0000
1003
0100
0020
0030
0001
1000
,
0200
0300
0100
0010
0100
0001
0200
0000
0000
0000
0310
1000
0002
0003
0010
0100
,
2000
3000
0001
0010
0100
1000
0020
0000
1030
0100
0002
0000
0013
0100
2000
0000
,
3001
0100
0001
0100
0020
0000
1030
0100
0010
0001
2000
0000
3010
0100
0002
0000
,
0023
0030
0010
1000
0100
1000
0020
0000
0000
0030
0010
0100
0002
0000
0013
0100
,
2000
3000
1000
0100
0010
0100
2000
0000
0000
0000
3001
0010
0200
0000
1300
0010
,
0002
0003
0001
0010
0100
1000
0002
0000
1003
0100
2000
0000
3001
0010
0200
0000
,
0301
1000
0001
1000
0020
0000
1030
0100
0010
0100
2000
0000
3001
0010
0200
0000
,
2300
3000
1000
0100
0010
0001
2000
0000
0000
3000
1000
0001
0020
0000
1030
0100
,
0002
0003
0001
0010
0100
1000
0002
0000
0000
0000
0103
0010
0200
0000
0310
0001
,
2000
3000
1000
0100
0010
0001
2000
0000
3100
0010
0002
0000
1003
0100
2000
0000
,
3001
0010
0001
0100
0020
0000
1030
0100
0010
0001
0200
0000
0301
0010
2000
3000
,
0002
0000
0103
0010
0100
0000
2000
0000
0000
0000
3010
0100
0001
0100
0010
0100
,
0002
0000
0103
1000
0010
0000
0002
0000
0000
0000
1003
0100
0010
0100
0002
0000
,
0203
0000
0301
1000
0010
0000
0200
0000
0000
0000
1300
0010
0002
0003
0001
0010
,
2000
0000
3001
0100
0010
0000
0002
0000
0000
1003
0100
0000
0020
0000
1030
0100
,
0002
0000
0103
0010
0100
0000
2000
0000
0000
0000
3010
0100
0002
0003
1000
0100
,
0002
0000
0103
1000
0010
0000
0002
0000
0023
0000
1030
0100
1000
0010
0002
0000
,
0203
0000
0301
1000
0010
0000
0200
0000
0000
0000
1300
0010
0002
0003
0001
0010
,
2000
0000
3001
0100
0010
0000
0002
0000
0000
0010
1003
0000
0002
0000
2003
0000
,
3020
0000
1030
0100
0001
0000
0020
0000
0000
0000
1030
0100
0002
0003
0001
1000
,
0200
0300
0001
1000
0001
0000
2000
0000
3200
0000
0301
1000
0001
1000
0020
0000
,
0032
0000
1003
0010
0100
0000
2000
0000
0000
0000
3100
0010
0002
0000
2003
0000
,
3100
0010
0200
0000
0000
0000
0320
0000
0000
1030
0100
0000
0002
0000
2003
0000
,
3002
0000
1003
0100
1000
0000
0002
0000
0000
0000
1003
0100
0020
0000
0031
1000
,
0200
0000
0301
0010
0001
0000
2000
0000
3020
0000
1030
0100
1000
0100
0002
0000
,
0203
0000
0301
1000
0010
0100
0001
1000
0001
0010
0100
1000
0001
0100
0010
1000
,
0001
0010
0100
1000
0010
0100
0010
0100
0001
0010
0100
2000
0000
0000
3002
0000
,
2003
3000
1000
0100
0010
0001
2000
0000
0000
0000
3001
0100
0020
0000
0031
1000
,
0200
0000
0301
0010
0100
1000
0200
0000
0000
0000
1300
0010
0002
0000
1003
0010
,
0200
0300
0100
0010
0100
0001
2000
3000
0010
0100
0002
0003
1000
0100
0020
0031
,
1000
0100
0010
0001
2000
3000
0010
1000
0001
0010
0200
1300
0001
0100
0010
1000
,
0002
0003
0001
0010
0100
1000
0002
0000
0000
0000
1003
0100
0020
0030
0001
1000
,
0200
0300
0100
0010
0100
0001
0200
0000
0000
0000
0310
1000
0002
0003
0010
0100
,
2000
3000
0001
0010
0100
1000
0020
0000
1030
0100
0002
0000
0013
0100
2000
0000
,
3001
0100
0001
0100
0020
0000
1030
0100
0010
0001
2000
0000
3010
0100
0002
0000
,
0023
0030
0010
1000
0100
1000
0020
0000
0000
0030
0010
0100
0002
0000
0013
0100
,
2000
3000
1000
0100
0010
0100
2000
0000
0000
0000
3001
0010
0200
0000
1300
0010
,
0002
0003
0001
0010
0100
1000
0002
0000
1003
0100
2000
0000
3001
0010
0200
0000
,
0301
1000
0001
1000
0020
0000
1030
0100
0010
0100
2000
0000
3001
0010
0200
0000
,
2300
3000
1000
0100
0010
0001
2000
0000
0000
3000
1000
0001
0020
0000
1030
0100
,
0002
0003
0001
0010
0100
1000
0002
0000
0000
0000
0103
0010
0200
0000
0310
0001
,
2000
3000
1000
0100
0010
0001
2000
0000
3100
0010
0002
0000
1003
0100
2000
0000
,
3001
0010
0001
0100
0020
0000
1030
0100
0010
0001
0200
0000
0301
0010
2000
3000
,
0002
0003
0001
0100
0001
0000
0002
0000
0000
0000
1003
0100
1000
0010
1000
0001
,
0200
0300
0100
0001
0010
0000
0200
0000
0000
0000
0301
0010
0001
0100
0020
0000
,
2030
3000
1000
0100
0010
0000
2000
0000
0000
0000
3100
0001
0020
0000
1030
0001
,
0200
0000
0301
1000
0010
0000
0200
0000
0000
0000
0320
0000
0032
0000
2003
0000
,
3002
0003
0001
0100
0010
0000
0002
0000
0000
0000
0103
1000
0020
0000
1030
0001
,
0200
0000
0301
1000
0010
0000
0200
0000
0320
0000
1030
0100
1000
0001
0200
0000
,
2300
3000
1000
0001
0100
0000
2000
0000
0000
0000
3100
0010
0200
0000
0301
0010
,
0002
0000
1003
0100
0010
0000
2000
0000
0000
3010
0002
0000
0023
0000
2030
0000
,
3200
0300
0100
0010
0100
0000
0002
0000
0000
0000
0013
0100
0020
0000
1030
0100
,
2000
0000
3001
0100
0001
0000
0020
0000
2030
0000
3001
0010
0001
0000
0020
0000
,
0230
0000
0301
1000
0001
0000
0200
0000
0000
0000
0301
1000
0002
0000
1003
0010
,
0200
0000
0301
1000
0001
0000
0020
0000
0032
0000
2003
0000
3020
0000
0230
0000
,
0320
0030
0001
1000
0001
0000
0020
0000
0000
0000
1030
0100
0002
0003
0001
0100
,
2000
0000
3001
0010
0001
0000
2000
0000
3020
0000
0031
1000
0100
0010
0002
0000
,
0023
0000
1030
0001
0100
0000
0020
0000
0000
0000
0130
1000
0002
0000
0103
0010
,
2000
0000
3010
0100
0010
0000
0002
0000
2003
0000
3020
0000
2030
0000
3202
0000
,
0000
0000
0000
0000
,
0000
0000
0000
0000
,
0000
0000
0000
0000
,
0303
0000
0000
0000
;
