#TITLE:Cosplay Sex;
#SUBTITLE:EXoduz Violation II;
#ARTIST:Odaxelagnia;
#TITLETRANSLIT:;
#SUBTITLETRANSLIT:;
#ARTISTTRANSLIT:;
#CREDIT:;
#BANNER:../Banner.png;
#BACKGROUND:../Background.png;
#LYRICSPATH:;
#CDTITLE:;
#MUSIC:Cosplay Sex.ogg;
#OFFSET:-3.056;
#SAMPLESTART:99.267;
#SAMPLELENGTH:11.940;
#SELECTABLE:YES;
#DISPLAYBPM:249.000;
#BPMS:0.000=124.500,34.000=249.000,98.000=124.500,113.500=120.000,114.000=249.000,274.000=124.500,286.750=62.250,287.750=225.000,290.000=249.000,386.000=124.500,434.000=249.000,498.000=498.000,626.000=62.250,724.000=250.000;
#STOPS:;
#BGCHANGES:;
// cache tags:
#FIRSTBEAT:2.000;
#LASTBEAT:626.500;
#SONGFILENAME:Songs/EXoduz Violation II/Cosplay Sex - [Ov3rHell3XoduZ]/sm.sm;
#HASMUSIC:1;
#HASBANNER:1;
#MUSICLENGTH:183.914;
// end cache tags

//---------------dance-single - ----------------
#NOTES:
     dance-single:
     :
     Beginner:
     19:
     1.000,1.000,0.022,0.359,1.000,1786.000,4.000,66.000,3.000,0.000:
0000
0000
0000
0000
0000
0000
0000
0000
0002
0000
0203
0000
0320
0000
1030
0100
,
0010
0000
0000
0000
0101
0000
0000
0000
0110
0000
0000
0000
0010
1000
0100
0010
0002
0000
0000
0000
2003
0000
0000
0000
3200
0000
0000
0000
0310
0000
0001
0000
,
2000
0000
0000
0000
3001
0000
0000
0000
0001
0000
0000
0000
2000
0000
0000
0000
3010
0000
0200
0000
0000
0000
0301
0000
0010
0000
0100
0000
1000
0000
0001
0100
,
0010
1000
0100
1000
0001
0100
0001
0010
0001
0010
0100
1000
0100
1000
0001
0100
0001
1000
0002
0000
0000
0000
1003
0000
0010
0000
0100
0000
0001
0000
0010
0100
,
1000
0001
0100
0001
1000
0100
1000
0010
0100
0001
0010
0001
1000
0100
0010
0001
2000
0000
3000
0000
2000
0000
0000
0000
3200
0000
0000
0000
1300
0000
0100
0000
,
2000
0000
0000
0000
3020
0000
0000
0000
0230
0000
0000
0000
0301
0010
0100
1000
0002
0000
0000
0003
0110
0000
0000
0000
1010
0000
0000
0000
1000
0000
0100
0000
,
0020
0000
0000
0000
0032
0000
0000
0000
0203
0000
0000
0000
0302
0000
0000
0000
1003
0000
0002
0000
0000
0000
0103
0000
0010
0000
1000
0000
0100
0000
0010
0001
,
2000
0000
0000
0000
3001
0100
0001
1000
0100
1000
0001
0010
0200
0000
0000
0000
1300
0000
0002
0000
0000
0000
0103
0000
0010
0000
1000
0000
0100
0000
0010
0001
,
2000
0000
0000
0000
0000
0000
0000
0000
0000
0000
0000
0000
0000
0000
0000
0000
0000
0000
0000
0000
0000
0000
0000
0000
3001
0000
0000
0000
0000
0000
0100
0000
0000
0000
0000
0000
0001
0000
0000
0000
0000
0000
1000
0000
0000
0000
0000
0000
0100
0000
0000
0000
0000
0000
0010
0000
0000
0000
0000
0000
0001
0000
0000
0000
0000
0000
1000
0000
0000
0000
0000
0000
0001
0000
0000
0000
0000
0000
0100
0000
0000
0000
0000
0000
0020
0000
0000
0000
0000
0000
0000
0000
0000
0000
0000
0000
1030
0000
0000
0000
0000
0000
0000
0000
0000
0000
0000
0000
0000
0000
0000
0000
0100
0000
0000
0000
0000
0000
0000
0000
0000
0000
0000
0000
0000
0000
0000
0000
0010
0000
0000
0000
0000
0000
0000
0000
0000
0000
0000
0000
0000
0000
0000
0000
0001
0000
0000
0000
0000
0000
0000
0000
0000
0000
0000
0000
0000
0000
0000
0000
1000
0000
0000
0000
0000
0000
0000
0000
0000
0000
0000
0000
0000
0000
0000
0000
0001
0000
0000
0000
0000
0000
0000
0000
0000
0000
0000
0000
0000
0000
0000
0000
,
0100
0001
0010
0100
1000
0010
0100
0010
1000
0100
0010
0001
,
1000
0001
0100
0001
1000
0100
0010
0001
0100
0010
1000
0100
,
1000
0010
0100
0001
0010
0100
1000
0001
0100
0001
1000
0100
,
0010
0001
1000
0001
0010
0001
1000
0100
0010
0100
1000
0010
,
0100
0001
1000
0001
0010
0001
1000
0100
0010
0100
1000
0001
,
0100
0010
1000
0010
0100
0001
0010
0100
1000
0001
0100
0001
,
1000
0100
0010
0001
1000
0010
0100
0010
1000
0100
1000
0001
,
0010
0100
1000
0001
0100
0001
1000
0100
0010
0001
1000
0010
,
0100
0010
1000
0100
1000
0001
0100
0010
1000
0001
0010
0001
,
1000
0100
0010
0001
1000
0010
0100
0001
1000
0100
1000
0010
,
0100
0001
0010
0001
1000
0100
0010
0001
1000
0010
0100
0010
,
1000
0100
1000
0001
0100
0001
1000
0010
0100
0001
0010
0001
,
1000
0100
0010
0001
1000
0001
0100
0001
0010
0100
1000
0010
,
0100
0010
1000
0100
0010
0001
1000
0001
0100
0001
0010
0100
,
1000
0010
0100
0001
1000
0100
0010
0001
0100
0001
1000
0100
,
1000
0000
0000
0000
0010
0000
0000
0000
0100
0000
0000
0000
0001
0000
0000
0000
0010
0000
0000
0000
0100
0000
0000
0000
1000
0000
0000
0001
0000
0000
0100
0000
0000
0001
0000
0000
1000
0000
0000
0100
0000
0000
0010
0000
0000
0001
0000
0000
,
1000
0010
0100
0010
1000
0100
0010
0001
1000
0001
0100
0001
0010
0100
1000
0001
,
1000
0010
0100
0010
1000
0100
0010
0001
1000
0001
0100
0001
0010
0100
0010
0001
,
1000
0100
0010
0001
1000
0001
0100
0001
1000
0010
0100
0010
1000
0100
0010
0001
,
1000
0000
0000
0001
0000
0000
0100
0000
0000
0001
0000
0000
0010
0000
0000
0100
0000
0000
1000
0000
0000
0001
0000
0000
1000
0000
0000
0000
0001
0000
0000
0000
0100
0000
0000
0000
0001
0000
0000
0000
1000
0000
0000
0000
0010
0000
0000
0000
,
0100
0010
1000
0100
0010
0001
1000
0001
0100
0001
0010
0100
,
1000
0010
0100
0010
1000
0100
0010
0001
1000
0001
0100
0001
,
1000
0010
0100
0010
1000
0100
0010
0001
1000
0001
0100
0001
,
0010
0100
1000
0010
0100
0001
1000
0100
1000
0010
0100
0001
,
0010
0100
1000
0100
0010
0001
1000
0001
0100
0001
1000
0100
,
1000
0010
0100
0001
0010
0100
0010
0001
1000
0100
0010
0001
,
1000
0001
0100
0001
1000
0010
0100
0001
0010
0100
1000
0001
,
0100
0001
1000
0100
0010
0001
1000
0001
0100
0001
1000
0010
,
0100
0010
1000
0100
0010
0001
1000
0001
0100
0001
0010
0100
,
1000
0010
0100
0010
1000
0100
0010
0001
1000
0001
0100
0001
,
1000
0100
1000
0010
0100
0001
0010
0100
1000
0001
0100
0001
,
1000
0100
0010
0001
1000
0010
1000
0001
0010
0001
1000
0100
,
0010
0001
1000
0001
0100
0001
1000
0100
1000
0010
0100
0001
,
0010
0100
1000
0001
0100
0001
1000
0100
0010
0001
1000
0010
,
1000
0001
0010
0001
1000
0100
0010
0001
1000
0001
0100
0010
,
1000
0100
1000
0010
0100
0001
0010
0100
1000
0001
0100
0001
,
1000
0100
0010
0001
1000
0010
1000
0001
0010
0001
1000
0100
,
1000
0001
0100
0001
1000
0100
1000
0010
0100
0001
0010
0001
,
1000
0100
0010
0001
1000
0001
0100
0001
1000
0100
0010
0001
,
1000
0001
0010
0001
1000
0100
0010
0001
0100
0001
1000
0100
,
1000
0001
0100
0001
1000
0010
0100
0010
1000
0100
0010
0001
,
1000
0001
0100
0001
0010
0001
1000
0100
0010
0001
1000
0100
,
1000
0001
0100
0001
1000
0100
0010
0001
1000
0010
0100
0010
,
1000
0000
0000
0000
0001
0000
0000
0000
0100
0000
0000
0000
0001
0000
0000
0000
0010
0000
0000
0000
0100
0000
0000
0000
1000
0000
0000
0001
0000
0000
0100
0000
0000
0001
0000
0000
1000
0000
0000
0100
0000
0000
1000
0000
0000
0100
0000
0000
,
0010
0001
1000
0010
0100
0010
1000
0100
1000
0100
0010
0001
1000
0001
0100
0001
,
0010
0001
0010
0100
0010
0001
1000
0010
1000
0010
0100
0010
1000
0100
0010
0001
,
1000
0001
0100
0001
0100
0010
1000
0010
1000
0100
1000
0001
0100
0001
0010
0001
,
1000
0100
0010
0100
1000
0100
1000
0010
0100
0001
0010
0100
1000
0001
0100
0001
,
1000
0100
1000
0010
0100
0001
0010
0001
0010
0100
1000
0100
1000
0010
0100
0010
,
1000
0100
0010
0001
1000
0001
0100
0001
0100
0010
1000
0100
0010
0001
1000
0001
,
0010
0100
0010
0001
0100
0001
0100
0010
1000
0100
0010
0100
1000
0010
1000
0001
,
0100
0001
0100
0010
1000
0100
0010
0001
1000
0001
0010
0100
1000
0100
0010
0001
,
1000
0001
0100
0001
0100
0010
1000
0100
1000
0010
0100
0010
1000
0001
1000
0100
,
1000
0010
0100
0001
0010
0001
1000
0100
1000
0010
0100
0001
0010
0100
1000
0001
,
0100
0001
0100
0010
0100
0001
0100
0001
0010
0100
0010
0001
1000
0100
1000
0010
,
0100
0001
0010
0001
1000
0100
0010
0001
1000
0010
1000
0010
0100
0010
1000
0100
,
0010
0001
1000
0001
0100
0001
0100
0001
0010
0100
1000
0001
0010
0001
1000
0100
,
0010
0001
1000
0010
1000
0010
0100
0001
0010
0100
1000
0001
0100
0001
1000
0100
,
1000
0100
0010
0001
1000
0010
0100
0010
1000
0100
0010
0001
1000
0001
0010
0001
,
1000
0100
0010
0001
1000
0001
0100
0001
2000
3000
0000
0000
0000
0200
0300
0000
,
0000
0000
0020
0000
0030
0000
0000
0000
0000
0000
0002
0000
0003
0000
0200
0000
0300
0000
0020
2030
3200
0300
0000
0000
0000
0000
0000
0000
0000
0000
0000
0000
,
0000
0000
0000
0000
0000
0000
0000
0000
0020
0032
2003
3000
0000
0000
0000
0000
0000
0000
0000
0000
0020
0230
0302
0023
0230
0300
0000
0000
0000
0000
0000
0000
,
0000
0000
0000
0000
0000
0000
0000
0000
2000
0000
3002
0000
0203
0320
2030
3200
0320
0032
2003
3000
0000
0000
MMM2
0000
0003
0000
0000
0000
0000
0000
0000
0000
,
0000
0000
0000
0000
1000
0001
0200
0000
,
0320
0000
2030
0000
3100
0010
0001
0100
,
0001
0010
0001
1000
0100
0010
0001
1000
,
0010
0100
0010
1000
0001
0100
0001
0010
,
0001
1000
0100
1000
0001
0100
0020
0000
,
2030
0000
3200
0000
0310
0001
0100
0001
,
0010
0001
1000
0100
0010
0001
1000
0010
,
0100
0010
1000
0001
0100
0001
0010
0001
,
1000
0100
0010
0001
1000
0010
0200
0000
,
0302
0000
0023
0000
0130
1000
0001
0100
,
0001
1000
0100
1000
0010
0100
0001
0010
,
0001
1000
0100
0010
0001
1000
0010
0100
,
0001
0010
0001
1000
0001
0100
0020
0000
,
2030
0000
3200
0000
0310
0001
0100
0001
,
0010
0001
1000
0100
0010
0001
1000
0010
,
0100
0010
1000
0001
0100
0001
0010
0001
,
1000
0100
0010
0001
1000
0001
0100
0001
,
0010
0001
1000
0100
0010
0001
1000
0010
,
0100
0010
1000
0100
0010
0001
1000
0001
,
0100
0001
0010
0001
1000
0100
0010
0001
,
1000
0010
0100
0001
0010
0100
0010
0001
,
1000
0100
0010
0100
1000
0001
0100
0001
,
1000
0010
0100
0010
1000
0100
0010
0001
,
1000
0001
0100
0001
0010
0001
1000
0100
,
0010
0000
0001
0000
1000
0000
0010
0000
0100
0001
1000
0100
1000
0001
0100
0001
,
0010
0100
1000
0001
0100
0001
1000
0100
0010
0001
1000
0010
0100
0001
0010
0001
,
1000
0100
0010
0100
1000
0010
0100
0001
0010
0001
1000
0100
1000
0001
0100
0001
,
0010
0100
1000
0010
0100
0001
1000
0100
1000
0001
0100
0010
1000
0100
0010
0001
,
1000
0001
0010
0001
1000
0010
0100
0010
1000
0100
0010
0001
1000
0001
0100
0001
,
1000
0100
1000
0001
0100
0001
0010
0100
1000
0001
0000
0100
0010
1000
0100
0000
,
0010
0001
1000
0000
0010
0100
0001
0010
0001
1000
0100
0010
0001
1000
0100
1000
0001
0000
0100
0000
0010
0000
1000
0000
0100
0000
1000
0000
0010
0000
0100
0000
,
0001
0010
0100
1000
0001
1000
0100
1000
0010
0100
0001
0010
0001
1000
0100
0010
,
0001
1000
0010
0100
0001
0010
0001
1000
0100
1000
0001
0100
0010
1000
0100
0010
,
0001
1000
0010
1000
0001
0010
0100
1000
0001
0100
0000
0010
1000
0100
0010
0000
,
0001
0100
0010
0000
1000
0100
1000
0010
0100
0001
0010
0001
1000
0100
0010
0001
1000
0000
0001
0000
0100
0000
0001
0000
1000
0000
0010
0000
0100
0000
0001
0000
,
0010
0100
1000
0001
0100
0010
1000
0100
1000
0010
0100
0001
0010
0100
1000
0001
,
0100
0000
0000
0001
0000
0000
1000
0000
0000
0100
0000
0000
0010
0000
0000
0001
0000
0000
1000
0000
0000
0001
0000
0000
1000
0000
0000
0000
0100
0000
0000
0000
1000
0000
0000
0000
0010
0000
0000
0000
0100
0000
0000
0000
0001
0000
0000
0000
,
0010
0001
1000
0100
0010
0001
1000
0010
0100
0010
1000
0100
,
1000
0001
0100
0001
0010
0001
1000
0100
0010
0001
1000
0010
,
0100
0010
1000
0100
0010
0001
1000
0001
0100
0001
0010
0100
,
1000
0001
0100
0001
1000
0100
1000
0010
0100
0001
0010
0100
,
1000
0001
0100
0010
1000
0100
0010
0100
1000
0010
0100
0001
,
0010
0001
1000
0100
0010
0001
1000
0001
0100
0001
0010
0100
,
1000
0010
0100
0010
1000
0100
0010
0001
1000
0001
0100
0001
,
0010
0001
1000
0100
0010
0001
1000
0010
0100
0010
1000
0100
,
1000
0001
0100
0001
0010
0100
1000
0001
0100
0001
1000
0100
,
1000
0010
0100
0001
0010
0100
1000
0001
0100
0001
1000
0100
,
0010
0001
1000
0010
0100
0010
1000
0100
0010
0001
1000
0001
,
0100
0001
0010
0100
1000
0010
0100
0001
1000
0100
1000
0010
,
0100
0001
0010
0100
1000
0001
0100
0001
0010
0100
1000
0010
,
0100
0010
1000
0100
0010
0001
1000
0001
0100
0001
0010
0100
,
1000
0010
0100
0001
1000
0100
1000
0001
0100
0010
1000
0100
,
0010
0000
0001
0000
1000
0000
0010
0000
1000
0000
0001
0000
0100
0000
0000
0010
0000
0000
1000
0000
0000
0100
0000
0000
,
1000
0010
0100
0001
0010
0001
0010
0100
,
1000
0010
0100
0001
1000
0100
1000
0010
,
1000
0010
0100
0010
1000
0100
0010
0001
,
1000
0001
0100
0001
0010
0001
0010
0100
,
1000
0010
0100
0010
1000
0100
1000
0100
,
0010
0001
1000
0010
0100
0001
0010
0001
,
0010
0100
1000
0001
0100
0001
1000
0100
,
1000
0010
0100
0001
0010
0001
0010
0100
,
0010
0001
1000
0100
0010
0100
1000
0100
,
1000
0010
0100
0001
0010
0100
1000
0001
,
0100
0001
0100
0010
1000
0100
0010
0001
,
1000
0010
1000
0010
0100
0001
0010
0100
,
1000
0001
0100
0010
1000
0100
1000
0010
,
0100
0001
0010
0001
0010
0100
1000
0010
,
0100
0001
1000
0100
1000
0010
0100
0010
,
1000
0100
0010
0001
1000
0001
1000
0100
,
1000
0001
1000
0001
0100
0001
0010
0100
,
1000
0010
0100
0010
1000
0100
1000
0100
,
0010
0001
1000
0010
0100
0001
0010
0100
,
0010
0001
0100
0001
0100
0001
0010
0100
,
1000
0010
1000
0010
1000
0100
0010
0001
,
1000
0010
0100
0010
1000
0100
1000
0100
,
0010
0001
1000
0010
0100
0001
0010
0001
,
1000
0100
1000
0100
0010
0001
1000
0010
,
0100
0001
0010
0100
0010
0001
0010
0001
,
0100
0010
1000
0100
1000
0010
0100
0001
,
0010
0001
0010
0100
1000
0100
1000
0010
,
1000
0100
1000
0010
0100
0010
1000
0100
,
0010
0001
1000
0001
0100
0001
0010
0001
,
0010
0100
1000
0001
1000
0001
0100
0001
,
0010
0100
1000
0001
1000
0100
1000
0001
,
0100
0001
0100
0001
0020
0030
0000
0000
;

//---------------dance-single - ----------------
#NOTES:
     dance-single:
     :
     Easy:
     19:
     1.000,1.000,0.022,0.359,1.000,1786.000,4.000,66.000,3.000,0.000:
0000
0000
0000
0000
0000
0000
0000
0000
0002
0000
0203
0000
0320
0000
1030
0100
,
0010
0000
0000
0000
0101
0000
0000
0000
0110
0000
0000
0000
0010
1000
0100
0010
0002
0000
0000
0000
2003
0000
0000
0000
3200
0000
0000
0000
0310
0000
0001
0000
,
2000
0000
0000
0000
3001
0000
0000
0000
0001
0000
0000
0000
2000
0000
0000
0000
3010
0000
0200
0000
0000
0000
0301
0000
0010
0000
0100
0000
1000
0000
0001
0100
,
0010
1000
0100
1000
0001
0100
0001
0010
0001
0010
0100
1000
0100
1000
0001
0100
0001
1000
0002
0000
0000
0000
1003
0000
0010
0000
0100
0000
0001
0000
0010
0100
,
1000
0001
0100
0001
1000
0100
1000
0010
0100
0001
0010
0001
1000
0100
0010
0001
2000
0000
3000
0000
2000
0000
0000
0000
3200
0000
0000
0000
1300
0000
0100
0000
,
2000
0000
0000
0000
3020
0000
0000
0000
0230
0000
0000
0000
0301
0010
0100
1000
0002
0000
0000
0003
0110
0000
0000
0000
1010
0000
0000
0000
1000
0000
0100
0000
,
0020
0000
0000
0000
0032
0000
0000
0000
0203
0000
0000
0000
0302
0000
0000
0000
1003
0000
0002
0000
0000
0000
0103
0000
0010
0000
1000
0000
0100
0000
0010
0001
,
2000
0000
0000
0000
3001
0100
0001
1000
0100
1000
0001
0010
0200
0000
0000
0000
1300
0000
0002
0000
0000
0000
0103
0000
0010
0000
1000
0000
0100
0000
0010
0001
,
2000
0000
0000
0000
0000
0000
0000
0000
0000
0000
0000
0000
0000
0000
0000
0000
0000
0000
0000
0000
0000
0000
0000
0000
3001
0000
0000
0000
0000
0000
0100
0000
0000
0000
0000
0000
0001
0000
0000
0000
0000
0000
1000
0000
0000
0000
0000
0000
0100
0000
0000
0000
0000
0000
0010
0000
0000
0000
0000
0000
0001
0000
0000
0000
0000
0000
1000
0000
0000
0000
0000
0000
0001
0000
0000
0000
0000
0000
0100
0000
0000
0000
0000
0000
0020
0000
0000
0000
0000
0000
0000
0000
0000
0000
0000
0000
1030
0000
0000
0000
0000
0000
0000
0000
0000
0000
0000
0000
0000
0000
0000
0000
0100
0000
0000
0000
0000
0000
0000
0000
0000
0000
0000
0000
0000
0000
0000
0000
0010
0000
0000
0000
0000
0000
0000
0000
0000
0000
0000
0000
0000
0000
0000
0000
0001
0000
0000
0000
0000
0000
0000
0000
0000
0000
0000
0000
0000
0000
0000
0000
1000
0000
0000
0000
0000
0000
0000
0000
0000
0000
0000
0000
0000
0000
0000
0000
0001
0000
0000
0000
0000
0000
0000
0000
0000
0000
0000
0000
0000
0000
0000
0000
,
0100
0001
0010
0100
1000
0010
0100
0010
1000
0100
0010
0001
,
1000
0001
0100
0001
1000
0100
0010
0001
0100
0010
1000
0100
,
1000
0010
0100
0001
0010
0100
1000
0001
0100
0001
1000
0100
,
0010
0001
1000
0001
0010
0001
1000
0100
0010
0100
1000
0010
,
0100
0001
1000
0001
0010
0001
1000
0100
0010
0100
1000
0001
,
0100
0010
1000
0010
0100
0001
0010
0100
1000
0001
0100
0001
,
1000
0100
0010
0001
1000
0010
0100
0010
1000
0100
1000
0001
,
0010
0100
1000
0001
0100
0001
1000
0100
0010
0001
1000
0010
,
0100
0010
1000
0100
1000
0001
0100
0010
1000
0001
0010
0001
,
1000
0100
0010
0001
1000
0010
0100
0001
1000
0100
1000
0010
,
0100
0001
0010
0001
1000
0100
0010
0001
1000
0010
0100
0010
,
1000
0100
1000
0001
0100
0001
1000
0010
0100
0001
0010
0001
,
1000
0100
0010
0001
1000
0001
0100
0001
0010
0100
1000
0010
,
0100
0010
1000
0100
0010
0001
1000
0001
0100
0001
0010
0100
,
1000
0010
0100
0001
1000
0100
0010
0001
0100
0001
1000
0100
,
1000
0000
0000
0000
0010
0000
0000
0000
0100
0000
0000
0000
0001
0000
0000
0000
0010
0000
0000
0000
0100
0000
0000
0000
1000
0000
0000
0001
0000
0000
0100
0000
0000
0001
0000
0000
1000
0000
0000
0100
0000
0000
0010
0000
0000
0001
0000
0000
,
1000
0010
0100
0010
1000
0100
0010
0001
1000
0001
0100
0001
0010
0100
1000
0001
,
1000
0010
0100
0010
1000
0100
0010
0001
1000
0001
0100
0001
0010
0100
0010
0001
,
1000
0100
0010
0001
1000
0001
0100
0001
1000
0010
0100
0010
1000
0100
0010
0001
,
1000
0000
0000
0001
0000
0000
0100
0000
0000
0001
0000
0000
0010
0000
0000
0100
0000
0000
1000
0000
0000
0001
0000
0000
1000
0000
0000
0000
0001
0000
0000
0000
0100
0000
0000
0000
0001
0000
0000
0000
1000
0000
0000
0000
0010
0000
0000
0000
,
0100
0010
1000
0100
0010
0001
1000
0001
0100
0001
0010
0100
,
1000
0010
0100
0010
1000
0100
0010
0001
1000
0001
0100
0001
,
1000
0010
0100
0010
1000
0100
0010
0001
1000
0001
0100
0001
,
0010
0100
1000
0010
0100
0001
1000
0100
1000
0010
0100
0001
,
0010
0100
1000
0100
0010
0001
1000
0001
0100
0001
1000
0100
,
1000
0010
0100
0001
0010
0100
0010
0001
1000
0100
0010
0001
,
1000
0001
0100
0001
1000
0010
0100
0001
0010
0100
1000
0001
,
0100
0001
1000
0100
0010
0001
1000
0001
0100
0001
1000
0010
,
0100
0010
1000
0100
0010
0001
1000
0001
0100
0001
0010
0100
,
1000
0010
0100
0010
1000
0100
0010
0001
1000
0001
0100
0001
,
1000
0100
1000
0010
0100
0001
0010
0100
1000
0001
0100
0001
,
1000
0100
0010
0001
1000
0010
1000
0001
0010
0001
1000
0100
,
0010
0001
1000
0001
0100
0001
1000
0100
1000
0010
0100
0001
,
0010
0100
1000
0001
0100
0001
1000
0100
0010
0001
1000
0010
,
1000
0001
0010
0001
1000
0100
0010
0001
1000
0001
0100
0010
,
1000
0100
1000
0010
0100
0001
0010
0100
1000
0001
0100
0001
,
1000
0100
0010
0001
1000
0010
1000
0001
0010
0001
1000
0100
,
1000
0001
0100
0001
1000
0100
1000
0010
0100
0001
0010
0001
,
1000
0100
0010
0001
1000
0001
0100
0001
1000
0100
0010
0001
,
1000
0001
0010
0001
1000
0100
0010
0001
0100
0001
1000
0100
,
1000
0001
0100
0001
1000
0010
0100
0010
1000
0100
0010
0001
,
1000
0001
0100
0001
0010
0001
1000
0100
0010
0001
1000
0100
,
1000
0001
0100
0001
1000
0100
0010
0001
1000
0010
0100
0010
,
1000
0000
0000
0000
0001
0000
0000
0000
0100
0000
0000
0000
0001
0000
0000
0000
0010
0000
0000
0000
0100
0000
0000
0000
1000
0000
0000
0010
0000
0000
0100
0000
0000
0010
0000
0000
1000
0000
0000
0100
0000
0000
0010
0000
0000
0001
0000
0000
,
1000
0001
0100
0010
1000
0100
1000
0010
0100
0010
1000
0100
0010
0001
1000
0001
,
0100
0010
0100
0001
0010
0100
1000
0001
0100
0001
0010
0100
1000
0010
0100
0010
,
1000
0100
0010
0001
0100
0001
0010
0100
1000
0001
0100
0001
1000
0100
1000
0010
,
0100
0001
0010
0001
1000
0100
0010
0001
1000
0010
0100
0010
1000
0100
1000
0001
,
0100
0010
1000
0100
0010
0100
1000
0010
0100
0001
0010
0001
1000
0100
0010
0100
,
1000
0010
0100
0001
0010
0001
1000
0100
0010
0001
1000
0001
0100
0010
1000
0100
,
1000
0010
0100
0001
0010
0100
1000
0001
0100
0001
1000
0100
0010
0001
1000
0010
,
0100
0010
1000
0100
0010
0001
1000
0001
0100
0010
1000
0100
1000
0010
0100
0001
,
0010
0100
1000
0001
0100
0010
1000
0100
1000
0001
0100
0010
0100
0001
0010
0100
,
1000
0001
0100
0001
1000
0100
0010
0100
1000
0010
0100
0001
0010
0001
1000
0100
,
1000
0001
0100
0010
1000
0100
0010
0100
1000
0010
0100
0001
0010
0001
1000
0100
,
0010
0100
1000
0001
0100
0001
1000
0100
1000
0010
0100
0001
0010
0001
0100
0001
,
1000
0001
0100
0010
1000
0100
0010
0100
1000
0001
0100
0001
1000
0100
0010
0100
,
1000
0010
0100
0010
1000
0100
0010
0001
1000
0001
0100
0010
0100
0001
0010
0100
,
1000
0001
0100
0001
0010
0100
0010
0001
1000
0010
0100
0010
1000
0100
0010
0100
,
1000
0001
0100
0001
1000
0100
0010
0001
2000
3000
0000
0000
0000
0200
0300
0000
,
0000
0000
0020
0000
0030
0000
0000
0000
0000
0000
0002
0000
0003
0000
0200
0000
0300
0000
0020
2030
3200
0300
0000
0000
0000
0000
0000
0000
0000
0000
0000
0000
,
0000
0000
0000
0000
0000
0000
0000
0000
0020
0032
2003
3000
0000
0000
0000
0000
0000
0000
0000
0000
0020
0230
0302
0023
0230
0300
0000
0000
0000
0000
0000
0000
,
0000
0000
0000
0000
0000
0000
0000
0000
2000
0000
3002
0000
0203
0320
2030
3200
0320
0032
2003
3000
0000
0000
MMM2
0000
0003
0000
0000
0000
0000
0000
0000
0000
,
0000
0000
0000
0000
1000
0001
0200
0000
,
0320
0000
2030
0000
3100
0010
0001
0100
,
0001
0010
0001
1000
0100
0010
0001
1000
,
0010
0100
0010
1000
0001
0100
0001
0010
,
0001
1000
0100
1000
0001
0100
0020
0000
,
2030
0000
3200
0000
0310
0001
0100
0001
,
0010
0001
1000
0100
0010
0001
1000
0010
,
0100
0010
1000
0001
0100
0001
0010
0001
,
1000
0100
0010
0001
1000
0010
0200
0000
,
0302
0000
0023
0000
0130
1000
0001
0100
,
0001
1000
0100
1000
0010
0100
0001
0010
,
0001
1000
0100
0010
0001
1000
0010
0100
,
0001
0010
0001
1000
0001
0100
0020
0000
,
2030
0000
3200
0000
0310
0001
0100
0001
,
0010
0001
1000
0100
0010
0001
1000
0010
,
0100
0010
1000
0001
0100
0001
0010
0001
,
1000
0100
0010
0001
1000
0001
0100
0001
,
0010
0001
1000
0100
0010
0001
1000
0010
,
0100
0010
1000
0100
0010
0001
1000
0001
,
0100
0001
0010
0001
1000
0100
0010
0001
,
1000
0010
0100
0001
0010
0100
0010
0001
,
1000
0100
0010
0100
1000
0001
0100
0001
,
1000
0010
0100
0010
1000
0100
0010
0001
,
1000
0001
0100
0001
0010
0001
1000
0100
,
0010
0000
0001
0000
1000
0000
0010
0000
0100
0001
1000
0100
1000
0001
0100
0001
,
0010
0100
1000
0001
0100
0001
1000
0100
0010
0001
1000
0010
0100
0001
0010
0001
,
1000
0100
0010
0100
1000
0010
0100
0001
0010
0001
1000
0100
1000
0001
0100
0001
,
0010
0100
1000
0010
0100
0001
1000
0100
1000
0001
0100
0010
1000
0100
0010
0001
,
1000
0001
0010
0001
1000
0010
0100
0010
1000
0100
0010
0001
1000
0001
0100
0001
,
1000
0100
1000
0001
0100
0001
0010
0100
1000
0001
0000
0100
0010
1000
0100
0000
,
0010
0001
1000
0000
0010
0100
0001
0010
0001
1000
0100
0010
0001
1000
0100
1000
0001
0000
0100
0000
0010
0000
1000
0000
0100
0000
1000
0000
0010
0000
0100
0000
,
0001
0010
0100
1000
0001
1000
0100
1000
0010
0100
0001
0010
0001
1000
0100
0010
,
0001
1000
0010
0100
0001
0010
0001
1000
0100
1000
0001
0100
0010
1000
0100
0010
,
0001
1000
0010
1000
0001
0010
0100
1000
0001
0100
0000
0010
1000
0100
0010
0000
,
0001
0100
0010
0000
1000
0100
1000
0010
0100
0001
0010
0001
1000
0100
0010
0001
1000
0000
0001
0000
0100
0000
0001
0000
1000
0000
0010
0000
0100
0000
0001
0000
,
0010
0100
1000
0001
0100
0010
1000
0100
1000
0010
0100
0001
0010
0100
1000
0001
,
0100
0000
0000
0001
0000
0000
1000
0000
0000
0100
0000
0000
0010
0000
0000
0001
0000
0000
1000
0000
0000
0001
0000
0000
1000
0000
0000
0000
0100
0000
0000
0000
1000
0000
0000
0000
0010
0000
0000
0000
0100
0000
0000
0000
0001
0000
0000
0000
,
0010
0001
1000
0100
0010
0001
1000
0010
0100
0010
1000
0100
,
1000
0001
0100
0001
0010
0001
1000
0100
0010
0001
1000
0010
,
0100
0010
1000
0100
0010
0001
1000
0001
0100
0001
0010
0100
,
1000
0001
0100
0001
1000
0100
1000
0010
0100
0001
0010
0100
,
1000
0001
0100
0010
1000
0100
0010
0100
1000
0010
0100
0001
,
0010
0001
1000
0100
0010
0001
1000
0001
0100
0001
0010
0100
,
1000
0010
0100
0010
1000
0100
0010
0001
1000
0001
0100
0001
,
0010
0001
1000
0100
0010
0001
1000
0010
0100
0010
1000
0100
,
1000
0001
0100
0001
0010
0100
1000
0001
0100
0001
1000
0100
,
1000
0010
0100
0001
0010
0100
1000
0001
0100
0001
1000
0100
,
0010
0001
1000
0010
0100
0010
1000
0100
0010
0001
1000
0001
,
0100
0001
0010
0100
1000
0010
0100
0001
1000
0100
1000
0010
,
0100
0001
0010
0100
1000
0001
0100
0001
0010
0100
1000
0010
,
0100
0010
1000
0100
0010
0001
1000
0001
0100
0001
0010
0100
,
1000
0010
0100
0001
1000
0100
1000
0001
0100
0010
1000
0100
,
0010
0000
0001
0000
1000
0000
0010
0000
1000
0000
0001
0000
0100
0000
0000
0010
0000
0000
1000
0000
0000
0100
0000
0000
,
1000
0010
0100
0001
0010
0100
0010
0001
,
1000
0010
0100
0001
1000
0100
1000
0001
,
0100
0010
1000
0100
1000
0010
0100
0010
,
1000
0100
0010
0001
1000
0001
0100
0010
,
0100
0001
0010
0100
1000
0001
0100
0001
,
1000
0100
0010
0001
1000
0010
0100
0010
,
1000
0100
1000
0001
0100
0010
1000
0001
,
0010
0100
0010
0001
1000
0010
0100
0001
,
0010
0001
1000
0100
0010
0100
1000
0010
,
0100
0001
1000
0100
1000
0001
0100
0010
,
1000
0001
0010
0001
1000
0100
0010
0100
,
1000
0010
0100
0001
0010
0001
0100
0001
,
1000
0100
0010
0100
1000
0010
0100
0001
,
0010
0001
1000
0100
0010
0100
1000
0010
,
0100
0001
0010
0100
1000
0001
0100
0001
,
1000
0010
0100
0010
1000
0100
0010
0001
,
1000
0001
0100
0001
0010
0100
1000
0010
,
1000
0100
1000
0001
0100
0010
0100
0001
,
0010
0100
1000
0001
0100
0001
1000
0100
,
0010
0100
1000
0010
0100
0001
0010
0001
,
1000
0100
0010
0001
1000
0001
0100
0001
,
0010
0100
1000
0010
0100
0010
1000
0100
,
0010
0001
0100
0010
0100
0001
0010
0100
,
1000
0001
0100
0001
1000
0100
1000
0001
,
0010
0100
1000
0010
0100
0010
1000
0100
,
0010
0001
1000
0001
0100
0001
0010
0100
,
1000
0010
0100
0010
1000
0100
0010
0001
,
1000
0001
0100
0001
1000
0010
0100
0010
,
1000
0100
0010
0001
1000
0100
1000
0001
,
0010
0100
0010
0001
1000
0100
1000
0001
,
0100
0001
1000
0010
1000
0001
0010
0001
,
1000
0100
1000
0001
0200
0300
0000
0000
;

//---------------dance-single - ----------------
#NOTES:
     dance-single:
     :
     Medium:
     20:
     1.000,1.000,0.000,0.196,1.000,1996.000,0.000,36.000,3.000,0.000:
0000
0000
0000
0000
0000
0000
0000
0000
1000
0100
1000
0010
0100
0001
0010
0100
,
1000
0000
0001
0000
0100
0000
0001
0000
0010
0000
0100
0000
1000
0001
0100
0010
1000
0000
0100
0000
0010
0000
0001
0000
1000
0000
0010
0000
1000
0000
0001
0000
,
0100
0010
1000
0100
0010
0001
1000
0010
0100
0001
0010
0100
1000
0001
0100
0001
,
1000
0000
0100
0000
0010
0001
1000
0010
0100
0010
1000
0100
0010
0001
1000
0010
0100
0000
0001
0000
1000
0000
0100
0000
0010
0000
0100
0000
1000
0000
0001
0000
,
1000
0000
0100
0000
0010
0001
0100
0001
0010
0100
1000
0010
0100
0010
1000
0100
0010
0000
0001
0000
0100
0000
0001
0000
0010
0000
0100
0000
1000
0000
0001
0000
,
0100
0000
0001
0000
1000
0000
0100
0000
0010
0000
0001
0000
0100
0010
1000
0100
0010
0000
0001
0000
1000
0000
0100
0000
1000
0000
0001
0000
0100
0000
0010
0000
,
1000
0000
0100
0000
0010
0000
0001
0000
1000
0000
0001
0000
0100
0000
0001
0000
0010
0000
0100
0000
1000
0000
0001
0000
0100
0000
0010
0000
1000
0000
0100
0010
,
0001
0000
1000
0000
0001
0100
0010
1000
0100
0010
0001
1000
0010
1000
0100
0010
0001
0000
1000
0000
0100
0000
0010
0000
0001
0000
1000
0000
0100
0000
0010
0001
,
1000
0000
0000
0000
0000
0000
0000
0000
0000
0000
0000
0000
0001
0000
0000
0000
0000
0000
0000
0000
0000
0000
0000
0000
0100
0000
0000
0000
0000
0000
0010
0000
0000
0000
0000
0000
1000
0000
0000
0000
0000
0000
0100
0000
0000
0000
0000
0000
0010
0000
0000
0000
0000
0000
0001
0000
0000
0000
0000
0000
1000
0000
0000
0000
0000
0000
0001
0000
0000
0000
0000
0000
0100
0000
0000
0000
0000
0000
0001
0000
0000
0000
0000
0000
0010
0000
0000
0000
0000
0000
0100
0000
0000
0000
0000
0000
1000
0000
0000
0000
0000
0000
0000
0000
0000
0000
0000
0000
0000
0000
0000
0000
0100
0000
0000
0000
0000
0000
0000
0000
0000
0000
0000
0000
0000
0000
0000
0000
0010
0000
0000
0000
0000
0000
0000
0000
0000
0000
0000
0000
0000
0000
0000
0000
0001
0000
0000
0000
0000
0000
0000
0000
0000
0000
0000
0000
0000
0000
0000
0000
1000
0000
0000
0000
0000
0000
0000
0000
0000
0000
0000
0000
0000
0000
0000
0000
0001
0000
0000
0000
0000
0000
0000
0000
0000
0000
0000
0000
0000
0000
0000
0000
,
0100
0001
0010
0100
1000
0010
0100
0010
1000
0100
0010
0001
,
1000
0001
0100
0001
1000
0100
0010
0001
0100
0010
1000
0100
,
1000
0010
0100
0001
0010
0100
1000
0001
0100
0001
1000
0100
,
0010
0001
1000
0001
0010
0001
1000
0100
0010
0100
1000
0010
,
0100
0001
1000
0001
0010
0001
1000
0100
0010
0100
1000
0001
,
0100
0010
1000
0010
0100
0001
0010
0100
1000
0001
0100
0001
,
1000
0100
0010
0001
1000
0010
0100
0010
1000
0100
1000
0001
,
0010
0100
1000
0001
0100
0001
1000
0100
0010
0001
1000
0010
,
0100
0010
1000
0100
1000
0001
0100
0010
1000
0001
0010
0001
,
1000
0100
0010
0001
1000
0010
0100
0001
1000
0100
1000
0010
,
0100
0001
0010
0001
1000
0100
0010
0001
1000
0010
0100
0010
,
1000
0100
1000
0001
0100
0001
1000
0010
0100
0001
0010
0001
,
1000
0100
0010
0001
1000
0001
0100
0001
0010
0100
1000
0010
,
0100
0010
1000
0100
0010
0001
1000
0001
0100
0001
0010
0100
,
1000
0010
0100
0001
1000
0100
0010
0001
0100
0001
1000
0100
,
1000
0000
0000
0000
0000
0000
0000
0000
0000
0000
0000
0000
0000
0000
0000
0000
0010
0000
0000
0000
0000
0000
0000
0000
0000
0000
0000
0000
0000
0000
0000
0000
0100
0000
0000
0000
0000
0000
0000
0000
0000
0000
0000
0000
0000
0000
0000
0000
0001
0000
0000
0000
0000
0000
0000
0000
0000
0000
0000
0000
0000
0000
0000
0000
0010
0000
0000
0000
0000
0000
0000
0000
0000
0000
0000
0000
0000
0000
0000
0000
0100
0000
0000
0000
0000
0000
0000
0000
0000
0000
0000
0000
0000
0000
0000
0000
1000
0000
0000
0000
0000
0000
0001
0000
0000
0000
0000
0000
0100
0000
0000
0000
0000
0000
0001
0000
0000
0000
0000
0000
1000
0000
0000
0000
0000
0000
0010
0000
0000
0000
0000
0000
0100
0000
0000
0000
0000
0000
0010
0000
0000
0000
0000
0000
1000
0000
0000
0000
0000
0000
0100
0000
0000
0000
0000
0000
0010
0000
0000
0000
0000
0000
0001
0000
0000
0000
0000
0000
1000
0000
0000
0000
0000
0000
0010
0000
0000
0000
0000
0000
0100
0000
0000
0000
0000
0000
0010
0000
0000
0000
0000
0000
,
1000
0100
0010
0001
0100
0001
0010
0100
0010
0001
1000
0010
0100
0010
1000
0100
0010
0001
1000
0001
0100
0001
1000
0100
1000
0001
0100
0001
1000
0010
0100
0010
,
1000
0100
0010
0001
1000
0100
1000
0001
0100
0010
1000
0100
1000
0001
0010
0100
1000
0001
0100
0001
1000
0100
0010
0001
1000
0010
0100
0010
1000
0100
1000
0001
,
0100
0010
1000
0100
0010
0001
1000
0001
0100
0001
0010
0100
1000
0001
0100
0001
1000
0100
1000
0010
0100
0010
1000
0100
0010
0001
1000
0001
0100
0001
0010
0100
,
1000
0000
0000
0000
0000
0000
0010
0000
0000
0000
0000
0000
0100
0000
0000
0000
0000
0000
0001
0000
0000
0000
0000
0000
1000
0000
0000
0000
0000
0000
0100
0000
0000
0000
0000
0000
1000
0000
0000
0000
0000
0000
0001
0000
0000
0000
0000
0000
0100
0000
0000
0000
0000
0000
0001
0000
0000
0000
0000
0000
0010
0000
0000
0000
0000
0000
0100
0000
0000
0000
0000
0000
1000
0000
0000
0000
0000
0000
0001
0000
0000
0000
0000
0000
0100
0000
0000
0000
0000
0000
0001
0000
0000
0000
0000
0000
1000
0000
0000
0000
0000
0000
0000
0000
0000
0000
0000
0000
0000
0000
0000
0000
0001
0000
0000
0000
0000
0000
0000
0000
0000
0000
0000
0000
0000
0000
0000
0000
0100
0000
0000
0000
0000
0000
0000
0000
0000
0000
0000
0000
0000
0000
0000
0000
0001
0000
0000
0000
0000
0000
0000
0000
0000
0000
0000
0000
0000
0000
0000
0000
1000
0000
0000
0000
0000
0000
0000
0000
0000
0000
0000
0000
0000
0000
0000
0000
0010
0000
0000
0000
0000
0000
0000
0000
0000
0000
0000
0000
0000
0000
0000
0000
,
0100
0010
1000
0100
0010
0001
1000
0001
0100
0001
0010
0100
,
1000
0010
0100
0010
1000
0100
0010
0001
1000
0001
0100
0001
,
1000
0010
0100
0010
1000
0100
0010
0001
1000
0001
0100
0001
,
0010
0100
1000
0010
0100
0001
1000
0100
1000
0010
0100
0001
,
0010
0100
1000
0100
0010
0001
1000
0001
0100
0001
1000
0100
,
1000
0010
0100
0001
0010
0100
0010
0001
1000
0100
0010
0001
,
1000
0001
0100
0001
1000
0010
0100
0001
0010
0100
1000
0001
,
0100
0000
0000
0000
0001
0000
0000
0000
1000
0000
0000
0000
0100
0000
0000
0000
0010
0000
0000
0000
0001
0000
0000
0000
1000
0000
0000
0100
0000
0000
1000
0000
0000
0010
0000
0000
0100
0000
0000
0001
0000
0000
0010
0000
0000
0100
0000
0000
,
0010
0001
1000
0100
0010
0001
1000
0001
0100
0010
1000
0100
1000
0010
0100
0001
,
0010
0100
1000
0001
0100
0001
1000
0100
1000
0010
0100
0001
0010
0100
1000
0001
,
0100
0001
1000
0100
1000
0010
0100
0010
1000
0100
0010
0001
0100
0001
0010
0100
,
1000
0001
0100
0001
1000
0100
0010
0001
1000
0100
1000
0010
0100
0001
0010
0100
,
1000
0001
0100
0010
1000
0100
1000
0010
0100
0001
0010
0100
1000
0001
0100
0001
,
1000
0100
0010
0001
1000
0010
0100
0010
1000
0100
0010
0001
1000
0001
0100
0001
,
0010
0100
1000
0010
0100
0010
1000
0100
0010
0001
1000
0001
0100
0001
0010
0100
,
1000
0010
0100
0001
1000
0100
1000
0001
0010
0100
1000
0001
0100
0001
1000
0100
,
0010
0001
1000
0010
0100
0010
1000
0100
0010
0001
1000
0001
0100
0010
1000
0100
,
0010
0001
1000
0010
1000
0001
0010
0100
1000
0001
0100
0001
1000
0100
0010
0001
,
1000
0010
0100
0010
1000
0100
0010
0001
1000
0001
0100
0001
0010
0100
1000
0010
,
0100
0000
0000
0010
0000
0000
1000
0000
0000
0100
0000
0000
0010
0000
0000
0001
0000
0000
1000
0000
0000
0001
0000
0000
0010
0000
0000
0000
0001
0000
0000
0000
0100
0000
0000
0000
0001
0000
0000
0000
1000
0000
0000
0000
0100
0000
0000
0000
,
1000
0001
0100
0001
1000
0010
0100
0010
1000
0100
0010
0001
,
1000
0001
0100
0001
0010
0001
1000
0100
0010
0001
1000
0100
,
1000
0001
0100
0001
1000
0100
0010
0001
1000
0010
0100
0010
,
1000
0000
0000
0000
0001
0000
0000
0000
0100
0000
0000
0000
0001
0000
0000
0000
0010
0000
0000
0000
0100
0000
0000
0000
1000
0000
0000
0010
0000
0000
0100
0000
0000
0010
0000
0000
1000
0000
0000
0100
0000
0000
0010
0000
0000
0001
0000
0000
,
1000
0001
0100
0010
1000
0100
1000
0010
0100
0010
1000
0100
0010
0001
1000
0001
,
0100
0010
0100
0001
0010
0100
1000
0001
0100
0001
0010
0100
1000
0010
0100
0010
,
1000
0100
0010
0001
0100
0001
0010
0100
1000
0001
0100
0001
1000
0100
1000
0010
,
0100
0001
0010
0001
1000
0100
0010
0001
1000
0010
0100
0010
1000
0100
1000
0001
,
0100
0010
1000
0100
0010
0100
1000
0010
0100
0001
0010
0001
1000
0100
0010
0100
,
1000
0010
0100
0001
0010
0001
1000
0100
0010
0001
1000
0001
0100
0010
1000
0100
,
1000
0010
0100
0001
0010
0100
1000
0001
0100
0001
1000
0100
0010
0001
1000
0010
,
0100
0010
1000
0100
0010
0001
1000
0001
0100
0010
1000
0100
1000
0010
0100
0001
,
0010
0100
1000
0001
0100
0010
1000
0100
1000
0001
0100
0010
0100
0001
0010
0100
,
1000
0001
0100
0001
1000
0100
0010
0100
1000
0010
0100
0001
0010
0001
1000
0100
,
1000
0001
0100
0010
1000
0100
0010
0100
1000
0010
0100
0001
0010
0001
1000
0100
,
0010
0100
1000
0001
0100
0001
1000
0100
1000
0010
0100
0001
0010
0001
0100
0001
,
1000
0001
0100
0010
1000
0100
0010
0100
1000
0001
0100
0001
1000
0100
0010
0100
,
1000
0010
0100
0010
1000
0100
0010
0001
1000
0001
0100
0010
0100
0001
0010
0100
,
1000
0001
0100
0001
0010
0100
0010
0001
1000
0010
0100
0010
1000
0100
0010
0100
,
1000
0001
0100
0001
1000
0100
0010
0001
2000
3000
0000
0000
0000
0200
0300
0000
,
0000
0000
0020
0000
0030
0000
0000
0000
0000
0000
0002
0000
0003
0000
0200
0000
0300
0000
0020
2030
3200
0300
0000
0000
0000
0000
0000
0000
0000
0000
0000
0000
,
0000
0000
0000
0000
0000
0000
0000
0000
0020
0032
2003
3000
0000
0000
0000
0000
0000
0000
0000
0000
0020
0230
0302
0023
0230
0300
0000
0000
0000
0000
0000
0000
,
0000
0000
0000
0000
0000
0000
0000
0000
2000
0000
3002
0000
0203
0320
2030
3200
0320
0032
2003
3000
0000
0000
MMM2
0000
0003
0000
0000
0000
0000
0000
0000
0000
,
0000
0000
0000
0000
1000
0001
0200
0000
,
0320
0000
2030
0000
3100
0010
0001
0100
,
0001
0010
0001
1000
0100
0010
0001
1000
,
0010
0100
0010
1000
0001
0100
0001
0010
,
0001
0000
1000
0000
0100
0000
1000
0000
0001
0100
0010
1000
0100
1000
0010
0100
,
0001
1000
0100
1000
0010
0100
0001
1000
0100
1000
0010
0100
0001
0010
0100
1000
,
0001
0100
0001
1000
0100
0010
0001
1000
0010
1000
0001
0010
0100
1000
0001
0100
,
0001
1000
0100
0010
0001
1000
0010
0100
0001
1000
0100
1000
0010
0100
0001
0010
,
0100
1000
0001
0100
0001
1000
0100
0010
0001
1000
0100
1000
0020
0000
0000
0000
,
0230
0000
0302
0000
0013
0100
1000
0001
,
0001
1000
0100
1000
0010
0100
0001
0010
,
0001
1000
0100
0010
0001
1000
0010
0100
,
0001
0010
0001
1000
0001
0100
0020
0000
,
2030
0000
3200
0000
0310
0001
0100
0001
,
0010
0001
1000
0100
0010
0001
1000
0010
,
0100
0010
1000
0001
0100
0001
0010
0001
,
1000
0100
0010
0001
1000
0001
0100
0001
,
0010
0001
1000
0100
0010
0001
1000
0010
,
0100
0010
1000
0100
0010
0001
1000
0001
,
0100
0001
0010
0001
1000
0100
0010
0001
,
1000
0010
0100
0001
0010
0100
0010
0001
,
1000
0100
0010
0100
1000
0001
0100
0001
,
1000
0010
0100
0010
1000
0100
0010
0001
,
1000
0001
0100
0001
0010
0001
1000
0100
,
0010
0000
0000
0000
0001
0000
0000
0000
1000
0000
0000
0000
0010
0000
0000
0000
0100
0001
0010
0100
1000
0001
0100
0001
1000
0100
1000
0010
0100
0001
0010
0100
,
1000
0001
0100
0001
1000
0100
0010
0001
1000
0010
0100
0010
1000
0100
0010
0001
1000
0000
0001
0000
1000
0000
0010
0000
0100
0000
0001
0000
0010
0000
0001
0000
,
1000
0100
0010
0100
1000
0010
0100
0001
0010
0001
1000
0100
1000
0001
0100
0001
,
0010
0100
1000
0010
0100
0001
1000
0100
1000
0001
0100
0010
1000
0100
0010
0001
,
1000
0000
0001
0000
0010
0000
0001
0000
1000
0000
0010
0000
0100
0000
0010
0000
1000
0100
1000
0010
0100
0001
0010
0100
1000
0001
0100
0001
1000
0100
1000
0010
,
0100
0001
0010
0100
1000
0001
0100
0001
1000
0100
0010
0001
1000
0010
0100
0010
1000
0000
0001
0000
0000
0000
0100
0000
0010
0000
1000
0000
0100
0000
0000
0000
,
0010
0001
1000
0000
0010
0100
0001
0010
0001
1000
0100
0010
0001
1000
0100
1000
0001
0000
0100
0000
0010
0000
1000
0000
0100
0000
1000
0000
0010
0000
0100
0000
,
0001
0010
0100
1000
0001
1000
0100
1000
0010
0100
0001
0010
0001
1000
0100
0010
,
0001
1000
0010
0100
0001
0010
0001
1000
0100
1000
0001
0100
0010
1000
0100
0010
,
0001
1000
0010
1000
0001
0010
0100
1000
0001
0100
0000
0010
1000
0100
0010
0000
,
0001
0100
0010
0000
1000
0100
1000
0010
0100
0001
0010
0001
1000
0100
0010
0001
1000
0000
0001
0000
0100
0000
0001
0000
1000
0000
0010
0000
0100
0000
0001
0000
,
0010
0100
1000
0001
0100
0010
1000
0100
1000
0010
0100
0001
0010
0100
1000
0001
,
0100
0000
0000
0001
0000
0000
1000
0000
0000
0100
0000
0000
0010
0000
0000
0001
0000
0000
1000
0000
0000
0001
0000
0000
1000
0000
0000
0000
0100
0000
0000
0000
1000
0000
0000
0000
0010
0000
0000
0000
0100
0000
0000
0000
0001
0000
0000
0000
,
0010
0001
1000
0100
0010
0001
1000
0010
0100
0010
1000
0100
,
1000
0001
0100
0001
0010
0001
1000
0100
0010
0001
1000
0010
,
0100
0010
1000
0100
0010
0001
1000
0001
0100
0001
0010
0100
,
1000
0001
0100
0001
1000
0100
1000
0010
0100
0001
0010
0100
,
1000
0001
0100
0010
1000
0100
0010
0100
1000
0010
0100
0001
,
0010
0001
1000
0100
0010
0001
1000
0001
0100
0001
0010
0100
,
1000
0010
0100
0010
1000
0100
0010
0001
1000
0001
0100
0001
,
0010
0001
1000
0100
0010
0001
1000
0010
0100
0010
1000
0100
,
1000
0001
0100
0001
0010
0100
1000
0001
0100
0001
1000
0100
,
1000
0010
0100
0001
0010
0100
1000
0001
0100
0001
1000
0100
,
0010
0001
1000
0010
0100
0010
1000
0100
0010
0001
1000
0001
,
0100
0001
0010
0100
1000
0010
0100
0001
1000
0100
1000
0010
,
0100
0001
0010
0100
1000
0001
0100
0001
0010
0100
1000
0010
,
0100
0010
1000
0100
0010
0001
1000
0001
0100
0001
0010
0100
,
1000
0010
0100
0001
1000
0100
1000
0001
0100
0010
1000
0100
,
0010
0000
0001
0000
1000
0000
0010
0000
1000
0000
0001
0000
0100
0000
0000
0010
0000
0000
1000
0000
0000
0100
0000
0000
,
1000
0010
0100
0001
0010
0100
0010
0001
,
1000
0010
0100
0001
1000
0100
1000
0001
,
0100
0010
1000
0100
1000
0010
0100
0010
,
1000
0100
0010
0001
1000
0001
0100
0010
,
0100
0001
0010
0100
1000
0001
0100
0001
,
1000
0100
0010
0001
1000
0010
0100
0010
,
1000
0100
1000
0001
0100
0010
1000
0001
,
0010
0100
0010
0001
1000
0010
0100
0001
,
0010
0001
1000
0100
0010
0100
1000
0010
,
0100
0001
1000
0100
1000
0001
0100
0010
,
1000
0001
0010
0001
1000
0100
0010
0100
,
1000
0010
0100
0001
0010
0001
0100
0001
,
1000
0100
0010
0100
1000
0010
0100
0001
,
0010
0001
1000
0100
0010
0100
1000
0010
,
0100
0001
0010
0100
1000
0001
0100
0001
,
1000
0010
0100
0010
1000
0100
0010
0001
,
1000
0001
0100
0001
0010
0100
1000
0010
,
1000
0100
1000
0001
0100
0010
0100
0001
,
0010
0100
1000
0001
0100
0001
1000
0100
,
0010
0100
1000
0010
0100
0001
0010
0001
,
1000
0100
0010
0001
1000
0001
0100
0001
,
0010
0100
1000
0010
0100
0010
1000
0100
,
0010
0001
0100
0010
0100
0001
0010
0100
,
1000
0001
0100
0001
1000
0100
1000
0001
,
0010
0100
1000
0010
0100
0010
1000
0100
,
0010
0001
1000
0001
0100
0001
0010
0100
,
1000
0010
0100
0010
1000
0100
0010
0001
,
1000
0001
0100
0001
1000
0010
0100
0010
,
1000
0100
0010
0001
1000
0100
1000
0001
,
0010
0100
0010
0001
1000
0100
1000
0001
,
0100
0001
1000
0010
1000
0001
0010
0001
,
1000
0100
1000
0001
0200
0300
0000
0000
;

//---------------dance-single - ----------------
#NOTES:
     dance-single:
     :
     Hard:
     21:
     1.000,1.000,0.000,0.163,1.000,2201.000,0.000,30.000,3.000,0.000:

0000
0000
0000
0000
0000
0000
0000
0000
1000
0100
1000
0010
0100
0001
0010
0100
,
1000
0000
0001
0000
0100
0000
0001
0000
0010
0000
0100
0000
1000
0001
0100
0010
1000
0000
0100
0000
0010
0000
0001
0000
1000
0000
0010
0000
1000
0000
0001
0000
,
0100
0010
1000
0100
0010
0001
1000
0010
0100
0001
0010
0100
1000
0001
0100
0001
,
1000
0000
0100
0000
0010
0001
1000
0010
0100
0010
1000
0100
0010
0001
1000
0010
0100
0000
0001
0000
1000
0000
0100
0000
0010
0000
0100
0000
1000
0000
0001
0000
,
1000
0000
0100
0000
0010
0001
0100
0001
0010
0100
1000
0010
0100
0010
1000
0100
0010
0000
0001
0000
0100
0000
0001
0000
0010
0000
0100
0000
1000
0000
0001
0000
,
0100
0000
0001
0000
1000
0000
0100
0000
0010
0000
0001
0000
0100
0010
1000
0100
0010
0000
0001
0000
1000
0000
0100
0000
1000
0000
0001
0000
0100
0000
0010
0000
,
1000
0000
0100
0000
0010
0000
0001
0000
1000
0000
0001
0000
0100
0000
0001
0000
0010
0000
0100
0000
1000
0000
0001
0000
0100
0000
0010
0000
1000
0000
0100
0010
,
0001
0000
1000
0000
0001
0100
0010
1000
0100
0010
0001
1000
0010
1000
0100
0010
0001
0000
1000
0000
0100
0000
0010
0000
0001
0000
1000
0000
0100
0000
0010
0001
,
1000
0000
0001
0000
0100
0010
1000
0100
0010
0001
1000
0001
0100
0001
0010
0100
1000
0000
0001
0000
0100
0000
0001
0000
1000
0000
0010
0000
0100
0000
0010
0000
,
1000
0100
0010
0001
1000
0010
0100
0001
0010
0100
1000
0001
0100
0001
0010
0100
,
1000
0010
0100
0010
1000
0001
0100
0010
1000
0100
1000
0001
0100
0010
1000
0100
,
1000
0010
0100
0001
0010
0100
1000
0001
0100
0001
1000
0100
0010
0001
1000
0010
,
0100
0010
1000
0001
0100
0010
1000
0100
1000
0001
0100
0010
1000
0001
0010
0100
,
1000
0001
0100
0010
1000
0100
1000
0010
0100
0001
1000
0010
0100
0001
0010
0100
,
0010
0001
1000
0100
0010
0001
1000
0001
0100
0010
1000
0100
1000
0001
0100
0010
,
1000
0001
0010
0001
1000
0100
0010
0001
1000
0010
0100
0001
1000
0100
1000
0001
,
0100
0010
1000
0001
0010
0001
1000
0001
0100
0010
1000
0100
1000
0010
0100
0001
,
0010
0100
0010
0001
1000
0001
0100
0010
1000
0100
1000
0010
0100
0001
0010
0100
,
0010
0001
1000
0001
0100
0010
1000
0100
1000
0010
0100
0001
1000
0010
0100
0001
,
0010
0001
1000
0010
0100
0001
1000
0100
1000
0001
0100
0010
1000
0100
1000
0010
,
0100
0001
1000
0010
1000
0001
0010
0001
1000
0100
1000
0001
0100
0010
1000
0100
,
1000
0001
0100
0010
1000
0100
1000
0010
0100
0001
0010
0100
1000
0001
0100
0001
,
1000
0100
0010
0001
1000
0010
1000
0001
0100
0010
1000
0100
1000
0010
0100
0001
,
1000
0001
0010
0001
1000
0100
0010
0001
1000
0010
0100
0001
1000
0100
1000
0001
,
0100
0000
0010
0000
1000
0000
0001
0000
0100
0000
0001
0000
0010
0000
0100
0000
1000
0001
0100
0001
1000
0010
0100
0010
1000
0100
0010
0001
1000
0010
0100
0010
,
1000
0100
0010
0001
0100
0001
0010
0100
0010
0001
1000
0010
0100
0010
1000
0100
0010
0001
1000
0001
0100
0001
1000
0100
1000
0001
0100
0001
1000
0010
0100
0010
,
1000
0100
0010
0001
1000
0100
1000
0001
0100
0010
1000
0100
1000
0001
0010
0100
1000
0001
0100
0001
1000
0100
0010
0001
1000
0010
0100
0010
1000
0100
1000
0001
,
0100
0010
1000
0100
0010
0001
1000
0001
0100
0001
0010
0100
1000
0001
0100
0001
1000
0100
1000
0010
0100
0010
1000
0100
0010
0001
1000
0001
0100
0001
0010
0100
,
1000
0000
0000
0000
0000
0000
0010
0000
0000
0000
0000
0000
0100
0000
0000
0000
0000
0000
0001
0000
0000
0000
0000
0000
1000
0000
0000
0000
0000
0000
0100
0000
0000
0000
0000
0000
1000
0000
0000
0000
0000
0000
0001
0000
0000
0000
0000
0000
0100
0000
0000
0000
0000
0000
0001
0000
0000
0000
0000
0000
0010
0000
0000
0000
0000
0000
0100
0000
0000
0000
0000
0000
1000
0000
0000
0000
0000
0000
0001
0000
0000
0000
0000
0000
0100
0000
0000
0000
0000
0000
0001
0000
0000
0000
0000
0000
1000
0000
0000
0000
0000
0000
0000
0000
0000
0000
0000
0000
0000
0000
0000
0000
0001
0000
0000
0000
0000
0000
0000
0000
0000
0000
0000
0000
0000
0000
0000
0000
0100
0000
0000
0000
0000
0000
0000
0000
0000
0000
0000
0000
0000
0000
0000
0000
0001
0000
0000
0000
0000
0000
0000
0000
0000
0000
0000
0000
0000
0000
0000
0000
1000
0000
0000
0000
0000
0000
0000
0000
0000
0000
0000
0000
0000
0000
0000
0000
0010
0000
0000
0000
0000
0000
0000
0000
0000
0000
0000
0000
0000
0000
0000
0000
,
0100
0010
1000
0100
0010
0001
1000
0001
0100
0001
0010
0100
,
1000
0010
0100
0010
1000
0100
0010
0001
1000
0001
0100
0001
,
1000
0010
0100
0010
1000
0100
0010
0001
1000
0001
0100
0001
,
0010
0100
1000
0010
0100
0001
1000
0100
1000
0010
0100
0001
,
0010
0100
1000
0100
0010
0001
1000
0001
0100
0001
1000
0100
,
1000
0010
0100
0001
0010
0100
0010
0001
1000
0100
0010
0001
,
1000
0001
0100
0001
1000
0010
0100
0001
0010
0100
1000
0001
,
0100
0000
0000
0000
0001
0000
0000
0000
1000
0000
0000
0000
0100
0000
0000
0000
0010
0000
0000
0000
0001
0000
0000
0000
1000
0000
0000
0100
0000
0000
1000
0000
0000
0010
0000
0000
0100
0000
0000
0001
0000
0000
0010
0000
0000
0100
0000
0000
,
0010
0001
1000
0100
0010
0001
1000
0001
0100
0010
1000
0100
1000
0010
0100
0001
,
0010
0100
1000
0001
0100
0001
1000
0100
1000
0010
0100
0001
0010
0100
1000
0001
,
0100
0001
1000
0100
1000
0010
0100
0010
1000
0100
0010
0001
0100
0001
0010
0100
,
1000
0001
0100
0001
1000
0100
0010
0001
1000
0100
1000
0010
0100
0001
0010
0100
,
1000
0001
0100
0010
1000
0100
1000
0010
0100
0001
0010
0100
1000
0001
0100
0001
,
1000
0100
0010
0001
1000
0010
0100
0010
1000
0100
0010
0001
1000
0001
0100
0001
,
0010
0100
1000
0010
0100
0010
1000
0100
0010
0001
1000
0001
0100
0001
0010
0100
,
1000
0010
0100
0001
1000
0100
1000
0001
0010
0100
1000
0001
0100
0001
1000
0100
,
0010
0001
1000
0010
0100
0010
1000
0100
0010
0001
1000
0001
0100
0010
1000
0100
,
0010
0001
1000
0010
1000
0001
0010
0100
1000
0001
0100
0001
1000
0100
0010
0001
,
1000
0010
0100
0010
1000
0100
0010
0001
1000
0001
0100
0001
0010
0100
1000
0010
,
0100
0010
1000
0100
0010
0001
1000
0001
0100
0010
1000
0100
1000
0001
0100
0010
,
1000
0001
0010
0001
1000
0100
1000
0001
0100
0010
1000
0100
1000
0001
0100
0010
,
1000
0001
0010
0001
1000
0100
0010
0001
1000
0001
0100
0010
1000
0100
1000
0010
,
0100
0001
0010
0100
1000
0001
0100
0010
1000
0001
0010
0001
1000
0100
1000
0010
,
0100
0001
1000
0100
1000
0001
0100
0010
1000
0010
0100
0010
1000
0100
0010
0001
,
1000
0001
0100
0010
1000
0100
1000
0010
0100
0010
1000
0100
0010
0001
1000
0001
,
0100
0010
0100
0001
0010
0100
1000
0001
0100
0001
0010
0100
1000
0010
0100
0010
,
1000
0100
0010
0001
0100
0001
0010
0100
1000
0001
0100
0001
1000
0100
1000
0010
,
0100
0001
0010
0001
1000
0100
0010
0001
1000
0010
0100
0010
1000
0100
1000
0001
,
0100
0010
1000
0100
0010
0100
1000
0010
0100
0001
0010
0001
1000
0100
0010
0100
,
1000
0010
0100
0001
0010
0001
1000
0100
0010
0001
1000
0001
0100
0010
1000
0100
,
1000
0010
0100
0001
0010
0100
1000
0001
0100
0001
1000
0100
0010
0001
1000
0010
,
0100
0010
1000
0100
0010
0001
1000
0001
0100
0010
1000
0100
1000
0010
0100
0001
,
0010
0100
1000
0001
0100
0010
1000
0100
1000
0001
0100
0010
0100
0001
0010
0100
,
1000
0001
0100
0001
1000
0100
0010
0100
1000
0010
0100
0001
0010
0001
1000
0100
,
1000
0001
0100
0010
1000
0100
0010
0100
1000
0010
0100
0001
0010
0001
1000
0100
,
0010
0100
1000
0001
0100
0001
1000
0100
1000
0010
0100
0001
0010
0001
0100
0001
,
1000
0001
0100
0010
1000
0100
0010
0100
1000
0001
0100
0001
1000
0100
0010
0100
,
1000
0010
0100
0010
1000
0100
0010
0001
1000
0001
0100
0010
0100
0001
0010
0100
,
1000
0001
0100
0001
0010
0100
0010
0001
1000
0010
0100
0010
1000
0100
0010
0100
,
1000
0001
0100
0001
1000
0100
0010
0001
2000
3000
0000
0000
0000
0200
0300
0000
,
0000
0000
0020
0000
0030
0000
0000
0000
0000
0000
0002
0000
0003
0000
0200
0000
0300
0000
0020
2030
3200
0300
0000
0000
0000
0000
0000
0000
0000
0000
0000
0000
,
0000
0000
0000
0000
0000
0000
0000
0000
0020
0032
2003
3000
0000
0000
0000
0000
0000
0000
0000
0000
0020
0230
0302
0023
0230
0300
0000
0000
0000
0000
0000
0000
,
0000
0000
0000
0000
0000
0000
0000
0000
2000
0000
3002
0000
0203
0320
2030
3200
0320
0032
2003
3000
0000
0000
MMM2
0000
0003
0000
0000
0000
0000
0000
0000
0000
,
0000
0000
0000
0000
1000
0001
0200
0000
,
0320
0000
2030
0000
3100
0010
0001
0100
,
0001
0010
0001
1000
0100
0010
0001
1000
,
0010
0100
0010
1000
0001
0100
0001
0010
,
0001
0000
1000
0000
0100
0000
1000
0000
0001
0100
0010
1000
0100
1000
0010
0100
,
0001
1000
0100
1000
0010
0100
0001
1000
0100
1000
0010
0100
0001
0010
0100
1000
,
0001
0000
0000
0100
0000
0000
0001
0000
0000
1000
0000
0000
0100
0000
0000
0010
0000
0000
0001
0000
0000
1000
0000
0000
0010
0000
0000
0000
0100
0000
0000
0000
0001
0000
0000
0000
1000
0000
0000
0000
0100
0000
0000
0000
1000
0000
0000
0000
,
0001
0100
0010
1000
0100
1000
0010
0100
0001
0010
0100
1000
,
0001
0000
0000
0000
0100
0000
0000
0000
0001
0000
0000
0000
1000
0000
0000
0000
0100
0000
0000
0000
0010
0000
0000
0000
0001
0000
0000
1000
0000
0000
0100
0000
0000
1000
0000
0000
0001
0000
0000
0100
0000
0000
0001
0000
0000
1000
0000
0000
,
0010
0100
0001
0010
0100
1000
0001
0100
0001
1000
0100
0010
0001
1000
0001
0100
,
0010
1000
0100
1000
0010
0100
0001
0010
0100
1000
0001
0100
0001
1000
0100
0010
,
0100
1000
0001
0100
0001
1000
0010
0100
0001
0010
0100
1000
0001
0100
0010
1000
,
0100
1000
0001
0100
0010
1000
0001
0010
0100
1000
0001
0100
0001
1000
0100
1000
,
0010
0100
0001
0010
0100
1000
0001
0100
0001
1000
0100
0010
0001
1000
0010
0100
,
0010
1000
0100
0010
0001
1000
0001
0100
0001
0010
0100
1000
0010
0100
0001
1000
,
0001
0100
0010
1000
0100
0010
0100
1000
0010
0100
0001
0010
0100
1000
0001
0100
,
0001
1000
0100
0010
0001
1000
0010
0100
0001
0010
0100
0010
0001
1000
0100
0010
,
0001
1000
0010
0100
0010
1000
0100
1000
0001
0100
0010
1000
0100
0010
0001
1000
,
0010
0100
0001
0010
0001
1000
0100
0010
0001
1000
0010
0100
0010
1000
0001
0100
,
0010
1000
0100
1000
0001
0100
0010
1000
0001
0010
0100
0010
0001
1000
0001
0100
,
0010
1000
0100
1000
0010
0100
0001
0010
0100
0010
0001
1000
0001
0100
0010
1000
,
0100
1000
0010
0100
0001
0010
0100
1000
0001
0100
0001
1000
0100
0010
0001
1000
,
0010
0100
0001
1000
0100
1000
0001
0100
0010
1000
0100
1000
0010
0100
0001
0010
,
0100
0010
0001
1000
0100
0010
0001
1000
0010
0100
0001
1000
0100
1000
0001
0100
,
0010
0000
1000
0000
0100
0000
1000
0000
0010
0000
0100
0000
0001
0000
1000
0000
0100
1000
0010
0100
0001
0010
0100
1000
0001
0100
0001
1000
0100
0010
0100
1000
,
0010
0100
0001
0010
0001
1000
0100
0010
0001
1000
0010
0100
0001
1000
0100
1000
0001
0000
0100
0000
0001
0000
1000
0000
0100
0000
1000
0000
0010
0000
0100
0000
,
0001
0010
0100
1000
0001
0100
0001
1000
0100
1000
0010
0100
0001
0010
0100
1000
,
0001
0100
0001
1000
0100
1000
0010
0100
0001
0010
0100
0010
0001
1000
0100
0010
,
0001
0000
1000
0000
0001
0000
0100
0000
0001
0000
0010
0000
0100
0000
1000
0000
0001
0100
0001
0010
0100
1000
0010
0100
0010
1000
0100
0010
0001
1000
0001
0100
,
0001
0010
0100
1000
0010
0100
0010
1000
0100
0010
0001
1000
0001
0100
0001
0010
0100
1000
0001
0000
0000
0000
0100
0000
0010
0000
1000
0000
0100
0000
0000
0000
,
0010
0001
1000
0000
0010
0100
0001
0010
0001
1000
0100
0010
0001
1000
0100
1000
0001
0000
0100
0000
0010
0000
1000
0000
0100
0000
1000
0000
0010
0000
0100
0000
,
0001
0010
0100
1000
0001
1000
0100
1000
0010
0100
0001
0010
0001
1000
0100
0010
,
0001
1000
0010
0100
0001
0010
0001
1000
0100
1000
0001
0100
0010
1000
0100
0010
,
0001
1000
0010
1000
0001
0010
0100
1000
0001
0100
0000
0010
1000
0100
0010
0000
,
0001
0100
0010
0000
1000
0100
1000
0010
0100
0001
0010
0001
1000
0100
0010
0001
1000
0000
0001
0000
0100
0000
0001
0000
1000
0000
0010
0000
0100
0000
0001
0000
,
0010
0100
1000
0001
0100
0010
1000
0100
1000
0010
0100
0001
0010
0100
1000
0001
,
0100
0000
0000
0001
0000
0000
1000
0000
0000
0100
0000
0000
0010
0000
0000
0001
0000
0000
1000
0000
0000
0001
0000
0000
1000
0000
0000
0000
0100
0000
0000
0000
1000
0000
0000
0000
0010
0000
0000
0000
0100
0000
0000
0000
0001
0000
0000
0000
,
0010
0001
1000
0100
0010
0001
1000
0010
0100
0010
1000
0100
,
1000
0001
0100
0001
0010
0001
1000
0100
0010
0001
1000
0010
,
0100
0010
1000
0100
0010
0001
1000
0001
0100
0001
0010
0100
,
1000
0001
0100
0001
1000
0100
1000
0010
0100
0001
0010
0100
,
1000
0001
0100
0010
1000
0100
0010
0100
1000
0010
0100
0001
,
0010
0001
1000
0100
0010
0001
1000
0001
0100
0001
0010
0100
,
1000
0010
0100
0010
1000
0100
0010
0001
1000
0001
0100
0001
,
0010
0001
1000
0100
0010
0001
1000
0010
0100
0010
1000
0100
,
1000
0001
0100
0001
0010
0100
1000
0001
0100
0001
1000
0100
,
1000
0010
0100
0001
0010
0100
1000
0001
0100
0001
1000
0100
,
0010
0001
1000
0010
0100
0010
1000
0100
0010
0001
1000
0001
,
0100
0001
0010
0100
1000
0010
0100
0001
1000
0100
1000
0010
,
0100
0001
0010
0100
1000
0001
0100
0001
0010
0100
1000
0010
,
0100
0010
1000
0100
0010
0001
1000
0001
0100
0001
0010
0100
,
1000
0010
0100
0001
1000
0100
1000
0001
0100
0010
1000
0100
,
0010
0000
0001
0000
1000
0000
0010
0000
1000
0000
0001
0000
0100
0000
0000
0010
0000
0000
1000
0000
0000
0100
0000
0000
,
1000
0010
0100
0001
0010
0100
0010
0001
,
1000
0010
0100
0001
1000
0100
1000
0001
,
0100
0010
1000
0100
1000
0010
0100
0010
,
1000
0100
0010
0001
1000
0001
0100
0010
,
0100
0001
0010
0100
1000
0001
0100
0001
,
1000
0100
0010
0001
1000
0010
0100
0010
,
1000
0100
1000
0001
0100
0010
1000
0001
,
0010
0100
0010
0001
1000
0010
0100
0001
,
0010
0001
1000
0100
0010
0100
1000
0010
,
0100
0001
1000
0100
1000
0001
0100
0010
,
1000
0001
0010
0001
1000
0100
0010
0100
,
1000
0010
0100
0001
0010
0001
0100
0001
,
1000
0100
0010
0100
1000
0010
0100
0001
,
0010
0001
1000
0100
0010
0100
1000
0010
,
0100
0001
0010
0100
1000
0001
0100
0001
,
1000
0010
0100
0010
1000
0100
0010
0001
,
1000
0001
0100
0001
0010
0100
1000
0010
,
1000
0100
1000
0001
0100
0010
0100
0001
,
0010
0100
1000
0001
0100
0001
1000
0100
,
0010
0100
1000
0010
0100
0001
0010
0001
,
1000
0100
0010
0001
1000
0001
0100
0001
,
0010
0100
1000
0010
0100
0010
1000
0100
,
0010
0001
0100
0010
0100
0001
0010
0100
,
1000
0001
0100
0001
1000
0100
1000
0001
,
0010
0100
1000
0010
0100
0010
1000
0100
,
0010
0001
1000
0001
0100
0001
0010
0100
,
1000
0010
0100
0010
1000
0100
0010
0001
,
1000
0001
0100
0001
1000
0010
0100
0010
,
1000
0100
0010
0001
1000
0100
1000
0001
,
0010
0100
0010
0001
1000
0100
1000
0001
,
0100
0001
1000
0010
1000
0001
0010
0001
,
1000
0100
1000
0001
0200
0300
0000
0000
;

//---------------dance-single - ----------------
#NOTES:
     dance-single:
     :
     Challenge:
     24:
     1.000,1.000,0.000,0.163,1.000,2543.000,0.000,30.000,3.000,0.000:

0000
0000
0000
0000
0000
0000
0000
0000
0000
0000
0000
0000
0000
0000
0000
0000
1000
0100
0010
0001
1000
0010
0100
0010
1000
0100
0010
0001
1000
0001
0100
0001
,
0010
0100
1000
0010
0100
0001
1000
0100
1000
0001
0100
0010
1000
0100
0010
0001
1000
0010
1000
0001
0010
0001
1000
0100
0010
0001
1000
0010
0100
0001
0010
0001
,
1000
0100
0010
0001
1000
0100
1000
0001
0100
0010
1000
0100
1000
0001
0100
0001
0010
0100
1000
0001
0100
0001
1000
0100
1000
0010
0100
0001
0010
0100
1000
0001
,
0100
0001
1000
0100
0010
0001
1000
0001
0010
0100
1000
0001
0100
0001
1000
0100
1000
0001
0100
0001
0010
0100
1000
0010
0100
0010
1000
0100
0010
0001
1000
0001
,
0100
0001
0010
0100
1000
0010
0100
0010
1000
0100
0010
0001
1000
0001
0100
0001
0010
0100
1000
0001
0100
0001
1000
0100
0010
0001
1000
0010
0100
0010
1000
0100
,
1000
0001
0100
0010
1000
0100
1000
0001
0100
0001
0010
0100
1000
0010
0100
0010
1000
0100
0010
0001
1000
0001
0100
0001
0010
0100
1000
0010
0100
0010
1000
0100
,
0010
0001
1000
0001
0100
0001
1000
0100
1000
0010
0100
0001
0010
0100
1000
0001
0100
0001
1000
0100
0010
0001
1000
0010
1000
0001
0010
0001
1000
0100
0010
0001
,
1000
0001
0100
0010
1000
0100
1000
0010
0100
0001
1000
0100
1000
0001
0100
0010
1000
0001
0010
0001
1000
0001
0100
0010
1000
0100
1000
0001
0100
0010
1000
0001
,
0010
0001
1000
0001
0100
0010
1000
0100
1000
0010
0100
0001
0010
0100
1000
0001
0100
0000
0010
0000
0100
0000
0001
0000
1000
0000
0010
0000
0100
0000
0010
0000
,
1000
0100
0010
0001
1000
0010
0100
0001
0010
0100
1000
0001
0100
0001
0010
0100
,
1000
0010
0100
0010
1000
0001
0100
0010
1000
0100
1000
0001
0100
0010
1000
0100
,
1000
0010
0100
0001
0010
0100
1000
0001
0100
0001
1000
0100
0010
0001
1000
0010
,
0100
0010
1000
0001
0100
0010
1000
0100
1000
0001
0100
0010
1000
0001
0010
0100
,
1000
0001
0100
0010
1000
0100
1000
0010
0100
0001
1000
0010
0100
0001
0010
0100
,
0010
0001
1000
0100
0010
0001
1000
0001
0100
0010
1000
0100
1000
0001
0100
0010
,
1000
0001
0010
0001
1000
0100
0010
0001
1000
0010
0100
0001
1000
0100
1000
0001
,
0100
0010
1000
0001
0010
0001
1000
0001
0100
0010
1000
0100
1000
0010
0100
0001
,
0010
0100
0010
0001
1000
0001
0100
0010
1000
0100
1000
0010
0100
0001
0010
0100
,
0010
0001
1000
0001
0100
0010
1000
0100
1000
0010
0100
0001
1000
0010
0100
0001
,
0010
0001
1000
0010
0100
0001
1000
0100
1000
0001
0100
0010
1000
0100
1000
0010
,
0100
0001
1000
0010
1000
0001
0010
0001
1000
0100
1000
0001
0100
0010
1000
0100
,
1000
0001
0100
0010
1000
0100
1000
0010
0100
0001
0010
0100
1000
0001
0100
0001
,
1000
0100
0010
0001
1000
0010
1000
0001
0100
0010
1000
0100
1000
0010
0100
0001
,
1000
0001
0010
0001
1000
0100
0010
0001
1000
0010
0100
0001
1000
0100
1000
0001
,
0100
0000
0010
0000
1000
0000
0001
0000
0100
0000
0001
0000
0010
0000
0100
0000
1000
0001
0100
0001
1000
0010
0100
0010
1000
0100
0010
0001
1000
0010
0100
0010
,
1000
0100
0010
0001
0100
0001
0010
0100
0010
0001
1000
0010
0100
0010
1000
0100
0010
0001
1000
0001
0100
0001
1000
0100
1000
0001
0100
0001
1000
0010
0100
0010
,
1000
0100
0010
0001
1000
0100
1000
0001
0100
0010
1000
0100
1000
0001
0010
0100
1000
0001
0100
0001
1000
0100
0010
0001
1000
0010
0100
0010
1000
0100
1000
0001
,
0100
0010
1000
0100
0010
0001
1000
0001
0100
0001
0010
0100
1000
0001
0100
0001
1000
0100
1000
0010
0100
0010
1000
0100
0010
0001
1000
0001
0100
0001
0010
0100
,
1000
0010
0100
0001
1000
0100
1000
0001
0100
0001
0010
0100
1000
0001
0100
0001
1000
0000
0100
0000
1000
0000
0010
0000
0100
0000
0001
0000
0010
0000
0100
0000
,
1000
0001
0100
0010
1000
0100
1000
0001
0100
0010
1000
0001
0010
0001
1000
0100
,
1000
0001
0100
0010
1000
0001
0010
0001
1000
0100
1000
0010
0100
0001
1000
0100
,
1000
0001
0100
0010
1000
0001
0010
0100
1000
0001
0100
0010
1000
0001
0100
0010
,
1000
0100
1000
0001
0100
0010
1000
0001
0010
0001
1000
0100
1000
0010
0100
0001
,
1000
0010
1000
0001
0010
0001
1000
0100
0010
0001
1000
0001
0100
0010
1000
0100
,
1000
0001
0100
0010
1000
0001
0010
0001
1000
0100
1000
0001
0100
0010
1000
0001
,
0010
0001
1000
0100
1000
0010
0100
0001
0010
0100
0010
0001
1000
0100
1000
0001
,
0100
0010
1000
0001
0100
0001
0010
0100
1000
0001
1000
0010
0100
0001
0010
0100
,
0010
0001
1000
0100
0010
0001
1000
0001
0100
0010
1000
0100
1000
0010
0100
0001
,
0010
0100
1000
0001
0100
0001
1000
0100
1000
0010
0100
0001
0010
0100
1000
0001
,
0100
0001
1000
0100
1000
0010
0100
0010
1000
0100
0010
0001
0100
0001
0010
0100
,
1000
0001
0100
0001
1000
0100
0010
0001
1000
0100
1000
0010
0100
0001
0010
0100
,
1000
0001
0100
0010
1000
0100
1000
0010
0100
0001
0010
0100
1000
0001
0100
0001
,
1000
0100
0010
0001
1000
0010
0100
0010
1000
0100
0010
0001
1000
0001
0100
0001
,
0010
0100
1000
0010
0100
0010
1000
0100
0010
0001
1000
0001
0100
0001
0010
0100
,
1000
0010
0100
0001
1000
0100
1000
0001
0010
0100
1000
0001
0100
0001
1000
0100
,
0010
0001
1000
0010
0100
0010
1000
0100
0010
0001
1000
0001
0100
0010
1000
0100
,
0010
0001
1000
0010
1000
0001
0010
0100
1000
0001
0100
0001
1000
0100
0010
0001
,
1000
0010
0100
0010
1000
0100
0010
0001
1000
0001
0100
0001
0010
0100
1000
0010
,
0100
0010
1000
0100
0010
0001
1000
0001
0100
0010
1000
0100
1000
0001
0100
0010
,
1000
0001
0010
0001
1000
0100
1000
0001
0100
0010
1000
0100
1000
0001
0100
0010
,
1000
0001
0010
0001
1000
0100
0010
0001
1000
0001
0100
0010
1000
0100
1000
0010
,
0100
0001
0010
0100
1000
0001
0100
0010
1000
0001
0010
0001
1000
0100
1000
0010
,
0100
0001
1000
0100
1000
0001
0100
0010
1000
0010
0100
0010
1000
0100
0010
0001
,
1000
0001
0100
0010
1000
0100
1000
0010
0100
0010
1000
0100
0010
0001
1000
0001
,
0100
0010
0100
0001
0010
0100
1000
0001
0100
0001
0010
0100
1000
0010
0100
0010
,
1000
0100
0010
0001
0100
0001
0010
0100
1000
0001
0100
0001
1000
0100
1000
0010
,
0100
0001
0010
0001
1000
0100
0010
0001
1000
0010
0100
0010
1000
0100
1000
0001
,
0100
0010
1000
0100
0010
0100
1000
0010
0100
0001
0010
0001
1000
0100
0010
0100
,
1000
0010
0100
0001
0010
0001
1000
0100
0010
0001
1000
0001
0100
0010
1000
0100
,
1000
0010
0100
0001
0010
0100
1000
0001
0100
0001
1000
0100
0010
0001
1000
0010
,
0100
0010
1000
0100
0010
0001
1000
0001
0100
0010
1000
0100
1000
0010
0100
0001
,
0010
0100
1000
0001
0100
0010
1000
0100
1000
0001
0100
0010
0100
0001
0010
0100
,
1000
0001
0100
0001
1000
0100
0010
0100
1000
0010
0100
0001
0010
0001
1000
0100
,
1000
0001
0100
0010
1000
0100
0010
0100
1000
0010
0100
0001
0010
0001
1000
0100
,
0010
0100
1000
0001
0100
0001
1000
0100
1000
0010
0100
0001
0010
0001
0100
0001
,
1000
0001
0100
0010
1000
0100
0010
0100
1000
0001
0100
0001
1000
0100
0010
0100
,
1000
0010
0100
0010
1000
0100
0010
0001
1000
0001
0100
0010
0100
0001
0010
0100
,
1000
0001
0100
0001
0010
0100
0010
0001
1000
0010
0100
0010
1000
0100
0010
0100
,
1000
0001
0100
0001
1000
0100
0010
0001
2000
3000
0000
0000
0000
0200
0300
0000
,
0000
0000
0020
0000
0030
0000
0000
0000
0000
0000
0002
0000
0003
0000
0200
0000
0300
0000
0020
2030
3200
0300
0000
0000
0000
0000
0000
0000
0000
0000
0000
0000
,
0000
0000
0000
0000
0000
0000
0000
0000
0020
0032
2003
3000
0000
0000
0000
0000
0000
0000
0000
0000
0020
0230
0302
0023
0230
0300
0000
0000
0000
0000
0000
0000
,
0000
0000
0000
0000
0000
0000
0000
0000
2000
0000
3002
0000
0203
0320
2030
3200
0320
0032
2003
3000
0000
0000
MMM2
0000
0003
0000
0000
0000
0000
0000
0000
0000
,
0000
0000
0000
0000
1000
0001
0200
0000
,
0320
0000
2030
0000
3100
0010
0001
0100
,
0001
0010
0001
1000
0100
0010
0001
1000
,
0010
0100
0010
1000
0001
0100
0001
0010
,
0001
0000
1000
0000
0100
0000
1000
0000
0001
0100
0010
1000
0100
1000
0010
0100
,
0001
1000
0100
1000
0010
0100
0001
1000
0100
1000
0010
0100
0001
0010
0100
1000
,
0001
0000
0000
0100
0000
0000
0001
0000
0000
1000
0000
0000
0100
0000
0000
0010
0000
0000
0001
0000
0000
1000
0000
0000
0010
0000
0000
0000
0100
0000
0000
0000
0001
0000
0000
0000
1000
0000
0000
0000
0100
0000
0000
0000
1000
0000
0000
0000
,
0001
0100
0010
1000
0100
1000
0010
0100
0001
0010
0100
1000
,
0001
0000
0000
0000
0100
0000
0000
0000
0001
0000
0000
0000
1000
0000
0000
0000
0100
0000
0000
0000
0010
0000
0000
0000
0001
0000
0000
1000
0000
0000
0100
0000
0000
1000
0000
0000
0001
0000
0000
0100
0000
0000
0001
0000
0000
1000
0000
0000
,
0010
0100
0001
0010
0100
1000
0001
0100
0001
1000
0100
0010
0001
1000
0001
0100
,
0010
1000
0100
1000
0010
0100
0001
0010
0100
1000
0001
0100
0001
1000
0100
0010
,
0100
1000
0001
0100
0001
1000
0010
0100
0001
0010
0100
1000
0001
0100
0010
1000
,
0100
1000
0001
0100
0010
1000
0001
0010
0100
1000
0001
0100
0001
1000
0100
1000
,
0010
0100
0001
0010
0100
1000
0001
0100
0001
1000
0100
0010
0001
1000
0010
0100
,
0010
1000
0100
0010
0001
1000
0001
0100
0001
0010
0100
1000
0010
0100
0001
1000
,
0001
0100
0010
1000
0100
0010
0100
1000
0010
0100
0001
0010
0100
1000
0001
0100
,
0001
1000
0100
0010
0001
1000
0010
0100
0001
0010
0100
0010
0001
1000
0100
0010
,
0001
1000
0010
0100
0010
1000
0100
1000
0001
0100
0010
1000
0100
0010
0001
1000
,
0010
0100
0001
0010
0001
1000
0100
0010
0001
1000
0010
0100
0010
1000
0001
0100
,
0010
1000
0100
1000
0001
0100
0010
1000
0001
0010
0100
0010
0001
1000
0001
0100
,
0010
1000
0100
1000
0010
0100
0001
0010
0100
0010
0001
1000
0001
0100
0010
1000
,
0100
1000
0010
0100
0001
0010
0100
1000
0001
0100
0001
1000
0100
0010
0001
1000
,
0010
0100
0001
1000
0100
1000
0001
0100
0010
1000
0100
1000
0010
0100
0001
0010
,
0100
0010
0001
1000
0100
0010
0001
1000
0010
0100
0001
1000
0100
1000
0001
0100
,
0010
0000
1000
0000
0100
0000
1000
0000
0010
0000
0100
0000
0001
0000
1000
0000
0001
0100
0010
1000
0100
1000
0010
0100
0001
0010
0100
1000
0001
0100
0001
1000
,
0100
0010
0001
1000
0010
0100
0010
1000
0100
0010
0001
1000
0001
0100
0001
0010
0100
1000
0010
0100
0010
1000
0100
0010
0001
1000
0001
0100
0001
0010
0100
1000
,
0010
0100
0010
1000
0100
0010
0001
1000
0001
0100
0001
0010
0100
1000
0010
0100
0010
1000
0100
0010
0001
1000
0001
0100
0001
0010
0100
1000
0010
0100
0010
1000
,
0100
0010
0001
1000
0001
0100
0001
0010
0100
1000
0010
0100
0010
1000
0100
0010
0001
1000
0001
0100
0001
0010
0100
1000
0001
0100
0001
1000
0100
1000
0010
0100
,
0001
0010
0100
1000
0001
0100
0001
1000
0100
0010
0001
1000
0010
0100
0010
1000
0100
0010
0001
1000
0001
0100
0001
0010
0100
1000
0010
0100
0010
1000
0100
0010
,
0001
1000
0001
0100
0001
0010
0100
1000
0001
0100
0001
1000
0100
0010
0100
1000
0001
0100
0010
1000
0001
0010
0001
1000
0001
0100
0010
1000
0100
1000
0001
0100
,
0010
1000
0001
0010
0001
1000
0100
1000
0010
0100
0001
1000
0100
1000
0001
0100
0010
1000
0001
0010
0001
1000
0100
1000
0010
0100
0001
1000
0100
1000
0001
0100
,
0010
1000
0001
0010
0001
1000
0100
1000
0001
0100
0010
1000
0001
0100
0010
1000
0001
0010
0001
1000
0001
0100
0010
1000
0100
1000
0001
0100
0010
1000
0001
0100
,
0001
0010
0100
1000
0001
0100
0001
1000
0001
0100
0010
1000
0100
1000
0001
0100
0001
1000
0100
1000
0010
0100
0001
1000
0001
0100
0001
0010
0100
0010
0001
1000
,
0100
0010
0001
1000
0001
0100
0010
1000
0001
0100
0001
1000
0100
1000
0001
0100
0010
1000
0001
0100
0001
0010
0001
1000
0100
1000
0001
0100
0010
1000
0001
0100
,
0001
1000
0100
1000
0001
0010
0001
1000
0010
1000
0001
0100
0010
1000
0001
0100
0010
1000
0100
1000
0001
0100
0001
0010
0001
1000
0100
0010
0001
1000
0001
0100
,
0010
1000
0100
1000
0010
0100
0001
0010
0100
1000
0001
0100
0001
1000
0100
0010
0001
1000
0001
0100
0010
1000
0001
0100
0001
0010
0001
1000
0100
0010
0001
1000
,
0001
0100
0010
1000
0100
1000
0001
0100
0010
1000
0001
1000
0100
1000
0010
0100
0001
0000
1000
0000
0100
0000
1000
0000
0010
0000
0100
0000
0001
0000
0010
0000
,
0100
1000
0001
0100
0001
1000
0100
0010
0001
1000
0010
1000
0001
0100
0010
1000
,
0100
1000
0001
0100
0010
1000
0001
0010
0001
1000
0100
0010
0001
1000
0010
0100
,
0001
1000
0100
1000
0001
0100
0010
1000
0001
0010
0001
1000
0100
0010
0100
1000
,
0001
0100
0010
1000
0001
0010
0001
1000
0100
0010
0001
1000
0010
0100
0001
1000
,
0100
1000
0001
0100
0010
1000
0001
0010
0001
1000
0100
0010
0100
1000
0010
0100
,
0001
1000
0100
1000
0001
0100
0010
1000
0001
0010
0001
1000
0100
0010
0001
1000
,
0010
0100
0001
1000
0100
1000
0001
0100
0010
1000
0001
0010
0001
1000
0100
0010
,
0100
1000
0010
0100
0001
0010
0001
1000
0100
0010
0001
1000
0010
0100
0001
0010
,
0001
1000
0100
1000
0010
0100
0001
1000
0100
1000
0010
0100
0001
0010
0100
0010
,
0001
1000
0100
1000
0001
0100
0010
1000
0100
1000
0001
0100
0010
1000
0001
0010
,
0001
1000
0100
0010
0100
1000
0001
0100
0010
1000
0001
0010
0001
1000
0100
1000
,
0001
0100
0010
1000
0001
0100
0010
1000
0100
1000
0001
0100
0001
0010
0100
1000
,
0001
0100
0010
1000
0100
1000
0001
0100
0010
1000
0100
1000
0001
0100
0001
1000
,
0010
0100
0001
1000
0100
1000
0001
0010
0100
1000
0001
0100
0001
1000
0100
0010
,
0001
1000
0010
0100
0001
1000
0100
1000
0001
0100
0010
1000
0100
1000
0001
0100
,
0001
0010
0100
1000
0001
0100
0001
0000
1000
0000
0010
0000
1000
0000
0100
0000
,
1000
0010
0100
0001
0010
0100
0010
0001
,
1000
0010
0100
0001
1000
0100
1000
0001
,
0100
0010
1000
0100
1000
0010
0100
0010
,
1000
0100
0010
0001
1000
0001
0100
0010
,
0100
0001
0010
0100
1000
0001
0100
0001
,
1000
0100
0010
0001
1000
0010
0100
0010
,
1000
0100
1000
0001
0100
0010
1000
0001
,
0010
0100
0010
0001
1000
0010
0100
0001
,
0010
0001
1000
0100
0010
0100
1000
0010
,
0100
0001
1000
0100
1000
0001
0100
0010
,
1000
0001
0010
0001
1000
0100
0010
0100
,
1000
0010
0100
0001
0010
0001
0100
0001
,
1000
0100
0010
0100
1000
0010
0100
0001
,
0010
0001
1000
0100
0010
0100
1000
0010
,
0100
0001
0010
0100
1000
0001
0100
0001
,
1000
0010
0100
0010
1000
0100
0010
0001
,
1000
0001
0100
0001
0010
0100
1000
0010
,
1000
0100
1000
0001
0100
0010
0100
0001
,
0010
0100
1000
0001
0100
0001
1000
0100
,
0010
0100
1000
0010
0100
0001
0010
0001
,
1000
0100
0010
0001
1000
0001
0100
0001
,
0010
0100
1000
0010
0100
0010
1000
0100
,
0010
0001
0100
0010
0100
0001
0010
0100
,
1000
0001
0100
0001
1000
0100
1000
0001
,
0010
0100
1000
0010
0100
0010
1000
0100
,
0010
0001
1000
0001
0100
0001
0010
0100
,
1000
0010
0100
0010
1000
0100
0010
0001
,
1000
0001
0100
0001
1000
0010
0100
0010
,
1000
0100
0010
0001
1000
0100
1000
0001
,
0010
0100
0010
0001
1000
0100
1000
0001
,
0100
0001
1000
0010
1000
0001
0010
0001
,
1000
0100
1000
0001
0200
0300
0000
0000
;
