#TITLE:I'm A Raver;
#SUBTITLE:;
#ARTIST:Zero Bass;
#TITLETRANSLIT:;
#SUBTITLETRANSLIT:;
#ARTISTTRANSLIT:;
#CREDIT:;
#BANNER:Abstract wallpaper a103banner.jpg;
#BACKGROUND:Abstract wallpaper a103.jpg;
#LYRICSPATH:;
#CDTITLE:AznGreen.png;
#MUSIC:I'm A Raver.mp3;
#OFFSET:0.500;
#SAMPLESTART:108.200;
#SAMPLELENGTH:18.000;
#SELECTABLE:YES;
#BPMS:0.000=173.030,229.000=86.510,261.000=173.030,421.000=86.510,432.000=43.450,436.000=86.510,452.000=173.030,548.000=86.510;
#STOPS:129.500=0.500
,130.000=0.500
,130.500=0.200
,131.000=0.200
,131.500=0.200
;
#BGCHANGES:;
// cache tags:
#FIRSTBEAT:1.500;
#LASTBEAT:572.000;
#SONGFILENAME:Songs/new cedric/I'm a Raver/IAR.sm;
#HASMUSIC:1;
#HASBANNER:1;
#MUSICLENGTH:232.411;
// end cache tags

//---------------dance-single - ----------------
#NOTES:
     dance-single:
     :
     Hard:
     11:
     1.000,1.000,1.000,0.099,0.998,1408.000,340.000,23.000,0.000,0.000:
0000
0000
0000
0001
0000
0010
1000
0000
,
0010
0000
0100
0010
0000
0001
1000
0000
,
0001
0010
0000
1000
0100
0000
0010
0000
,
0001
0010
0100
0000
1000
0000
0010
0000
,
1000
0000
0010
0100
0010
0000
0000
0000
0001
0000
1000
0000
0010
0000
0100
0000
,
0001
0000
1000
0000
0100
0010
0001
0010
,
0100
0000
1000
0100
0010
0000
0001
0000
0010
0000
0100
0000
0001
0000
0010
0000
,
0010
0100
0000
0000
0001
0001
1000
0000
,
0010
0100
0000
0001
0000
1000
0100
0000
,
0010
0000
0001
0010
0000
0100
0010
0000
,
0001
1000
0000
0100
1000
0000
0010
0000
,
0001
1000
0010
0000
0100
0000
0001
0000
,
0100
0000
0001
0010
0001
0000
0000
0000
1000
0000
0010
0000
0001
0000
0100
0000
,
0010
0000
1000
0000
0010
0001
0010
0100
,
1000
0000
0100
0000
0010
0000
0001
0010
0100
0010
0001
0000
0010
0000
0000
0000
,
0001
0000
1000
0100
0010
0000
1000
0000
0100
0000
0100
0000
0001
0000
0000
0000
,
0001
0110
0000
1001
0000
0011
1100
0000
,
1001
0000
0011
0101
0000
1100
1001
0000
,
1000
0100
0010
0001
0010
0000
0100
0000
1010
0000
0001
0000
1001
0000
0000
0000
,
0011
1010
0110
0000
1001
0000
0011
0000
,
0110
0000
1000
0001
1000
0000
0000
0000
1100
0000
1001
0000
0010
0000
0101
0000
,
1010
0000
0110
0000
1100
0110
0011
0110
,
1100
0000
0110
0001
0010
0100
1001
0000
0110
0000
1000
0000
1001
0000
0110
0000
,
0110
0000
1100
0000
0000
0000
0000
0000
1001
0000
1001
0000
0011
0000
0000
0010
,
1100
1001
0000
0101
0010
1100
0011
1000
,
0110
0001
1010
0110
1000
0011
1001
0010
,
0101
1010
0001
0110
0101
1000
0011
0100
,
1001
1100
0101
1000
0011
0100
1001
0010
,
1100
0000
0001
0010
0100
0000
0010
0000
0101
0000
1001
0000
0100
0000
0011
0000
,
0110
1000
0101
0010
1100
1010
0101
0011
,
0000
0010
0001
0000
0000
1000
0100
0010
0100
0010
0001
0000
1000
0000
0000
0000
,
0001
0000
0010
0100
0010
0000
1100
0000
0000
0000
0110
0000
0101
0000
0000
0000
,
1010
0000
1100
0000
0000
0000
1001
0000
1001
0000
1001
0000
1001
0000
1001
0010
,
0100
1000
0011
0000
0110
0000
1010
0000
,
0101
0011
0000
0110
0000
0101
1100
0110
,
1010
0011
0101
0000
1100
0000
0011
0000
,
1001
0101
0000
1100
0000
1001
0110
0101
,
1010
0011
1100
0000
1010
0000
1001
0000
,
0011
0110
0000
0101
0000
1100
0110
0011
,
0110
1100
0101
0000
1001
0000
0101
0000
,
1100
1010
0000
0110
0000
0011
1100
0110
,
0101
0000
0011
0000
1001
0100
0010
0001
0100
0010
0100
0010
1000
0100
0010
0001
,
0100
0010
1000
0001
0100
0010
1000
0001
0010
0100
0010
0001
1000
0100
1000
0001
,
0010
0100
1000
0001
1000
0010
0100
0001
0010
0001
1000
0100
1000
0001
0010
0100
,
1000
0100
0010
0001
0100
0010
0100
0001
1000
0010
0100
0010
0001
0010
0001
0100
,
0010
1000
0010
0100
0001
0010
0100
1000
0010
0100
0010
0100
0001
0010
0100
1000
,
0001
1000
0010
0100
0001
0100
0010
1000
0100
1000
0001
0010
0001
1000
0100
0010
,
0100
1000
0001
0010
0001
1000
0100
0010
0100
1000
0001
0100
0010
1000
0100
1000
,
0001
0010
0001
0010
0100
1000
0001
1000
0100
0010
0001
0100
0010
0100
0010
1000
,
0001
0100
0010
0100
1010
0000
0001
0000
0110
0000
1000
0000
0011
0000
0100
0000
,
1010
1001
0010
0101
0010
1100
0110
0011
,
0110
1100
0011
0100
1010
0100
0011
0100
,
1001
0011
0100
1001
0010
0101
1010
0110
,
0011
0110
0101
0010
1100
0001
1010
0100
,
1001
0110
1000
0011
0010
1100
0101
1001
,
0110
1100
0011
0100
1001
0010
1100
0001
,
1010
0011
1000
0101
0010
1001
0101
1100
,
0011
0110
2002
0000
0000
0000
0000
0000
,
0000
3003
2200
0000
0000
0000
0000
0000
,
0000
3300
0202
0000
0000
0303
2020
0000
,
0000
3030
0022
0033
2200
3300
2020
3030
,
0220
0000
0330
0000
1010
0100
0010
0001
1000
0100
0010
0001
1000
0100
0010
0001
,
1000
0100
0010
0001
0110
0001
0010
0001
1000
0100
1000
0100
0001
0010
0001
0010
,
1000
0100
1000
0100
0011
0100
0010
0100
0010
0100
0010
0100
0011
1000
0001
1000
,
0001
1000
0001
1000
0110
1000
0100
0010
0001
0010
0100
1000
0100
0010
0001
0010
,
0100
1000
0100
0010
1001
0000
0000
0000
1010
0000
0000
0000
1100
0000
1000
0000
,
1010
0011
0000
0110
0000
0101
0100
1100
,
1001
0000
0011
0000
0110
0000
0101
0001
,
0011
1010
0000
1001
0000
0011
0010
1010
,
0101
0000
1001
0000
0110
0000
0101
0100
,
1100
1001
0000
1010
0000
0011
0001
0101
,
1010
0000
1001
0000
0011
0000
0110
0010
,
0011
1010
0000
1100
0000
1001
1000
1100
,
0110
0000
0011
0100
1010
0001
0101
1010
,
0101
1010
0001
1100
0010
1001
0110
1001
,
0110
0001
1010
0100
0110
1000
0011
0110
,
0011
0110
0100
1010
0001
1100
0110
1100
,
0110
0010
1001
0001
0110
0100
1010
0011
,
1010
0011
1000
0110
0100
1010
1100
1010
,
1100
0001
0110
1000
0011
0010
1100
0101
,
1100
0101
0001
0110
1000
0011
1001
0011
,
1001
0000
0000
0000
0110
0001
0010
0100
0010
0100
1000
0100
0010
0001
1000
0100
,
0010
0100
1000
0100
0010
0001
0100
0010
0100
0010
0001
1000
0010
0100
0001
0010
,
0100
1000
0010
0100
0001
0100
0010
1000
0100
0010
0100
1000
0001
0010
0100
1000
,
0001
0100
0010
1000
0010
0100
0001
0010
0001
1000
0100
1000
0001
0010
1000
0010
,
0001
1000
0100
0001
0100
1000
0001
0010
0100
0010
0100
1000
0100
0010
0001
1000
,
0100
1000
0100
0010
0001
0010
0001
0010
0100
1000
0100
1000
0001
0010
0001
0100
,
1000
0100
1000
0010
0100
0001
0100
0010
1000
0010
0100
0001
0010
0100
0010
0001
,
1000
0100
0010
0100
1000
0001
0010
0100
1000
0010
0100
0010
1000
0100
0010
0001
,
1000
0001
0010
0100
1000
0100
0010
0001
1000
0001
0010
0100
1000
0001
0010
0001
,
1000
0100
0010
0001
1000
0100
1000
0001
0010
0100
1000
0010
0001
0010
0001
0010
,
0100
1000
0100
1000
0100
0010
0001
1000
0100
0010
0100
1000
0001
1000
0100
0010
,
0100
1000
0010
0100
0001
0100
0010
1000
0100
0010
0001
0100
0010
1000
0010
0100
,
0001
0010
0001
0010
0100
0010
0100
1000
0100
1000
0001
0100
0010
0001
0010
0100
,
0010
0001
1000
0001
0010
0100
0010
0100
1000
0001
0010
0001
1000
0100
0010
0001
,
1000
0100
1000
0001
0010
0100
1000
0001
0010
0001
0100
0010
1000
0100
1000
0001
,
0010
0100
1000
0100
0010
0001
1000
0100
1000
0010
1000
0001
1000
0010
1000
0100
,
1000
0001
0010
0001
0100
0001
1000
0001
0100
0001
0010
0001
0010
0100
1000
0010
,
0100
0010
1000
0100
0010
0001
1000
0001
0010
0100
1000
0001
1000
0100
0010
0001
,
1000
0010
0100
0001
1000
0010
0100
0001
0010
0100
1000
0100
0010
0001
0100
0010
,
0100
0001
0010
0100
0010
0001
1000
0100
1000
0001
0010
0001
1000
0100
0010
0100
,
1000
0001
0010
0001
0010
0001
1000
0100
0010
0001
0010
0100
1000
0010
0100
0001
,
0010
0100
0010
0100
0010
0001
0100
0010
1000
0010
0100
0001
0010
0100
1000
0010
,
0100
0010
0100
0010
1000
0001
1000
0001
1000
0010
0100
0010
1000
0100
1000
0001
,
0100
0010
0100
0001
1000
0100
1000
0001
0010
1000
0010
0001
1000
0100
0010
0001
,
1000
0001
0010
0100
2002
0000
0000
0000
0000
0000
0000
0000
0000
0000
3003
0000
,
0010
0000
0100
1000
0000
0001
0000
0100
0000
0000
0000
0000
0000
0000
0000
0000
,
0001
0000
1000
0010
0000
0100
0000
0010
0000
0000
0000
0001
0100
0000
0000
0000
,
2000
3002
0203
0000
,
0301
0000
0010
0100
0000
1000
0000
0010
0100
0000
1000
0010
0000
0001
1000
0000
,
0001
0000
0100
0000
0000
0000
0001
0000
0000
0000
1000
0000
0100
0000
1000
0000
0000
0000
0001
0000
0000
0000
1000
0000
0000
0000
0100
0000
0001
0010
0001
0000
,
0000
0000
0100
0000
0010
0000
0100
0000
1000
0000
0100
0000
0000
0000
0010
0000
0000
0000
0100
0000
0001
0000
0100
0000
0010
0000
1000
0000
0001
0010
0100
0000
,
1000
0100
0001
0010
0101
0101
0110
0000
0000
1010
1010
1001
0000
0110
0011
0000
,
1001
0000
0110
1100
0000
0110
0000
0101
,
1001
0000
0011
0101
0000
1001
1100
0000
,
1001
0110
0000
0011
0000
1100
0110
0011
,
0000
0000
1010
0000
0000
0000
0101
0000
0000
0000
0110
0000
0001
0010
0100
0000
,
0000
0011
0110
1100
0110
0011
0000
1100
,
0000
0101
0011
1001
1100
0110
1010
0011
,
1000
0100
0010
0100
1000
0000
0101
0000
0000
0000
0110
0000
1000
0100
0010
0000
,
0101
0000
1100
0110
0000
1001
0011
0000
,
1001
0010
0001
1000
0100
0010
0001
0100
0010
0100
0001
0010
0100
0010
0001
0100
,
0010
1000
0100
1000
0100
0010
0001
0010
0001
1000
0001
0100
0010
1000
0001
0100
,
0001
0010
0100
1000
0010
0100
0001
0010
0001
1000
0100
0010
0100
1000
0100
0010
,
0001
1000
0010
0100
0001
0100
0010
1000
0010
0100
1000
0001
0010
0100
1000
0010
,
0100
0010
0100
0001
1000
0001
1000
0100
0010
1000
0010
0100
1000
0001
0010
0100
,
0010
0001
0100
0010
1000
0010
0100
0001
0010
0001
1000
0100
0001
0100
1000
0010
,
0100
0010
0100
1000
0100
0010
0001
1000
0011
0000
0011
0000
1010
0000
0000
0000
,
0000
0000
1100
0000
1100
0000
0101
0000
0000
1000
0100
0000
0011
0000
0000
0000
,
1100
0100
1010
0011
1000
0110
0001
1100
,
1001
0000
0010
0000
0101
0000
0011
0000
0100
0000
1000
0100
0010
0100
1000
0000
,
0001
0010
0100
0010
0100
1000
0001
0100
0010
1000
0100
0010
0100
1000
0001
0010
,
0001
1000
0100
0010
0001
0010
0100
1000
0010
0100
0001
0100
0001
0010
0100
1000
,
0011
0000
0101
0000
1100
0000
0110
0000
1100
0000
0101
0000
0010
0000
1001
0100
,
0010
0001
1000
0100
0001
0100
1000
0010
0100
0010
1000
0100
0010
0100
1000
0001
,
0010
0001
1000
0100
0010
0001
1000
0001
0110
0000
0110
0000
1100
0000
0000
0000
,
0000
0000
1001
0000
1001
0000
0011
0000
0000
1000
0100
0000
0110
0000
0000
0000
,
1001
0010
0100
1000
0100
0010
0001
1000
0010
0100
0010
1000
0100
0010
0001
0100
,
0010
1000
0010
0100
0001
0010
0100
1000
0001
0010
1000
0010
0001
0010
0100
0010
,
0001
1000
0100
0010
1000
0100
0010
0001
0010
0100
1000
0001
0010
0100
0001
0100
,
0010
0001
0100
0010
1000
0010
0100
0001
0010
0100
1000
0100
1000
0010
0100
0010
,
2002
0000
0000
0000
,
0000
0000
0000
0000
,
3003
0000
0000
0000
;
