#TITLE:Majora Reincarnation;
#SUBTITLE:;
#ARTIST:近藤浩治;
#TITLETRANSLIT:;
#SUBTITLETRANSLIT:;
#ARTISTTRANSLIT:Koji Kondo;
#CREDIT:;
#BANNER:BN.jpg;
#BACKGROUND:black.bmp;
#LYRICSPATH:;
#CDTITLE:white.bmp;
#MUSIC:Majora's Reincarnation Battle.mp3;
#OFFSET:-2.620;
#SAMPLESTART:55.431;
#SAMPLELENGTH:12.000;
#SELECTABLE:YES;
#BPMS:0.000=399.920,16.000=99.980;
#STOPS:;
#BGCHANGES:16.000=INV.jpg=1.000=0=0=1,
20.000=white.bmp=1.000=0=0=1,
20.125=INV.jpg=1.000=1=0=1,
100.000=BG.jpg=1.000=1=0=1,
144.500=INV.jpg=1.000=0=0=1,
145.000=BG.jpg=1.000=0=0=1,
145.500=INV.jpg=1.000=0=0=1,
146.000=BG.jpg=1.000=0=0=1,
146.500=INV.jpg=1.000=0=0=1,
147.000=BG.jpg=1.000=0=0=1,
147.500=INV.jpg=1.000=0=0=1,
148.000=BG.jpg=1.000=0=0=1,
148.500=INV.jpg=1.000=0=0=1,
149.000=BG.jpg=1.000=0=0=1,
149.500=INV.jpg=1.000=0=0=1,
150.000=BG.jpg=1.000=0=0=1,
150.500=INV.jpg=1.000=0=0=1,
151.000=BG.jpg=1.000=0=0=1,
151.500=INV.jpg=1.000=0=0=1,
152.000=BG.jpg=1.000=0=0=1,
152.500=INV.jpg=1.000=0=0=1,
152.750=BG.jpg=1.000=0=0=1,
153.000=INV.jpg=1.000=0=0=1,
153.250=BG.jpg=1.000=0=0=1,
153.500=INV.jpg=1.000=0=0=1,
153.750=BG.jpg=1.000=0=0=1,
154.000=INV.jpg=1.000=0=0=1,
154.250=BG.jpg=1.000=0=0=1,
154.500=INV.jpg=1.000=0=0=1,
154.750=BG.jpg=1.000=0=0=1,
155.000=INV.jpg=1.000=0=0=1,
155.250=BG.jpg=1.000=0=0=1,
155.500=INV.jpg=1.000=0=0=1,
155.750=BG.jpg=1.000=0=0=1,
156.000=white.bmp=1.000=0=0=1,
156.125=BG.jpg=1.000=1=0=1,
172.000=INV.jpg=1.000=1=0=1,
174.000=white.bmp=1.000=1=0=1,
99999=-nosongbg-=1.000=0=0=0 // don't automatically add -songbackground-
;
// cache tags:
#FIRSTBEAT:16.000;
#LASTBEAT:176.000;
#SONGFILENAME:Songs/toune 2/Majoras Reincarnation/Majora's Reincarnation Battle.sm;
#HASMUSIC:1;
#HASBANNER:1;
#MUSICLENGTH:110.315;
// end cache tags

//---------------dance-single - ----------------
#NOTES:
     dance-single:
     :
     Hard:
     10:
     0.763,1.000,0.517,0.535,0.961,473.000,57.000,59.000,0.000,14.000:
0000
0000
0000
0000
,
0000
0000
0000
0000
,
0000
0000
0000
0000
,
0000
0000
0000
0000
,
1001
1000
0100
0010
0001
1000
0010
0100
0001
1000
0100
0010
0001
0010
0100
1000
,
1001
0000
0000
0000
1100
0000
0011
0000
0110
0000
0000
0001
1000
0000
0000
0000
,
1001
0000
0000
0000
0011
0000
1010
0000
1001
0000
0100
0010
0100
0000
0000
0000
,
1010
0000
0000
0000
0101
0000
0000
0000
0110
0000
1000
0001
1000
0000
0000
0000
,
0110
0000
0000
0000
1100
0000
0110
0000
0011
0000
1000
0001
1000
0000
0000
0000
,
1001
0100
0010
0001
1000
0100
0010
0001
1000
0010
0100
0001
1000
0010
0100
0001
,
1000
0100
0010
0001
1000
0100
0010
0001
0100
0010
1000
0001
1000
0010
0100
0001
,
1000
0010
0100
1000
0001
0010
0100
1000
0001
0100
0010
1000
0001
0100
0010
0100
,
1000
0100
0010
0001
1000
0100
0010
0001
1000
0001
0100
0010
0100
0001
1000
0010
,
1000
0100
0010
0001
1000
0100
0010
0001
1000
0010
0100
0001
1000
0010
0100
0001
,
1000
0100
0010
0001
1000
0100
0010
0001
0100
0010
1000
0001
1000
0010
0100
0001
,
1000
0010
0100
1000
0001
0010
0100
1000
0001
0100
0010
1000
0001
0100
0010
0100
,
1000
0100
0010
0001
1000
0100
0010
0001
1000
0001
0100
0010
0100
0001
1000
0010
,
0010
1000
0001
0100
0010
1000
0001
0100
0010
0001
1000
0100
0010
0001
1000
0100
,
0010
1000
0001
0100
0010
1000
0001
0100
1000
0001
0010
0100
0010
0001
1000
0100
,
0010
0001
1000
0010
0100
0001
1000
0010
0100
1000
0001
0010
0100
1000
0001
1000
,
0010
1000
0001
0100
0010
1000
0001
0100
0010
0100
1000
0001
1000
0100
0010
0001
,
0001
0010
0100
1000
0001
0010
0100
1000
0001
0100
0010
1000
0001
0100
0010
1000
,
0001
0010
0100
1000
0001
0010
0100
1000
0010
0100
0001
1000
0001
0100
0010
1000
,
0001
0100
0010
0001
1000
0100
0010
0001
1000
0010
0100
0001
1000
0010
0100
0010
,
0001
0010
0100
1000
0001
0010
0100
1000
0001
1000
0010
0100
0010
1000
0001
0100
,
2000
0001
3002
0000
,
2003
0000
0000
0000
0001
0000
0000
0000
0001
0000
0000
0000
0001
0000
0001
0000
3001
0010
0001
0000
0100
0010
0100
0000
0000
0000
0000
0000
0000
0000
0000
0000
,
0100
0010
0100
0000
0000
0000
0000
0000
1001
0000
0000
0000
0000
0000
0000
0000
0110
0000
1000
0000
0001
0000
0100
0000
0010
0000
1000
0000
0001
0000
0100
0000
,
0010
0100
0020
0000
0001
0000
0000
0000
1000
0000
0000
0000
0100
0000
0000
0000
2030
0000
0000
0000
0000
0000
0000
0000
0000
0000
0000
0000
0000
0000
0000
0000
,
3001
0010
0002
0000
0000
0000
0000
0000
1000
0000
0000
0000
0000
0000
0000
0000
1003
0100
1000
0000
1000
0100
2000
0000
0000
0000
0000
0000
0000
0000
0000
0000
,
3010
0100
0020
0000
0100
0000
0000
0000
0100
0000
0000
0000
0100
0000
0100
0000
0130
0000
1000
0000
0001
0000
0100
0000
0010
0000
1000
0000
0100
0000
0010
0000
,
0002
1000
2003
0000
,
3002
0000
0000
0000
1000
0000
0000
0000
1000
0000
0000
0000
1000
0000
1000
0000
1003
0100
1000
0000
0010
0100
0010
0000
0000
0000
0000
0000
0000
0000
0000
0000
,
0010
0100
0010
0000
0000
0000
0000
0000
1001
0000
0000
0000
0000
0000
0000
0000
0110
0000
0001
0000
1000
0000
0010
0000
0100
0000
0001
0000
1000
0000
0010
0000
,
0100
0010
0200
0000
1000
0000
0000
0000
0001
0000
0000
0000
0010
0000
1000
0000
0302
0000
0000
0000
0000
0000
0000
0000
0000
0000
0000
0000
0000
0000
0000
0000
,
1003
0100
2000
0000
0000
0000
0000
0000
0001
0000
0000
0000
0000
0000
0000
0000
3001
0010
0001
0000
0001
0010
0002
0000
0000
0000
0000
0000
0000
0000
0000
0000
,
0103
0010
0200
0000
0010
0000
0000
0000
0010
0000
0000
0000
0010
0000
0300
0000
0110
0000
0001
0000
1100
0000
0010
0000
0101
0000
0001
0000
1010
0000
0100
0000
,
1001
0100
0101
1000
0011
0100
1001
1000
0110
0010
1001
1000
0101
0010
1001
0010
,
0110
1000
0220
0331
2200
3310
0202
0313
2200
3301
0022
0133
2020
3031
0202
0313
,
2002
0000
3003
0000
0012
0000
0123
0000
1230
0000
0300
1000
0002
0000
0003
0000
,
2002
0000
3003
0000
2100
0000
3012
0000
0123
0000
1030
0001
2000
0000
3000
0000
,
2002
0000
3003
0000
0022
0000
0033
0000
2100
0000
3100
0010
0200
0000
0300
0000
,
2002
0000
3003
0000
0220
0000
2332
0000
3223
0000
1330
0001
2000
0000
3000
0000
,
2002
0000
0000
0000
,
3003
0000
0000
0000
;

//---------------dance-single - ----------------
#NOTES:
     dance-single:
     :
     Medium:
     7:
     0.471,0.877,0.635,0.526,0.127,236.000,70.000,58.000,0.000,3.000:
0000
0000
0000
0000
,
0000
0000
0000
0000
,
0000
0000
0000
0000
,
0000
0000
0000
0000
,
1001
0000
0000
0000
,
1001
0000
0000
0000
1000
0000
0001
0000
1000
0000
0000
1000
0001
0000
0000
0000
,
0110
0000
0000
0000
1000
0000
0100
0000
0010
0000
0001
1000
0001
0000
0000
0000
,
1100
0000
0000
0000
0101
0000
0000
0000
0100
0000
0010
0100
0010
0000
0000
0000
,
1001
0000
0000
0000
0001
0000
0010
0000
0100
0000
1000
0001
1000
0000
0000
0000
,
0011
0000
0000
0000
1010
0000
0000
0000
1001
0000
0000
0010
0100
0000
0000
0000
,
1100
0000
0000
0000
0001
0000
0100
0000
0010
0000
1000
0100
1000
0000
0000
0000
,
0110
0000
0000
0000
1001
0000
0000
0000
0001
0000
1000
0001
1000
0000
0000
0000
,
0110
0000
0000
0000
1000
0000
0010
0000
0100
0000
0001
0010
0001
0000
0000
0000
,
1001
0000
0000
0000
0001
0000
1000
0000
0001
0000
0000
0001
1000
0000
0000
0000
,
0110
0000
0000
0000
0001
0000
0010
0000
0100
0000
1000
0001
1000
0000
0000
0000
,
0011
0000
0000
0000
1010
0000
0000
0000
0010
0000
0100
0010
0100
0000
0000
0000
,
1001
0000
0000
0000
1000
0000
0100
0000
0010
0000
0001
1000
0001
0000
0000
0000
,
1100
0000
0000
0000
0101
0000
0000
0000
1001
0000
0000
0100
0010
0000
0000
0000
,
0011
0000
0000
0000
1000
0000
0010
0000
0100
0000
0001
0010
0001
0000
0000
0000
,
0110
0000
0000
0000
1001
0000
0000
0000
1000
0000
0001
1000
0001
0000
0000
0000
,
0110
0000
0000
0000
0001
0000
0100
0000
0010
0000
1000
0100
1000
0000
0000
0000
,
1001
0000
0000
0000
1000
0000
0001
0000
1000
0000
0000
1000
0001
0000
0000
0000
,
0110
0000
0000
0000
1000
0000
0100
0000
0010
0000
0001
1000
0001
0000
0000
0000
,
1100
0000
0000
0000
0101
0000
0000
0000
0100
0000
0010
0100
0010
0000
0000
0000
,
1001
0000
0000
0000
0001
0000
0010
0000
0100
0000
1000
0001
1000
0000
0000
0000
,
2000
0001
3002
0000
,
2003
0000
0001
0000
0001
0000
0001
0001
0002
0000
0000
0000
0000
0000
0000
0000
,
3003
0000
1001
0000
0110
0010
0100
0001
,
0020
0001
1000
0100
2030
0000
0000
0000
,
3002
0000
1000
0000
1003
2000
0000
0000
,
3002
0000
0010
0000
0100
0000
0100
0100
0103
0000
1000
0000
0001
0000
0100
0000
,
0002
1000
2003
0000
,
3002
0000
1000
0000
1000
0000
1000
1000
2000
0000
0000
0000
0000
0000
0000
0000
,
3003
0000
1001
0000
0110
1000
0100
1000
,
0200
0000
1000
0000
0010
0000
0001
0001
0302
0000
0000
0000
0000
0000
0000
0000
,
2003
0000
0001
0000
3010
0002
0000
0000
,
0203
0000
0010
0000
0010
0000
0010
0300
0110
0000
1100
0000
0101
0000
1010
0000
,
1001
0000
0220
0330
1100
0000
0202
0303
0110
0000
2020
3030
0011
0000
2002
3003
,
0110
0000
0022
0033
0220
0330
2200
3300
0220
0330
0022
0033
2002
3003
0220
0330
,
2002
0000
3003
0000
0011
0000
0110
0000
1100
0000
0000
1000
0001
0000
0000
0000
,
2002
0000
3003
0000
1100
0000
0011
0000
0110
0000
1000
0001
1000
0000
0000
0000
,
2002
0000
3003
0000
0022
0000
0033
0000
1100
0000
0100
0010
0100
0000
0000
0000
,
2002
0000
3003
0000
0220
0000
2332
0000
3223
0000
1330
0001
1000
0000
0000
0000
,
2002
0000
0000
0000
,
3003
0000
0000
0000
;

//---------------dance-single - ----------------
#NOTES:
     dance-single:
     :
     Easy:
     4:
     0.254,0.459,0.163,0.381,0.000,136.000,18.000,42.000,0.000,0.000:
0000
0000
0000
0000
,
0000
0000
0000
0000
,
0000
0000
0000
0000
,
0000
0000
0000
0000
,
1000
0000
0000
0000
,
1000
0100
0010
0001
,
1000
0000
0100
1000
0010
0100
0001
0000
,
1000
0010
0100
0001
,
1000
0000
0010
0100
0001
1000
0010
0000
,
2000
0000
0000
0000
,
3020
0000
0230
0302
,
2000
0000
0000
0000
,
3003
0000
0000
0000
,
0200
0000
0000
0000
,
0320
0000
0000
0000
2030
0000
0002
3000
,
0200
0000
0000
0000
,
0303
0000
0000
0000
,
2000
0000
0000
0000
,
3002
0000
0203
0320
,
2000
0000
0000
0000
,
3030
0000
0000
0000
,
0002
0000
2003
3020
,
0230
0000
0302
2003
,
0020
0000
0000
0000
,
3030
0000
0000
0000
,
2000
0001
3002
0000
,
2003
0001
0001
0001
0002
0000
0000
0000
,
3003
0000
1001
0000
0100
0010
0100
0001
,
0020
0001
1000
0100
2030
0000
0000
0000
,
3002
0000
1000
0000
1003
2000
0000
0000
,
3002
0010
0100
0100
0103
1000
0001
0100
,
0002
1000
2003
0000
,
3002
1000
1000
1000
2000
0000
0000
0000
,
3003
0000
1001
0000
0001
1000
0100
1000
,
0200
1000
0010
0001
0302
0000
0000
0000
,
2003
0000
0001
0000
3010
0002
0000
0000
,
0203
0000
0010
0000
0010
0000
0010
0300
1001
0000
0000
0000
0110
0000
0000
0000
,
1001
0110
1001
0110
,
1001
0110
1001
0110
1001
0110
1001
0110
,
1001
0000
0001
0010
0100
0000
1000
0000
,
0010
0000
0100
0001
1000
0010
0100
0000
,
0001
0000
1000
0000
0010
0100
0001
0000
,
0010
0000
1000
0100
0010
0001
0100
0000
,
2002
0000
0000
0000
,
3003
0000
0000
0000
;
