#TITLE:The Final Summoning;
#SUBTITLE:Final Fantasy X;
#ARTIST:Jared Hudson;
#TITLETRANSLIT:;
#SUBTITLETRANSLIT:;
#ARTISTTRANSLIT:;
#CREDIT:;
#BANNER:TFS.bmp;
#BACKGROUND:TFS BG.bmp;
#LYRICSPATH:;
#CDTITLE:;
#MUSIC:Final_Fantasy_10_The_Final_Summoning_OC_ReMix.mp3;
#OFFSET:-1.000;
#SAMPLESTART:50.714;
#SAMPLELENGTH:12.000;
#SELECTABLE:YES;
#BPMS:0.000=560.000,31.000=62.220,36.000=72.000,41.500=36.000,42.000=72.000,42.333=144.000,43.000=288.000,55.500=144.000,59.000=72.000,60.375=36.000,63.000=72.000,63.500=144.000,64.500=288.000,76.000=144.000,78.000=72.000,81.500=36.000,82.000=288.000,89.000=192.000,90.500=144.000,93.000=72.000,94.125=36.000,95.750=18.000,96.000=72.000,101.000=144.000,103.000=288.000,108.000=1152.000,120.000=140.000,250.000=280.000,314.000=140.000,410.000=70.000,450.000=140.000,546.000=70.000,562.000=140.000,626.000=17.500,627.000=35.000;
#STOPS:62.500=0.208
,95.750=0.417
,168.000=0.857
;
#BGCHANGES:;
// cache tags:
#FIRSTBEAT:0.000;
#LASTBEAT:626.875;
#SONGFILENAME:Songs/mike songs/2433the_final_summoning/TFS.sm;
#HASMUSIC:1;
#HASBANNER:1;
#MUSICLENGTH:293.833;
// end cache tags

//---------------dance-single - ----------------
#NOTES:
     dance-single:
     :
     Hard:
     8:
     0.496,0.933,0.368,0.732,0.155,698.000,108.000,215.000,0.000,33.000:
2000
0000
0000
0000
,
0000
0000
0000
0000
,
0000
0000
0000
0000
,
0000
0000
0000
0000
,
0000
0000
0000
0000
,
0000
0000
0000
0000
,
0000
0000
0000
0000
,
0000
0000
0000
3020
,
0000
0000
0000
0000
,
0230
0000
0000
0000
,
0000
0000
0000
0000
0000
0000
0302
2003
0000
3002
0000
0000
,
0000
0000
0000
0000
,
0000
0000
0000
0000
,
0000
0023
0000
0000
0000
0000
0000
2030
,
0000
0000
0000
3200
,
0000
0000
0000
0320
0000
0000
0000
0000
0000
0000
0000
0000
0000
0000
0000
0000
0000
0000
0000
0000
0000
0000
0000
0000
2030
0000
0000
0000
3200
0000
0000
0000
,
0000
0320
0000
0000
0000
0000
0000
0000
,
0000
0000
0032
2003
,
3020
0000
0000
0000
,
2030
0000
3200
0000
,
0000
0000
0320
0000
,
0000
0000
0000
0000
,
0000
0000
0000
0000
0000
0000
0032
0000
0000
0000
0000
2003
0000
0000
0000
3020
0000
0000
0000
0000
0000
0000
0000
0000
,
0000
0000
0000
0000
0000
0000
0000
0000
2030
0000
0000
0000
0000
0000
0000
0000
0000
3002
0000
0000
0000
0000
0000
0000
0000
0000
0000
0000
0000
0000
0000
0000
,
2003
0000
0000
0000
,
0000
0000
0000
0000
,
0000
0000
0000
0000
,
3000
0000
0000
0000
,
0000
0000
0000
0000
,
0000
0000
0000
0000
,
1000
0100
0110
0000
0011
0000
0110
1000
,
1001
0000
0000
0000
1100
0000
0000
0000
0011
0000
0000
0000
1001
0000
0001
0010
,
0100
0010
0101
0000
1010
0000
2000
0002
,
0000
0000
0000
3003
,
0110
0001
0110
0000
1100
0000
0011
1000
,
1001
0000
0000
0000
1010
0000
0000
0000
0101
0000
0000
0000
0110
0000
0001
1000
,
0001
0010
1100
0000
0011
0000
0020
0200
,
0000
0000
0000
0330
,
0101
0010
1010
0000
0110
0000
0011
0100
,
1100
0000
0000
0000
0110
0000
0000
0000
1001
0000
0000
0000
0110
0000
0001
1000
,
0100
0010
0011
0000
1100
0000
0002
2000
,
0000
0000
0000
0000
,
3003
0000
0000
0000
0110
1001
0110
0000
,
1100
0000
1001
0110
1001
0000
0011
0000
,
2020
0000
0000
3030
0101
1100
0101
0000
,
1001
0000
0110
1010
0110
0000
1100
0000
,
0220
0000
0000
0000
0000
0000
0330
0000
0001
0000
1000
0100
0010
0001
1000
0100
,
0010
0001
0010
0001
0010
0001
1000
0100
1000
0100
1000
0100
0010
0100
0010
0100
,
0010
0100
0001
1000
0001
1000
0001
1000
0001
0010
0100
1000
0001
0010
0100
1000
,
0100
0010
0001
1000
0100
0010
0001
0010
0100
0010
0001
1000
0100
0010
0100
1000
,
0001
0010
0100
1000
0100
0010
0001
0100
0020
0000
0000
0000
1000
0000
0000
0000
,
1000
1000
0230
0001
,
0001
0001
2300
0100
,
0100
0100
0002
0000
,
0000
0000
3023
1000
,
0032
1000
2003
0001
,
3200
0001
1000
0001
,
1000
0001
1000
0001
,
1000
0001
0310
1001
,
0200
0001
2300
0010
,
3002
0023
0200
0000
,
0000
0000
0000
0000
,
0000
0000
0000
0000
1330
0100
1000
0100
,
0001
0010
0001
0010
0100
0010
0100
0010
,
0001
1000
0001
1000
0001
0010
0100
1000
,
0001
0010
0100
1000
1000
0100
0010
0001
,
1000
0100
0010
0001
0001
0100
0001
0100
,
0010
1000
0010
1000
0010
0100
0010
0100
,
0001
1000
0001
1000
0001
0010
0001
0010
,
0100
1000
0100
1000
0001
0010
0001
0010
,
0100
1000
0100
1000
0000
0000
1100
0000
,
0011
0110
1001
0110
,
0011
1100
0110
1100
,
0011
0110
1001
0110
,
1100
0011
0110
0110
,
1001
1001
0110
0110
,
0101
0101
1010
1010
,
1010
1010
0101
0101
,
0101
0000
0000
0000
0000
0000
0101
0000
0000
0000
0000
0000
0101
0000
0000
0000
0000
1000
0000
0000
0000
0100
0000
0000
,
0000
0000
0010
0000
0000
0000
0001
0000
0000
0000
0000
0010
0000
0000
0000
0100
0000
0000
1000
0000
0000
0010
0000
0000
,
0001
0000
1000
0100
1000
0001
0010
0001
,
0010
0100
0010
0001
2000
0000
0000
0000
,
3002
0000
0013
0100
0010
0001
1000
0200
,
0001
0000
0301
0010
1000
0100
1000
0010
,
0100
0000
0000
0001
0000
0000
0010
0000
0000
0001
0000
0000
0100
0000
0000
0000
1000
0000
0000
0000
0000
0000
0000
0000
,
1000
0001
0010
0001
0100
1000
0010
0100
,
0002
0000
0000
0003
0110
0000
0000
0000
,
1001
0000
0011
0110
,
1100
1100
0110
0011
,
1001
0000
0110
0100
0020
0000
0000
0000
,
1030
0000
0000
0000
0100
0000
0000
0000
0000
0010
0000
0000
0002
0000
0000
0000
0000
0000
0100
0000
0000
0000
0000
0000
,
1000
0010
0100
1000
,
1003
0001
0000
0001
2000
0000
0001
0000
,
0010
0000
3100
0010
0001
0000
0000
1000
,
0000
0100
0110
1001
,
0110
0000
0000
0000
0000
0000
0001
0000
0000
0010
0000
0000
0100
0000
1000
0000
0100
0000
0010
0000
0001
0000
0010
0000
,
0100
0000
0010
0000
0100
0000
0001
0000
1000
0000
0001
0000
0200
0000
0000
0000
0000
0000
0000
0000
0000
0310
0000
0000
,
0002
0000
0000
1003
0100
0010
0001
0010
,
1001
0110
1001
0110
,
1100
0001
0100
0010
0001
2000
0000
3100
,
0011
0000
0110
0000
1001
0000
0010
0100
,
0010
0001
1000
0100
0010
0100
1000
0001
,
0010
0000
0100
0000
1000
0000
0100
0000
1000
0100
0010
0100
1000
0100
0010
0100
,
1000
0010
0100
0010
0100
0010
0100
0010
0001
0010
0100
0010
0001
0010
0100
0010
,
0001
1000
0001
1000
0001
1000
0001
1000
0020
0000
0000
0000
0230
0000
0000
0000
,
0302
2003
0000
0000
,
0000
0000
0000
0000
3100
1001
2000
0000
,
3200
0000
0302
0023
0200
0000
0000
0000
,
0000
0000
0332
2003
,
3020
0000
0000
0000
,
0000
0000
0000
0000
0130
1001
0020
0000
,
0032
0000
2003
3200
0020
0000
0000
0000
,
0000
0000
0000
0000
0331
1000
0100
0010
,
0100
0001
1000
0100
1000
0010
0001
0010
,
1000
0010
0100
0001
1000
0010
0100
0001
,
1000
0100
0010
0001
0100
1000
0010
1000
,
0001
0010
0001
0100
1100
1100
0010
0001
,
0100
1000
0010
0100
0010
0001
1000
0220
,
0000
0000
0000
0330
0002
0000
0000
0023
,
0000
0000
0000
0000
0000
0000
2030
0000
0000
0000
0000
0000
0000
0000
0000
0000
0000
0000
0000
0000
0000
3100
0000
0010
,
0000
0000
0001
0000
1000
0100
0010
0001
2000
0000
0000
0000
0001
0000
0000
0000
,
3020
1000
0230
0010
,
0302
1000
2000
0000
,
3200
0000
0320
0000
,
0230
0000
0313
1001
,
2000
0001
3002
0100
,
0023
0230
0002
0000
,
0000
0000
0000
0000
,
0000
0000
0323
0001
,
2030
0010
3200
0001
,
1000
0001
1000
0001
,
1000
0001
1000
0001
,
1000
0001
0310
1001
,
0002
1000
0203
0010
,
0302
0023
2000
0000
,
0000
0000
0000
0000
,
0000
0000
3230
0000
,
0302
0000
0000
0000
0000
0000
0000
0000
0000
0000
2003
0000
0000
0000
0000
0000
0000
0000
3200
0000
0000
0000
0000
0000
0320
0000
0000
0032
0000
0000
0023
0000
0000
0230
0000
0000
0000
0000
0000
0000
0000
0000
0000
0000
0000
0000
0000
0000
,
0302
0000
2003
0000
3020
0000
0230
0000
0302
0000
2003
0000
3020
0000
0230
0000
2300
0000
0000
3200
0000
0000
0320
0000
0000
0032
0000
0000
0023
0000
0000
0230
,
0000
2300
0000
3200
0000
0320
0000
0030
0002
0000
0000
0000
0000
0000
0000
0000
0000
0000
0000
0000
0000
0000
0000
0000
0000
0000
0000
0000
0000
0000
0000
0000
,
0000
0000
2003
0000
,
3200
0000
0320
0230
0000
0000
0302
2003
,
0000
3020
0000
2030
3002
0023
0230
2300
,
3200
0320
0032
0023
0230
2300
3200
0320
,
0032
2003
3200
0320
,
0032
0203
0320
2030
,
3002
0203
2300
3020
0032
0203
2300
3020
,
0230
0000
0302
2003
3020
0230
0302
2003
,
3002
0203
0320
0230
0302
0000
2000
0000
,
3203
0002
0323
0200
,
2330
0000
0002
0000
0203
0302
0023
0230
,
0302
0023
0230
0302
0023
0230
0320
0032
,
0023
0000
3000
0032
0203
0000
2300
0000
,
3002
1000
0023
0100
,
0032
0000
2003
0000
3200
0002
2003
3002
,
2003
0000
0000
0000
0000
0000
3000
0000
0002
0000
0000
0000
0000
0000
0000
0000
0000
2003
0000
0000
0000
0000
0000
0000
0000
0000
3002
0000
0000
0000
0000
0000
0000
0000
2003
0000
0000
0000
0000
0000
0000
0000
3002
0000
0000
0000
0000
0000
,
0300
2003
0000
0000
0000
0000
0000
3002
0000
0000
0000
0000
0000
0000
0003
0000
2000
0000
0000
0000
0000
0000
0000
3001
0000
0000
0000
0000
0000
0000
0000
0000
;
