#TITLE:Will I;
#SUBTITLE:;
#ARTIST:Ian Van Dahl;
#TITLETRANSLIT:;
#SUBTITLETRANSLIT:;
#ARTISTTRANSLIT:;
#CREDIT:;
#BANNER:../Banner.png;
#BACKGROUND:../BG.png;
#LYRICSPATH:;
#CDTITLE:../CDTitleBRAEDEN.png;
#MUSIC:Ian Van Dahl - Will I (With Lyrics).ogg;
#OFFSET:-1.289;
#SAMPLESTART:123.960;
#SAMPLELENGTH:14.000;
#SELECTABLE:YES;
#BPMS:0.000=140.020;
#STOPS:;
#BGCHANGES:;
// cache tags:
#FIRSTBEAT:10.000;
#LASTBEAT:370.000;
#SONGFILENAME:Songs/Index Tesseract/Will I - [Braeden]/Will I.sm;
#HASMUSIC:1;
#HASBANNER:1;
#MUSICLENGTH:165.744;
// end cache tags

//---------------dance-single - ----------------
#NOTES:
     dance-single:
     :
     Challenge:
     12:
     0.710,1.000,0.042,0.296,0.953,762.000,7.000,49.000,11.000,5.000:

0000
0000
0000
0000
,
0000
0000
0000
0000
,
0000
0000
0000
0000
0000
0000
0000
0000
1000
0001
0200
0000
0000
0000
0000
0000
,
0000
0000
0000
0000
,
0000
0000
0320
0000
,
1030
0001
0400
0304
0000
2003
0000
0000
,
0000
0000
3010
0100
0002
0000
0000
0000
,
0000
0003
0004
0000
0000
0000
0000
0000
,
0000
0003
2001
0000
,
3001
0100
0010
1000
0040
0000
0000
0000
,
0030
0000
0010
1000
0200
0000
0000
0000
,
0000
0000
0000
0300
0400
0000
0000
0000
0000
0000
0000
0000
0000
0000
0000
0000
,
0000
0300
1004
0000
,
0000
0000
1003
0100
0000
0100
0000
0100
,
0000
0010
0000
0010
0004
0000
0000
0000
,
0000
0000
0000
0000
0000
0000
0003
0100
,
0001
0100
0010
1000
0004
0000
0000
0000
,
0000
0000
0000
0000
0003
0000
0001
0100
,
0010
1000
0010
0100
0002
0000
0000
0000
,
0000
0000
M003
00M0
,
0M00
0000
0000
0000
0002
0203
0000
0310
,
2000
0000
3000
0010
2000
0000
0000
0000
,
0002
0000
0020
0000
,
0000
0000
0000
0000
,
0000
0000
3033
0000
2000
3002
01M3
0010
,
1000
0000
000M
1000
0020
0000
000M
0000
,
0200
000M
2000
000M
,
0000
000M
0000
333M
,
0000
0000
0000
0000
000M
0000
0000
0000
0001
0100
0010
1000
0001
0010
0100
1000
,
0001
0100
0010
1000
0100
0010
0100
1000
0001
0100
0010
1000
0001
0010
0100
1000
,
0001
0100
0010
0100
0001
1000
0100
0010
0100
1000
0001
0010
0100
1000
0001
0100
,
0010
1000
0001
0010
0001
1000
0100
0010
0100
0010
0100
1000
0010
0100
0001
1000
,
0100
0010
0100
1000
0001
0010
0100
1000
0001
0100
0010
0100
0001
0010
0100
1000
,
0001
0100
0010
0100
0001
0010
0100
1000
0001
0100
0010
0100
0001
0010
0100
1000
,
0001
0100
0010
0100
0001
0010
0100
1000
0001
0100
0010
0100
0001
1000
0100
0010
,
0100
1000
0001
0010
0100
1000
0001
0100
0010
0100
0001
0010
0100
1000
0001
0100
,
0010
0100
0001
1000
0010
0100
0010
0000
1000
0100
0010
0100
1000
0001
0010
0100
,
1000
0001
0100
0010
1000
0100
0010
0001
2000
3100
2000
3100
0010
0001
0020
0130
,
2000
3100
0010
0001
0200
0310
2000
3001
0010
0100
0010
0001
0100
0010
0100
0001
,
0010
0100
1000
0001
0100
0010
0100
0001
1000
0100
0010
0100
1000
0001
0010
0100
,
1000
0001
0100
0010
0100
0001
0010
0100
1000
0001
0100
0010
0100
0001
0010
0100
,
1000
0001
0100
0010
1000
0100
0010
0001
0010
0100
0010
0100
1000
0010
1000
0100
,
1000
0100
0010
0100
0010
0001
0010
0100
1000
0001
0010
0100
1000
0001
0100
0010
,
0100
0001
1000
0100
0010
0100
1000
0001
0010
0100
1000
0001
0100
0010
0100
0001
,
0010
0100
1000
0001
0100
0010
0100
0001
1000
0100
0010
0100
1000
0001
0100
0010
,
0100
0001
0010
0100
1000
0001
0100
0010
0100
0001
1000
0100
0010
0100
1000
0001
,
0010
0100
1000
0001
0100
0010
0100
0001
0010
0100
1000
0001
0100
0010
0100
0001
,
1000
0100
0010
0100
1000
0001
0010
0100
1000
0001
0100
0010
0100
0001
1000
0100
,
0010
0001
0010
0100
1000
0001
0100
0010
0100
0001
0010
0100
1000
0001
0100
0010
,
0100
0001
1000
0100
0010
0100
0010
0001
0010
0100
1000
0001
0100
0010
0100
0001
,
0010
0100
1000
0001
0100
0010
0100
0001
1000
0100
0010
0100
1000
0010
0100
0001
,
0100
0010
1000
0001
0010
0100
1000
0001
0100
0010
1000
0100
0010
0100
1000
0001
,
0100
0010
1000
0001
0100
0010
1000
0001
1001
0000
0000
0000
0000
0000
0001
0000
,
0100
0000
0010
2000
0000
3002
0000
0203
,
0000
0000
0320
0000
0000
0000
2030
0000
3001
0100
0010
1000
0001
0010
0100
1000
,
0001
0100
0010
0100
0001
1000
0100
0010
0100
1000
0001
0100
0010
0100
0001
1000
,
0100
0010
0001
0010
0100
1000
0001
0100
0010
0100
0001
1000
0100
0010
0100
1000
,
0001
0100
0010
0100
0001
0010
0001
1000
0100
0010
0100
1000
0001
0010
0100
1000
,
0001
0100
0010
0100
0001
0010
0100
1000
0001
0100
0010
0100
0001
0010
0100
1000
,
0001
0100
0010
0100
0001
0010
0100
1000
0001
0100
0010
0100
0001
0010
0001
1000
,
0001
0100
0010
0100
0010
0100
0001
0100
0010
0000
1000
0000
0000
0000
0001
0000
,
0100
0000
0000
0010
2000
0000
0000
0000
,
0002
0000
0020
0000
,
0000
0000
0000
0000
,
0000
0000
3033
0000
0001
0100
0000
0100
,
0010
0000
0000
1000
0200
0000
0000
0000
,
2000
0000
0020
0000
,
0000
0000
0000
0000
,
3330
0000
0000
0000
1001
0010
0000
0001
,
0100
0000
0000
0010
2000
0000
0000
0000
,
0002
0000
0020
0000
,
0000
0000
0000
3033
,
2000
0000
3200
0000
,
0000
0000
0320
0000
,
0230
0000
0320
0000
,
0000
0000
0034
0000
,
0000
0000
0000
0000
0000
0000
0000
0000
0013
0100
0010
0100
0010
0100
0010
0100
,
0010
0001
0100
0010
1000
0001
0010
0100
1000
0001
0100
0010
0100
0001
1000
0100
,
0010
0100
1000
0001
0010
0100
1000
0001
0100
0010
0100
0001
0010
0001
0100
0010
,
1000
0001
0010
0100
1000
0001
0100
0010
0100
0001
1000
0100
0010
0100
1000
0001
,
0010
0100
1000
0001
0100
0010
0100
0001
1000
0100
0010
0100
1000
0001
0100
0010
,
0100
0001
0010
0100
0010
0001
0100
0010
1000
0001
0010
0100
1000
0001
0100
0010
,
0100
0001
0010
0100
1000
0001
0100
0010
0100
0001
1000
0100
0010
0100
1000
0010
,
1000
0100
1000
0001
0100
0010
0100
0001
0010
0100
1000
0001
0100
0010
0100
0001
,
0010
0001
1000
0100
0010
0100
1000
0001
0010
0100
1000
0001
0100
0010
0100
0001
,
0100
0000
0010
2000
0000
3002
0000
0203
,
0000
0320
0000
1030
0001
0100
0001
0010
,
0001
1000
0001
0010
0001
1000
0001
0100
,
0010
1000
0010
0100
0002
0000
0000
0000
,
0000
0000
0000
0000
2003
0000
0000
3010
,
0100
0010
1000
0001
0010
0010
0100
0100
,
1000
0000
1000
0000
0001
0000
0001
0000
1000
0100
0010
0001
1000
0010
0100
0001
,
1000
0010
0100
0010
1000
0100
0010
0001
0011
0000
0000
0000
0000
0000
0000
0000
;
