#TITLE:Bits With A Bite;
#SUBTITLE:EXoduz Violation II;
#ARTIST:BSK (MOB SQUAD TOKYO);
#TITLETRANSLIT:;
#SUBTITLETRANSLIT:;
#ARTISTTRANSLIT:;
#CREDIT:;
#BANNER:../Banner.png;
#BACKGROUND:../Background.png;
#LYRICSPATH:;
#CDTITLE:;
#MUSIC:Bits With A Bite - BSK (MOB SQUAD TOKYO).ogg;
#OFFSET:-0.383;
#SAMPLESTART:96.444;
#SAMPLELENGTH:12.000;
#SELECTABLE:YES;
#DISPLAYBPM:180.000;
#BPMS:0.000=180.000;
#STOPS:;
#BGCHANGES:;
// cache tags:
#FIRSTBEAT:2.000;
#LASTBEAT:1153.500;
#SONGFILENAME:Songs/EXoduz Violation II/Bits With A Bite - BSK (MOB SQUAD TOKYO) - [Ov3rHell3XoduZ]/sm.sm;
#HASMUSIC:1;
#HASBANNER:1;
#MUSICLENGTH:388.032;
// end cache tags

//---------------dance-single - ----------------
#NOTES:
     dance-single:
     :
     Beginner:
     15:
     1.000,1.000,0.046,0.796,1.000,3453.000,18.000,309.000,3.000,0.000:

0000
0000
0000
0000
0000
0000
0000
0000
2000
3100
0010
0001
2000
3010
1000
0010
,
0200
0301
0010
0001
0200
0301
1000
0010
2000
3100
0010
0001
2000
3001
0100
0001
,
2000
3100
1000
0100
2000
3001
0100
0001
0020
0130
1000
0010
2000
3010
0100
0001
,
2000
3100
0010
0001
0020
0130
1000
0001
0200
0301
1000
0001
2000
3001
1000
0010
,
2000
3010
0100
0001
2000
3100
1000
0100
0020
0031
0010
0001
2000
3001
0100
0001
,
2000
3010
1000
0010
0200
0301
1000
0001
2000
3100
0010
0001
2000
3010
1000
0010
,
0200
0301
1000
0001
2000
3100
0010
0001
2000
3001
0100
0001
2000
3010
1000
0010
,
0200
0301
0010
0100
2000
3001
0100
0001
2000
3100
1000
0010
0200
0301
0100
0001
,
2000
3100
0010
0001
2000
3010
1000
0010
0200
0000
0000
0000
0301
0000
0010
0000
,
0200
0000
0000
0000
1300
0001
2000
0000
3020
0000
0000
0000
0130
0000
0001
0000
,
2000
0000
3100
0010
0001
1000
0001
0100
,
0002
0000
0000
0000
1003
0010
0100
0000
0200
0000
0000
0000
0301
0010
0100
0000
,
2000
0000
0000
0000
0000
0000
0000
0000
0000
0000
0000
0000
3001
0000
0000
0100
0000
0000
0001
0000
0000
0000
1000
0000
0001
0000
0000
0000
0000
0000
1000
0000
0000
0010
0000
0000
0100
0000
0000
0001
0000
0000
0010
0000
0000
0100
0000
0000
,
2000
0000
3001
1000
0010
0100
0001
0010
0200
0000
1300
0001
0100
0001
1000
0010
,
0200
0000
0301
0010
0100
1000
0100
0010
0002
0000
1003
0001
1000
0010
0100
0001
,
0020
0000
0130
1000
0001
0100
0010
1000
0400
0340
0034
4003
3040
0430
0304
4003
,
3400
0340
0034
4003
3010
0000
0200
0000
0000
0000
0302
0000
0003
0000
0001
0000
,
0010
0000
0100
0000
2000
3000
0001
0000
1000
0000
0010
0000
0200
0300
0001
0000
,
0010
0000
0100
0000
2000
3000
0002
0003
1000
0000
0010
0000
0200
0300
0001
0000
,
0010
0000
0100
0000
2000
3000
0010
0000
0100
0000
0001
0000
2000
3000
0100
0000
,
0010
0000
0000
0000
0000
0000
0100
0000
0000
0000
0000
0000
2000
0000
0000
3000
0000
0000
0001
0000
1000
0000
0000
0000
0001
0000
0000
0000
0000
0000
1000
0000
0000
0000
0000
0000
0020
0000
0000
0030
0000
0000
0100
0000
0000
0000
0000
0000
,
0001
0000
0010
0000
0200
0300
1000
0000
0010
0000
0100
0000
0002
0003
1000
0000
,
0001
0000
1000
0000
0020
0030
0200
0300
0001
0000
0010
0000
0200
0300
1000
0000
,
0001
0000
1000
0000
0020
0030
0100
0000
0001
0000
0010
0000
0200
0300
1000
0000
,
0001
0000
0100
0000
0002
0003
1000
0000
0020
0130
0001
0010
0100
1000
0001
0100
,
0002
1003
0010
0100
0001
0010
0100
1000
0002
1003
0010
0100
0001
1000
0100
0010
,
0002
0103
0001
0100
0001
0010
0100
1000
0002
1003
0010
1000
0010
0100
0001
0100
,
0002
1003
0010
0100
0001
0010
0100
1000
0002
1003
0010
1000
0010
0100
0001
1000
,
0002
1003
0100
0010
0100
1000
0100
0010
0002
1003
0010
0100
0001
0010
0100
1000
,
0020
0130
0001
0100
0001
1000
0100
1000
0020
0130
0001
0100
0001
1000
0100
0010
,
0002
1003
0001
1000
0100
0010
0001
1000
0020
0130
0001
0010
0100
1000
0100
0010
,
0002
1003
0100
1000
0001
0100
0001
1000
0200
1300
0010
0100
0001
1000
0100
0010
,
0002
0000
0000
1003
0000
0000
0001
0000
0000
0100
0000
0000
0010
0000
0000
1000
0000
0000
0001
0000
0000
0100
0000
0000
0010
0000
0000
1000
0000
0000
0001
0000
0000
0100
0000
0000
0010
0000
0100
0000
0010
0000
0100
0000
0000
0001
0000
0000
,
0010
0000
0000
0100
0000
0000
1000
0000
0000
0001
0000
0000
0100
0000
0000
0001
0000
0000
1000
0000
0000
0100
0000
0000
1000
0000
0000
0010
0000
0000
0100
0000
0000
0001
0000
0000
1000
0000
0100
0000
1000
0000
0100
0000
0000
0010
0000
0000
,
0001
0000
0000
1000
0000
0000
0010
0000
0000
1000
0000
0000
0010
0000
0000
0100
0000
0000
0001
0000
0000
0100
0000
0000
0001
0000
0000
0010
0000
0000
0100
0000
0000
1000
0000
0000
0001
0000
0100
0000
0001
0000
0100
0000
0000
0010
0000
0000
,
1000
0000
0000
0100
0000
0000
0010
0000
0000
0001
0000
0000
0010
0000
0000
0001
0000
0000
1000
0000
0000
0001
0000
0000
0100
0000
0000
0001
0000
0000
1000
0000
0000
0100
0000
0000
1000
0000
0010
0000
1000
0000
0010
0000
0000
0100
0000
0000
,
0001
0000
0000
0010
0000
0000
0100
0000
0000
1000
0000
0000
0001
0000
0000
0100
0000
0000
0001
0000
0000
1000
0000
0000
0010
0000
0000
1000
0000
0000
0010
0000
0000
0100
0000
0000
0001
0000
0010
0000
0001
0000
0010
0000
0000
0100
0000
0000
,
1000
0000
0000
0001
0000
0000
0100
0000
0000
0001
0000
0000
1000
0000
0000
0010
0000
0000
1000
0000
0000
0010
0000
0000
0100
0000
0000
0001
0000
0000
0010
0000
0000
0100
0000
0000
1000
0000
0001
0000
1000
0000
0001
0000
0000
1000
0000
0000
,
0010
0000
0000
0100
0000
0000
0001
0000
0000
0100
0000
0000
0001
0000
0000
0010
0000
0000
0100
0000
0000
1000
0000
0000
0001
0000
0000
0100
0000
0000
0001
0000
0000
1000
0000
0000
0010
0000
0100
0000
0001
0000
0100
0000
0000
0010
0000
0000
,
1000
0000
0000
0100
0000
0000
0010
0000
0000
0001
0000
0000
1000
0000
0000
0001
0000
0000
0100
0000
0000
0001
0000
0000
0010
0000
0000
0100
0000
0000
1000
0000
0100
0000
1000
0000
0001
0000
0100
0000
0001
0000
0100
0000
0000
0010
0000
0000
,
1000
0000
0000
0100
0000
0000
0010
0000
0000
0001
0000
0000
1000
0000
0000
0001
0000
0000
0100
0000
0000
0001
0000
0000
0010
0000
0000
0100
0000
0000
1000
0000
0000
0001
0000
0000
1000
0000
0010
0000
1000
0000
0010
0000
0000
0100
0000
0000
,
0001
0000
0000
0010
0000
0000
0100
0000
0000
1000
0000
0000
0001
0000
0000
0100
0000
0000
0001
0000
0000
1000
0000
0000
0001
0000
0000
1000
0000
0000
0100
0000
0000
0010
0000
0000
0001
0000
1000
0000
0001
0000
1000
0000
0000
0010
0000
0000
,
0100
0000
0000
0001
0000
0000
0010
0000
0000
0100
0000
0000
1000
0000
0000
0001
0000
0000
0100
0000
0000
0001
0000
0000
1000
0000
0000
0100
0000
0000
1000
0000
0000
0010
0000
0000
0100
0000
0001
0000
0100
0000
0001
0000
0000
1000
0000
0000
,
0010
0000
0000
0100
0000
0000
0001
0000
0000
0100
0000
0000
0001
0000
0000
0010
0000
0000
0100
0000
0000
1000
0000
0000
0001
0000
0000
0100
0000
0000
0001
0000
0000
1000
0000
0000
0001
0000
1000
0000
0001
0000
1000
0000
0000
0010
0000
0000
,
0100
0000
0000
0001
0000
0000
0010
0000
0000
0100
0000
0000
1000
0000
0000
0001
0000
0000
0100
0000
0000
0010
0000
0000
1000
0000
0000
0100
0000
0000
0010
0000
0000
0001
0000
0000
1000
0000
0001
0000
0100
0000
0001
0000
0000
1000
0000
0000
,
0010
0000
0000
0100
0000
0000
0001
0000
0000
0010
0000
0000
0100
0000
0000
1000
0000
0000
0001
0000
0000
0100
0000
0000
0001
0000
0000
1000
0000
0000
0001
0000
0000
1000
0000
0000
0100
0000
0010
0000
0001
0000
0010
0000
0000
0100
0000
0000
,
1000
0000
0000
0001
0000
0000
0100
0000
0000
0001
0000
0000
1000
0000
0000
0010
0000
0000
0100
0000
0000
0001
0000
0000
0010
0000
0000
0100
0000
0000
1000
0000
0000
0001
0000
0000
1000
0000
0010
0000
1000
0000
0010
0000
0000
0100
0000
0000
,
0001
0010
0100
1000
0001
0000
0101
0000
1001
0000
2000
3200
0320
0032
2003
3002
,
0203
0302
0023
0230
2300
3002
0203
0320
1030
0000
0000
1000
0000
0000
0200
0000
,
0000
0000
0000
0000
0000
0310
0010
0020
,
0000
0000
0000
0000
0000
0031
0001
0002
,
0000
0000
0000
0000
0000
1003
1000
2000
,
0000
0000
0000
0000
0000
3010
0010
0020
,
0000
0000
0000
0000
0000
0130
0100
0200
,
0000
0000
0000
0000
0000
0301
0001
0002
,
0000
0000
0000
0000
0000
0013
0010
0020
,
0000
0000
0000
0000
0000
0130
0100
0200
,
0000
0000
0000
0000
0000
1300
1000
2000
,
0000
0000
0000
0000
0000
0000
0000
0000
3040
0030
0040
0030
0040
0030
0020
0000
,
0000
0000
0000
0000
0000
0000
0000
0000
0430
0300
0400
0300
0400
0300
0200
0000
,
0000
0000
0000
0000
0000
0000
0000
0000
0304
0003
0001
0000
0001
0000
0002
0000
,
0000
0000
0000
0000
00M0
0013
0010
0020
,
0000
0000
0000
0000
0M00
0130
0100
0200
,
0000
0000
0000
0000
M000
1300
1000
2000
,
0000
0000
0000
0000
3001
0100
0010
1000
0200
0000
0000
0000
0310
0001
1000
0010
,
0100
0001
0100
0001
0010
0100
1000
0001
1000
0010
1000
0010
0100
0001
0100
0001
,
1000
0100
1000
0001
0100
0001
1000
0100
0010
0001
1000
0001
0100
0001
1000
0010
,
0100
0010
1000
0100
0010
0001
1000
0001
0100
0001
0010
0100
0010
0001
1000
0001
,
0100
0001
1000
0100
1000
0010
0100
0001
1000
0001
1000
0100
0010
0001
0010
0001
,
1000
0010
0100
0001
0100
0001
0010
0100
1000
0001
0100
0001
1000
0100
0010
0001
,
1000
0010
1000
0010
0100
0001
1000
0001
1000
0100
0010
0001
1000
0001
0100
0001
,
0010
0100
1000
0001
0100
0001
1000
0010
1000
0010
0100
0001
0010
0100
1000
0001
,
0100
0001
1000
0100
0010
0001
1000
0001
2000
0000
3000
0000
0200
0000
0320
0000
,
0030
0000
0002
0003
0002
0003
0002
0003
0002
0000
0003
0000
0000
0000
2000
0000
,
3000
0000
0020
0030
0200
0300
0000
0002
,
0003
0000
2000
3200
0320
0030
0000
0002
,
0003
0000
0000
0000
2000
3000
2000
3000
2000
0000
3000
0000
0020
0000
0230
0000
,
0300
0002
0023
0230
2300
3000
0000
0002
,
0003
0000
0000
0000
2000
3000
2000
3000
2000
0000
3000
0000
0000
0000
0200
0000
,
0300
0000
0020
0032
0203
0300
0000
0020
,
0030
0000
0000
0000
0000
0000
2000
0000
0000
3000
0000
0000
0001
0100
0001
0100
0000
0000
0000
0000
0000
0010
1000
0010
,
1000
0000
0000
0000
0000
0000
0100
0010
0100
0010
0000
0000
0000
0000
0000
0001
0100
0001
0100
0000
0000
0000
0000
0000
,
0010
1000
0010
1000
0000
0000
0100
0010
0100
0010
0000
0000
0001
0100
0001
0100
0000
0000
0000
0000
0000
0010
1000
0010
,
1000
0000
0000
0000
0000
0000
0100
0010
0100
0010
0000
0000
0000
0000
0000
0001
0100
0001
0100
0000
0000
0000
0000
0000
,
0010
1000
0010
1000
0000
0000
0001
1000
0001
1000
0000
0000
0010
0100
0010
0100
0000
0000
0000
0000
0000
0001
0010
0001
,
0010
0000
0000
0000
0000
0000
0100
1000
0100
1000
0000
0000
0000
0000
0000
0001
0100
0001
0100
0000
0000
0000
0000
0000
,
0010
1000
0010
1000
0000
0000
0100
0010
0100
0010
0000
0000
0001
0100
0001
0100
0000
0000
0000
0000
0000
0010
1000
0010
,
1000
0000
0000
0000
0000
0000
0001
1000
0001
1000
0000
0000
0000
0000
0000
0100
1000
0100
1000
0000
0000
0000
0000
0000
,
0010
0100
0010
0100
0000
0000
0001
0010
0001
0010
0000
0000
0100
1000
0100
1000
0000
0000
0000
0000
0000
0001
0100
0001
,
0100
0000
0000
0000
0000
0000
0010
1000
0010
1000
0000
0000
0000
0000
0000
0100
0010
0100
0010
0000
0000
0000
0000
0000
,
0001
1000
0001
1000
0000
0000
0010
1000
0010
1000
0000
0000
0001
0100
0001
0100
0000
0000
0000
0000
0000
0010
1000
0010
,
1000
0000
0000
0000
0000
0000
0100
0010
0100
0010
0000
0000
0000
0000
0000
0001
0100
0001
0100
0000
0000
0000
0000
0000
,
0010
1000
0010
1000
0000
0000
0100
0010
0100
0010
0000
0000
0001
1000
0001
1000
0000
0000
0000
0000
0000
0010
1000
0010
,
1000
0000
0000
0000
0000
0000
0010
0100
0010
0100
0000
0000
0000
0000
0000
0001
0100
0001
0100
0000
0000
0000
0000
0000
,
0001
0010
0001
0010
0000
0000
0100
1000
0100
1000
0000
0000
0001
0100
0001
0100
0000
0000
0000
0000
0000
0010
1000
0010
,
1000
0000
0000
0000
0000
0000
0001
1000
0001
1000
0000
0000
0000
0000
0000
0100
1000
0100
1000
0000
0000
0000
0000
0000
,
0001
0000
0010
0000
0001
0000
0010
0000
0000
0000
0000
0000
0100
0000
1000
0000
0100
0000
1000
0000
0000
0001
0000
0000
0020
0000
0000
0000
0000
0000
0000
0000
0000
0000
0000
0000
0130
0000
0000
1000
0000
0000
0001
0000
0000
0010
0000
0000
,
0100
1000
0001
0100
0001
1000
0010
1000
0010
0100
0001
0100
0001
1000
0001
1000
,
0100
1000
0100
0010
0001
1000
0001
0100
0001
1000
0010
1000
0010
0100
0001
1000
,
0001
1000
0100
0010
0001
1000
0001
0100
0001
1000
0010
0100
0001
1000
0001
1000
,
0100
0010
0001
1000
0001
0100
0001
1000
0100
1000
0001
0100
0001
0010
0100
1000
,
0001
0000
0000
0100
0000
0000
0001
0000
0000
1000
0000
0000
0100
0000
0000
0010
0000
0000
0001
0000
0000
1000
0000
0000
0001
0000
0000
0100
0000
0000
0001
0000
1000
0000
0001
0000
1000
0000
0000
0010
0000
0000
0100
0000
0000
0001
0000
0000
,
0010
0100
1000
0001
0100
0001
1000
0001
1000
0010
0100
0001
1000
0001
1000
0100
,
0010
0000
0000
0001
0000
0000
1000
0000
0000
0001
0000
0000
1000
0000
0000
0100
0000
0000
1000
0000
0000
0010
0000
0000
0100
0000
0000
0001
0000
0000
0100
0000
0010
0000
0100
0000
0010
0000
0000
1000
0000
0000
0100
0000
0000
0010
0000
0000
,
0004
4003
3040
4030
3400
0340
0034
4003
3010
0100
0001
0010
0100
1000
0001
0100
,
0001
1000
0001
1000
0100
0010
0001
1000
0001
1000
0001
0100
0001
1000
0010
1000
,
0010
0100
0001
1000
0001
1000
0100
0010
0001
1000
0001
0100
0001
1000
0010
0100
,
0001
0010
0100
1000
0001
0100
0001
1000
0001
1000
0100
0010
0001
1000
0010
1000
,
0010
0100
0001
1000
0001
1000
0100
0010
0002
1003
0010
1000
0001
1000
0010
1000
,
0001
1000
0010
1000
0001
1000
0001
0100
0001
1000
0001
0100
0001
1000
0001
0100
,
0001
1000
0001
1000
0100
0010
0001
1000
0002
0003
0000
0000
0000
0000
0110
0000
,
0000
0000
1100
0000
0101
0011
1001
0000
,
1010
0000
1001
0000
1100
0000
0000
0000
0200
0310
0001
1000
0001
1000
0010
0100
,
0001
1000
0001
1000
0100
0010
0001
1000
0001
0100
0001
1000
0001
0010
0100
1000
,
0001
0010
0100
1000
0001
0100
0001
1000
0010
0100
0001
0010
0100
1000
0001
0010
,
0100
1000
0001
0100
0001
1000
0010
1000
0010
0100
0001
0010
0100
1000
0010
0100
,
0001
1000
0010
0100
0001
1000
0010
1000
0010
0100
0001
1000
0001
1000
0100
0010
,
0001
1000
0100
0010
0001
1000
0001
0100
0001
0010
0100
1000
0001
1000
0100
0010
,
0001
1000
0100
0010
0001
1000
0001
0100
0001
0100
0010
1000
0010
0100
0001
1000
,
0010
0100
0001
1000
0010
0100
0001
0010
0100
1000
0001
1000
0001
0100
0001
1000
,
0100
1000
0001
0100
0001
1000
0100
0010
0001
1000
0001
0100
0001
0010
0100
1000
,
0001
0010
0100
1000
0001
0100
0001
1000
0010
1000
0010
1000
0100
0010
0001
1000
,
0100
0010
0001
1000
0001
0100
0001
0010
0100
1000
0001
1000
0010
0100
0010
1000
,
0010
0100
0010
1000
0100
0010
0001
1000
0001
0100
0001
1000
0001
0010
0100
1000
,
0001
0010
0100
1000
0001
0100
0010
1000
0010
0100
0001
1000
0001
0010
0100
1000
,
0001
0010
0100
1000
0001
0100
0001
1000
0010
0100
0010
1000
0100
0010
0001
1000
,
0100
0010
0001
1000
0100
0010
0001
0100
0001
0010
0100
1000
0001
1000
0010
0100
,
0001
0000
0000
1000
0000
0000
0010
0000
0000
0100
0000
0000
0001
0000
0000
1000
0000
0000
0100
0000
0000
0010
0000
0000
0002
0000
0000
0000
0000
0000
1003
0000
0010
0000
1000
0000
0020
0000
0000
0000
0000
0000
0000
0000
0000
0000
0000
0000
,
0130
0001
0010
0100
2000
0000
3001
0100
,
0000
0010
1000
0100
0020
0000
0000
0032
,
0000
0000
1003
0010
0200
0000
0000
0302
,
0000
0000
0013
0100
1000
0000
0000
0002
,
0000
0000
1003
0010
0200
0301
1000
0001
,
0100
0001
1000
0010
0100
0001
0010
0100
,
1000
0001
1000
0010
0100
0001
0100
0001
,
1000
0100
0010
0001
1000
0001
1000
0010
,
0100
0001
0010
0100
2000
0000
3001
0001
,
0000
1000
0010
0100
0002
0000
0000
0023
,
0000
0000
0130
0100
0200
0000
0000
2300
,
0000
0000
3010
0100
0002
0000
0000
0023
,
0000
0000
0130
1000
0100
0000
0010
0010
,
0000
0001
0100
0010
2000
0000
0000
3200
,
0000
0000
0310
0001
0200
0000
0000
0320
,
0000
0000
1030
0100
0020
0000
0000
0032
,
0000
0000
0000
0000
0000
0000
0000
0000
0000
0000
0000
0000
0000
0000
0000
0000
1003
0000
0000
0000
0000
0000
0000
0000
0001
0000
0000
0000
0000
0000
0000
0000
1000
0000
0000
0001
0000
0000
1000
0000
0000
0001
0000
0000
1000
0000
0000
0001
0000
0000
0100
0000
0000
0001
0000
0000
0100
0000
0000
0001
0000
0000
0010
0000
,
0000
0100
0000
0000
1000
0000
0000
0001
0000
0000
1000
0000
0000
0001
0000
0000
1000
0000
0000
0100
0000
0000
0010
0000
0000
0001
0000
0000
1000
0000
0000
0001
0000
0000
0100
0000
0000
0010
0000
0000
0100
0000
0000
0001
0000
0000
1000
0000
0000
0001
0000
0000
0010
0000
0000
0100
0000
0000
1000
0000
0000
0001
0000
0000
,
1000
0000
0000
0001
0000
0000
1000
0000
0000
0010
0000
0000
0100
0000
0000
0001
0000
0000
1000
0000
0000
0100
0000
0000
1000
0000
0000
0100
0000
0000
0010
0000
0000
0001
0000
0000
1000
0000
0000
0001
0000
0000
1000
0000
0000
0001
0000
0000
0100
0000
0000
0001
0000
0000
0010
0000
0000
0100
0000
0000
1000
0000
0000
0010
,
0000
0000
1000
0000
0000
0010
0000
0000
1000
0000
0000
0010
0000
0000
0100
0000
0000
0001
0000
0000
0010
0000
0000
0100
0000
0000
1000
0000
0000
0001
0000
0000
1000
0000
0000
0001
0000
0000
1000
0000
0000
0010
0000
0000
0100
0000
0000
0001
0000
0000
0010
0000
0000
0100
0000
0000
1000
0000
0000
0001
0000
0000
1000
0000
,
0000
0010
0000
0000
0100
0000
0000
0001
0000
0000
0100
0000
0000
0010
0000
0000
1000
0000
0000
0100
0000
0000
0010
0000
0000
0001
0000
0000
1000
0000
0000
0001
0000
0000
0100
0000
0000
0001
0000
0000
0100
0000
0000
0010
0000
0000
1000
0000
0000
0100
0000
0000
0010
0000
0000
0001
0000
0000
1000
0000
0000
0001
0000
0000
,
1000
0000
0000
0010
0000
0000
0100
0000
0000
0001
0000
0000
0100
0000
0000
0010
0000
0000
1000
0000
0000
0100
0000
0000
0010
0000
0000
0001
0000
0000
1000
0000
0000
0001
0000
0000
1000
0000
0000
0010
0000
0000
0100
0000
0000
0001
0000
0000
0010
0000
0000
0100
0000
0000
1000
0000
0000
0001
0000
0000
1000
0000
0000
0010
,
0000
0000
1000
0000
0000
0100
0000
0000
0010
0000
0000
0100
0000
0000
1000
0000
0000
0001
0000
0000
1000
0000
0000
0010
0000
0000
0100
0000
0000
0001
0000
0000
0010
0000
0000
0001
0000
0000
1000
0000
0000
0001
0000
0000
1000
0000
0000
0100
0000
0000
1000
0000
0000
0001
0000
0000
1000
0000
0000
0010
0000
0000
0100
0000
,
0000
0001
0000
0000
0100
0000
0000
0001
0000
0000
0010
0000
0000
0100
0000
0000
1000
0000
0000
0001
0000
0000
1000
0000
0000
0001
0000
0000
1000
0000
0000
0100
0000
0000
0010
0000
0000
0001
0000
0000
0010
0000
0000
0100
0000
0000
1000
0000
0000
0001
0000
0000
0100
0000
0000
0001
0000
0000
0100
0000
0000
0010
0000
0000
,
1000
0000
0000
0100
0000
0000
0010
0000
0000
0001
0000
0000
1000
0000
0000
0001
0000
0000
0010
0000
0000
0100
0000
0000
1000
0000
0000
0001
0000
0000
0100
0000
0000
0001
0000
0000
1000
0000
0000
0100
0000
0000
1000
0000
0000
0010
0000
0000
0100
0000
0000
0010
0000
0000
0100
0000
0000
0001
0000
0000
0100
0000
0000
0010
,
0000
0000
1000
0000
0000
0100
0000
0000
0010
0000
0000
0001
0000
0000
1000
0000
0000
0001
0000
0000
1000
0000
0000
0001
0000
0000
0100
0000
0000
0010
0000
0000
1000
0000
0000
0100
0000
0000
0010
0000
0000
0001
0000
0000
1000
0000
0000
0001
0000
0000
0100
0000
0000
0001
0000
0000
0010
0000
0000
0100
0000
0000
1000
0000
,
0000
0001
0000
0000
1000
0000
0000
0010
0000
0000
0100
0000
0000
0001
0000
0000
0100
0000
0000
0010
0000
0000
1000
0000
0000
0100
0000
0000
0010
0000
0000
0001
0000
0000
1000
0000
0000
0001
0000
0000
1000
0000
0000
0010
0000
0000
0100
0000
0000
0001
0000
0000
0100
0000
0000
0001
0000
0000
0100
0000
0000
0010
0000
0000
,
0100
0000
0000
0001
0000
0000
0010
0000
0000
0100
0000
0000
1000
0000
0000
0001
0000
0000
1000
0000
0000
0010
0000
0000
0100
0000
0000
0001
0000
0000
1000
0000
0000
0001
0000
0000
1000
0000
0000
0100
0000
0000
0010
0000
0000
0001
0000
0000
1000
0000
0000
0001
0000
0000
0100
0000
0000
0001
0000
0000
0100
0000
0000
0010
,
0000
0000
1000
0000
0000
0100
0000
0000
0010
0000
0000
0001
0000
0000
1000
0000
0000
0001
0000
0000
0100
0000
0000
0001
0000
0000
0010
0000
0100
0000
0000
1000
0000
0000
0010
0000
0000
0100
0000
0000
0001
0000
0000
1000
0000
0000
0001
0000
0000
1000
0000
0000
0010
0000
0000
0100
0000
0000
0001
0000
0000
1000
0000
0000
,
0100
0000
0000
0010
0000
0000
0001
0000
0000
1000
0000
0000
0001
0000
0000
0100
0000
0000
0001
0000
0000
1000
0000
0000
0100
0000
0000
1000
0000
0000
0010
0000
0000
1000
0000
0000
0100
0000
0000
0010
0000
0000
0001
0000
0000
1000
0000
0000
0001
0000
0000
0010
0000
0000
0100
0000
0000
1000
0000
0000
0001
0000
0000
1000
,
0000
0000
0010
0000
0000
0100
0000
0000
0001
0000
0000
0010
0000
0000
0100
0000
0000
1000
0000
0000
0001
0000
0000
1000
0000
0000
0010
0000
0000
0100
0000
0000
0001
0000
0000
1000
0000
0000
0010
0000
0000
0100
0000
0000
0001
0000
0000
1000
0000
0000
0001
0000
0000
0010
0000
0000
0100
0000
0000
1000
0000
0000
0001
0000
,
0000
1000
0000
0000
0001
0000
0000
1000
0000
0000
0010
0000
0000
0100
0000
0000
0001
0000
0000
0010
0000
0000
0100
0000
0000
1000
0000
0000
0100
0000
0000
1000
0000
0000
0001
0000
0000
1000
0000
0000
0010
0000
0000
0000
0100
0000
0000
0000
0001
0000
0000
0000
0010
0000
0000
0000
0100
0000
0000
0000
1000
0000
0000
0000
,
0001
0100
0001
1000
0010
0100
0001
0010
0200
0000
1300
0000
1000
0000
2000
0000
,
0000
0000
0000
0000
0000
3010
0010
0020
,
0000
0000
0000
0000
0000
0130
0100
0200
,
0000
0000
0000
0000
0000
0301
0001
0002
,
0000
0000
0000
0000
0000
1003
1000
2000
,
0000
0000
0000
0000
0000
3100
0100
0200
,
0000
0000
0000
0000
0000
0000
0000
0000
0340
0030
0010
0000
0010
0000
0020
0000
,
0000
0000
0000
0000
0000
0000
0000
0000
0034
0003
0001
0000
0001
0000
0002
0000
,
0000
0000
0000
0000
0000
0000
0000
0000
4003
3000
1000
0000
1000
0000
2000
0000
,
0000
0000
0000
0000
0000
0000
0000
0000
3040
0030
0010
0000
0010
0000
0020
0000
,
0000
0000
0000
0000
0000
0000
0000
0000
0430
0300
0400
0300
0400
0300
0200
0000
,
0000
0000
0000
0000
0000
0000
0000
0000
0304
0003
0004
0003
0004
0003
0002
0000
,
0000
0000
0000
0000
0000
0000
0000
0000
0043
0030
0010
0000
0010
0000
0020
0000
,
0000
0000
0000
0000
0000
0130
0100
0200
,
0000
0000
0000
0000
0000
1300
1000
2000
,
0000
0000
0000
0000
0000
3010
0010
0020
,
0000
0000
0000
0000
0130
0001
0010
0100
2000
0000
0000
0000
3004
0000
0000
0000
,
1003
0100
1000
0001
0100
0001
1000
0010
0100
0001
0010
0100
1000
0001
1000
0010
,
1000
0010
0100
0001
0010
0100
1000
0001
0100
0001
1000
0100
0010
0001
1000
0010
,
1000
0010
0100
0001
0010
0100
1000
0001
1000
0001
0100
0010
1000
0001
1000
0100
,
0010
0001
0100
0001
0010
0100
1000
0010
0100
0010
1000
0001
1000
0100
0010
0001
,
1000
0001
0100
0010
0100
0001
0010
0100
1000
0001
0100
0001
1000
0001
1000
0010
,
1000
0010
0100
0001
0010
0100
1000
0001
0100
0001
1000
0100
0010
0001
1000
0010
,
1000
0001
0010
0001
1000
0100
0010
0001
1000
0001
0100
0001
0010
0100
1000
0001
,
0100
0010
1000
0100
0010
0001
1000
0001
4000
3100
0010
0001
1000
0001
0100
0001
,
0010
0100
1000
0001
0100
0001
1000
0010
1000
0010
0100
0001
0010
0100
1000
0001
,
0100
0001
1000
0010
1000
0100
0010
0001
0100
0001
1000
0001
1000
0010
1000
0010
,
0100
0001
0010
0100
1000
0001
0100
0001
1000
0100
0010
0001
1000
0001
1000
0010
,
1000
0010
0100
0001
0010
0100
1000
0001
0100
0001
1000
0001
1000
0010
1000
0010
,
0100
0001
0010
0100
1000
0001
0100
0001
1000
0100
0010
0001
1000
0010
1000
0010
,
0100
0001
0010
0100
1000
0100
0010
0001
1000
0001
0100
0001
1000
0100
1000
0001
,
1000
0001
1000
0010
1000
0010
0100
0001
0010
0100
1000
0001
0100
0001
1000
0001
,
1000
0000
0000
0100
0000
0000
0010
0000
0000
0001
0000
0000
1000
0000
0000
0001
0000
0000
1000
0000
0000
0010
0000
0000
1000
0000
0100
0000
1000
0000
0100
0000
0000
0000
0000
0000
0000
0000
0000
0000
0000
0000
0010
0000
0001
0000
0010
0000
,
0001
0000
0000
0000
0000
0000
1000
0010
1000
0010
0000
0000
0000
0000
0000
0100
0001
0100
0001
0000
0000
0000
0000
0000
,
0001
0010
0001
0010
0000
0000
0100
1000
0100
1000
0000
0000
0001
0100
0001
0100
0000
0000
0000
0000
0000
0010
1000
0010
,
1000
0000
0000
0000
0000
0000
0001
1000
0001
1000
0000
0000
0000
0000
0000
0100
1000
0100
1000
0000
0000
0000
0000
0000
,
0010
0100
0010
0100
0000
0000
0001
1000
0001
1000
0000
0000
0010
1000
0010
1000
0000
0000
0000
0000
0000
0100
0010
0100
,
0010
0000
0000
0000
0000
0000
0001
0100
0001
0100
0000
0000
0000
0000
0000
0010
1000
0010
1000
0001
0100
0001
0000
0000
,
0010
1000
0010
1000
0000
0000
0100
0010
0100
0010
0000
0000
1000
0100
1000
0100
0000
0000
0000
0000
0000
0010
0001
0010
,
0001
0000
0000
0000
0000
0000
1000
0100
1000
0100
0000
0000
0000
0000
0000
0010
0000
0000
0001
1000
0001
1000
0000
0000
,
0001
0100
0001
0100
0000
0000
1000
0100
1000
0100
0000
0000
0010
0001
0010
0001
0000
0000
0000
0000
0000
1000
0001
1000
,
0001
0000
0000
0000
0000
0000
0100
0010
0100
0010
0000
0000
0000
0000
0000
1000
0100
1000
0100
0000
0000
0000
0000
0000
,
0010
0001
0010
0001
0000
0000
0100
0010
0100
0010
0000
0000
1000
0100
1000
0100
0000
0000
0000
0000
0000
1000
0010
1000
,
0010
0000
0000
0000
0000
0000
0100
0001
0100
0001
0000
0000
0000
0000
0000
0001
0010
0001
0010
0000
0000
0000
0000
0000
,
0100
1000
0100
1000
0000
0000
0010
0100
0010
0100
0000
0000
0001
0010
0001
0010
0000
0000
0000
0000
0000
0100
1000
0100
,
1000
0000
0000
0000
0000
0000
0001
0100
0001
0100
0000
0000
0000
0000
0000
0010
0000
0000
1000
0100
1000
0100
0000
0000
,
1000
0010
1000
0010
0000
0000
0100
0001
0100
0001
0000
0000
0010
0100
0010
0100
0000
0000
0000
0000
0000
1000
0010
1000
,
0010
0000
0000
0000
0000
0000
0100
0001
0100
0001
0000
0000
0000
0000
0000
1000
0001
1000
0001
0000
0000
1000
0000
0000
,
0100
0000
0010
0000
0100
0000
0010
0000
0000
0000
0000
0000
1000
0000
0100
0000
1000
0000
0100
0000
0000
0010
0000
0000
0001
0000
0000
1000
0000
0000
0010
0000
0000
0100
0000
0000
0001
0000
0000
0010
0000
0000
0100
0000
0000
1000
0000
0000
,
0001
0100
0001
1000
0001
1000
0010
1000
0010
0100
0001
0010
0100
1000
0001
0100
,
0001
1000
0001
1000
0010
1000
0010
0100
0001
0010
0100
1000
0001
0100
0001
1000
,
0001
1000
0010
1000
0100
0010
0001
1000
0001
0100
0001
0010
0100
1000
0001
0100
,
0001
1000
0001
1000
0010
1000
0010
0100
0001
0010
0100
1000
0001
0100
0001
1000
,
0001
0000
0000
1000
0000
0000
0010
0000
0000
1000
0000
0000
0010
0000
0000
0100
0000
0000
0001
0000
0000
0100
0000
0000
0001
0000
0000
0100
0000
0000
0001
0000
1000
0000
0010
0000
1000
0000
0000
0001
0000
0000
0100
0000
0000
0001
0000
0000
,
1000
0010
0100
0001
0010
0100
1000
0001
0100
0001
0010
0001
0100
0001
1000
0100
,
1000
0000
0000
0010
0000
0000
1000
0000
0000
0001
0000
0000
1000
0000
0000
0100
0000
0000
0010
0000
0000
0001
0000
0000
1000
0000
0000
0001
0000
0000
1000
0000
0100
0000
1000
0000
0100
0000
0000
0010
0000
0000
0001
0000
0000
1000
0000
0000
,
0002
2003
3020
0230
0302
0023
0230
2300
3001
0000
1000
0000
0010
0000
0100
0000
,
0001
0010
0100
1000
0001
0100
0001
1000
,
0100
0010
0001
1000
0001
0100
0001
0010
,
0100
1000
0010
0100
0001
1000
0100
0010
,
0001
0000
1000
0000
0001
0000
0100
0000
0001
0010
0100
1000
0001
0000
1000
0000
,
0010
0100
0001
1000
0001
1000
0100
0010
,
0001
1000
0001
0100
0011
0000
0000
0110
,
0000
0000
1100
0000
0101
1000
0200
0000
,
0310
0000
0001
0000
0100
0000
0010
1000
0100
0010
0001
1000
0001
0100
0001
1000
,
0100
0010
0001
1000
0001
0100
0001
0010
0100
1000
0010
1000
0010
0100
0001
1000
,
0001
1000
0100
1000
0100
0010
0001
0010
0001
1000
0001
0100
0001
0100
0001
0010
,
0100
1000
0001
0100
0001
1000
0001
1000
0100
0010
0001
1000
0010
1000
0010
0100
,
0001
0010
0100
1000
0001
0100
0001
1000
0100
0010
0001
1000
0001
0100
0001
0010
,
0001
0100
0010
0100
0010
1000
0100
0010
0001
1000
0001
0100
0001
0010
0100
1000
,
0001
0100
0001
1000
0010
0100
0001
0010
0100
1000
0001
0100
0001
1000
0100
1000
,
0010
0100
0001
1000
0100
0010
0001
1000
0001
0100
0001
0010
0100
0010
0001
1000
,
0100
0010
0100
1000
0001
0100
0001
0100
0002
0000
0000
0000
0013
0100
1000
0001
,
0100
0001
1000
0001
0100
0001
1000
0010
0100
0001
0010
0001
0010
0100
1000
0001
,
0100
0001
1000
0010
0100
0001
0010
0100
1000
0100
1000
0010
0100
0001
0010
0100
,
0010
0001
1000
0001
0100
0001
1000
0001
0100
0001
0010
0100
1000
0001
0100
0010
,
1000
0010
1000
0010
0100
0001
0010
0100
1000
0001
0100
0001
1000
0100
1000
0010
,
0100
0001
1000
0001
1000
0100
0010
0001
0010
0001
1000
0001
0100
0001
0010
0100
,
1000
0001
0100
0001
1000
0100
1000
0010
0100
0001
1000
0001
1000
0001
0010
0100
,
1000
0001
0100
0001
1000
0001
1000
0010
0100
0000
0001
0000
0020
0000
0000
0000
,
0130
1000
0010
0100
0002
0000
0023
0000
,
0000
0130
1000
0010
0200
0000
0000
0302
,
0000
0000
0013
0100
2000
0000
0000
3002
,
0000
0000
0103
0010
2000
0000
0000
3200
,
0000
0000
0310
0001
0200
0302
0023
0230
,
2300
3002
2003
3020
0230
0302
0023
0230
,
2300
3002
2003
3020
0230
0302
0203
0320
,
2030
3200
0320
0230
2300
3002
0203
0302
,
2003
3020
0230
0302
2003
0000
3100
0020
,
0000
0031
0100
0010
2000
0000
0000
3200
,
0000
0000
0310
0001
0200
0000
0000
0320
,
0000
0000
1030
0100
0020
0000
0000
0032
,
0000
0000
0103
0010
2000
3002
0203
0302
,
0023
0230
2300
3002
0203
0302
2003
3020
,
0230
0302
0023
0230
2300
3002
0203
0302
,
2003
3020
0230
0302
0023
0230
2300
3002
,
0203
0000
0302
0000
2003
0000
3002
0000
1003
0100
0010
0001
1000
0001
0100
0001
,
0010
0100
1000
0001
0100
0001
1000
0010
1000
0010
0100
0001
0010
0100
1000
0001
,
0100
0001
1000
0100
1000
0010
0100
0001
0010
0100
1000
0001
0100
0001
1000
0010
,
1000
0010
0100
0001
0010
0100
1000
0001
0100
0001
1000
0100
0010
0001
1000
0001
,
0100
0001
0010
0100
1000
0001
0100
0001
1000
0010
1000
0010
0100
0001
0010
0100
,
1000
0001
1000
0001
1000
0010
1000
0010
0100
0001
0010
0100
1000
0001
0100
0001
,
1000
0001
1000
0010
1000
0010
0100
0001
0010
0100
1000
0001
0100
0001
1000
0001
,
1000
0010
0100
0001
0010
0100
1000
0001
0100
0001
0010
0001
0100
0001
1000
0010
,
1000
0010
0100
0001
0010
0100
1000
0001
0100
0001
1000
0001
1000
0010
0100
0001
,
0010
0100
1000
0001
0100
0001
1000
0010
1000
0010
0100
0001
0100
0001
0010
0100
,
1000
0001
0100
0001
1000
0001
1000
0010
0100
0001
0010
0001
0010
0100
1000
0001
,
0100
0001
1000
0001
1000
0010
0100
0001
0010
0100
1000
0001
0100
0001
0010
0001
,
0100
0001
1000
0010
1000
0010
0100
0001
0010
0100
1000
0001
0100
0001
1000
0100
,
0010
0001
1000
0001
1000
0010
1000
0001
1000
0100
0010
0001
1000
0001
0100
0001
,
0010
0100
1000
0001
0100
0001
1000
0001
1000
0001
0100
0001
0010
0100
1000
0001
,
0100
0001
1000
0010
1000
0010
0100
0001
1000
0100
0010
0001
1000
0001
0100
0001
,
0010
0100
1000
0001
0100
0001
1000
0010
2000
0000
0000
0000
3100
0010
0001
1000
,
0100
0010
0001
1000
0100
0010
0001
1000
0200
0000
0000
0000
0310
0001
1000
0010
,
0100
0001
1000
0010
0100
0001
1000
0010
0200
0000
0000
0000
0301
0010
0100
0010
,
0001
0010
0100
0010
0001
0010
0100
0010
0002
0000
0000
0000
1003
0100
0010
0100
,
1000
0100
0010
0100
1000
0100
0010
0100
2000
0000
0000
0000
3001
0100
0010
0100
,
0001
0100
0010
0100
0001
0100
0010
0100
0002
0000
0000
0000
1003
0010
0100
0010
,
1000
0010
0100
0010
1000
0010
0100
0010
2000
0000
0000
0000
3001
1000
0010
0100
,
0001
1000
0010
0100
0001
1000
0010
0100
0002
0000
0000
0000
0013
0100
1000
0001
,
0010
0100
1000
0001
0010
0100
1000
0001
0020
0000
0000
0000
0130
1000
0010
0100
,
0001
0010
0100
1000
0001
0100
0010
1000
0200
0000
0000
0000
0310
0001
0100
0001
,
0010
0001
0100
0001
0010
0001
0100
0001
0020
0000
0000
0000
0130
1000
0010
1000
,
0100
1000
0010
1000
0100
1000
0010
1000
0200
0000
0000
0000
0310
0001
1000
0100
,
0010
0001
1000
0100
0010
0001
1000
0100
0020
0000
0000
0000
0031
1000
0010
0100
,
0001
1000
0010
0100
0001
1000
0010
0100
0002
0000
0000
0000
0013
0100
1000
0100
,
0010
0100
1000
0100
0010
0100
1000
0100
0020
0000
0000
0000
0031
0100
0010
0100
,
0001
0100
0010
0100
0001
0100
0010
0100
0002
2003
3020
0230
0302
0203
0302
0023
,
0230
2300
3200
0320
0032
2003
3000
0000
0000
0000
0000
0000
0000
0000
0000
0000
;

//---------------dance-single - ----------------
#NOTES:
     dance-single:
     :
     Easy:
     16:
     1.000,1.000,0.080,0.866,1.000,3690.000,31.000,336.000,3.000,0.000:
0000
0000
0000
0000
0000
0000
0000
0000
2000
3100
0010
0001
2000
3010
1000
0010
,
0200
0301
0010
0001
0200
0301
1000
0010
2000
3100
0010
0001
2000
3001
0100
0001
,
2000
3100
1000
0100
2000
3001
0100
0001
0020
0130
1000
0010
2000
3010
0100
0001
,
2000
3100
0010
0001
0020
0130
1000
0001
0200
0301
1000
0001
2000
3001
1000
0010
,
2000
3010
0100
0001
2000
3100
1000
0100
0020
0031
0010
0001
2000
3001
0100
0001
,
2000
3010
1000
0010
0200
0301
1000
0001
2000
3100
0010
0001
2000
3010
1000
0010
,
0200
0301
1000
0001
2000
3100
0010
0001
2000
3001
0100
0001
2000
3010
1000
0010
,
0200
0301
0010
0100
2000
3001
0100
0001
2000
3100
1000
0010
0200
0301
0100
0001
,
2000
3100
0010
0001
2000
3010
1000
0010
2000
0000
0000
0000
3001
0000
0010
0000
,
0200
0000
0000
0000
1300
0100
0010
0000
0002
0000
0000
0000
1003
0000
0001
0000
,
0200
0000
0310
1000
0100
0010
0001
0100
,
0002
0000
0000
0000
1003
0010
0100
0000
0200
0000
0000
0000
0301
0010
0100
0000
,
2000
0000
0000
0000
0000
0000
0000
0000
0000
0000
0000
0000
3001
0000
0000
0100
0000
0000
0001
0000
0000
0000
1000
0000
0001
0000
0000
0000
0000
0000
1000
0000
0000
0010
0000
0000
0100
0000
0000
0001
0000
0000
0010
0000
0000
0100
0000
0000
,
2000
0000
3001
1000
0010
0100
0001
0010
0200
0000
1300
0001
0100
0001
1000
0010
,
0200
0000
0301
0010
0100
1000
0100
0010
0002
0000
1003
0001
1000
0010
0100
0001
,
0020
0000
0000
0000
0000
0000
0000
0000
0130
0000
0000
0000
1000
0000
0000
0000
0001
0000
0000
0000
0100
0000
0000
0000
0010
0000
0000
0000
1000
0000
0000
0000
0100
0000
0000
0010
0000
0000
0001
0000
0000
1000
0000
0000
0001
0000
0000
0100
0000
0000
0001
0000
0000
0010
0000
0000
0100
0000
0000
1000
0000
0000
0100
0000
,
0000
1000
0000
0000
0010
0000
0000
0100
0000
0000
0001
0000
0000
1000
0000
0000
0200
0000
0000
0000
0000
0000
0000
0000
0320
0000
0000
0000
0000
0000
0000
0000
0000
0000
0000
0000
0000
0000
0000
0000
0032
0000
0000
0000
0000
0000
0000
0000
0003
0000
0000
0000
0000
0000
0000
0000
0001
0000
0000
0000
0000
0000
0000
0000
,
0010
0000
0100
0000
2000
3000
0001
0000
1000
0000
0010
0000
0200
0300
0001
0000
,
0010
0000
0100
0000
2000
3000
0002
0003
1000
0000
0010
0000
0200
0300
0001
0000
,
0010
0000
0100
0000
2000
3000
0010
0000
0100
0000
0001
0000
2000
3000
0100
0000
,
0010
0000
0000
0000
0000
0000
0100
0000
0000
0000
0000
0000
2000
0000
0000
3000
0000
0000
0001
0000
1000
0000
0000
0000
0001
0000
0000
0000
0000
0000
1000
0000
0000
0000
0000
0000
0020
0000
0000
0030
0000
0000
0100
0000
0000
0000
0000
0000
,
0001
0000
0010
0000
0200
0300
1000
0000
0010
0000
0100
0000
0002
0003
1000
0000
,
0001
0000
1000
0000
0020
0030
0200
0300
0001
0000
0010
0000
0200
0300
1000
0000
,
0001
0000
1000
0000
0020
0030
0100
0000
0001
0000
0010
0000
0200
0300
1000
0000
,
0001
0000
0100
0000
0002
0003
1000
0000
0020
0130
0001
0010
0100
1000
0001
0100
,
0002
1003
0010
0100
0001
0010
0100
1000
0002
1003
0010
0100
0001
1000
0100
0010
,
0002
0103
0001
0100
0001
0010
0100
1000
0002
1003
0010
1000
0010
0100
0001
0100
,
0002
1003
0010
0100
0001
0010
0100
1000
0002
1003
0010
1000
0010
0100
0001
1000
,
0002
1003
0100
0010
0100
1000
0100
0010
0002
1003
0010
0100
0001
0010
0100
1000
,
0020
0130
0001
0100
0001
1000
0100
1000
0020
0130
0001
0100
0001
1000
0100
0010
,
0002
1003
0001
1000
0100
0010
0001
1000
0020
0130
0001
0010
0100
1000
0100
0010
,
0002
1003
0100
1000
0001
0100
0001
1000
0200
1300
0010
0100
0001
1000
0100
0010
,
0002
0000
0000
1003
0000
0000
0001
0000
0000
0100
0000
0000
0010
0000
0000
1000
0000
0000
0001
0000
0000
0100
0000
0000
0010
0000
0000
1000
0000
0000
0001
0000
0000
0100
0000
0000
0010
0000
0100
0000
0001
0000
0010
0000
0000
0100
0000
0000
,
1000
0000
0000
0001
0000
0000
0010
0000
0000
0100
0000
0000
1000
0000
0000
0001
0000
0000
1000
0000
0000
0100
0000
0000
1000
0000
0000
0010
0000
0000
0100
0000
0000
0001
0000
0000
1000
0000
0100
0000
0010
0000
0001
0000
0000
0010
0000
0000
,
0001
0000
0000
1000
0000
0000
0010
0000
0000
0100
0000
0000
0001
0000
0000
0010
0000
0000
0100
0000
0000
1000
0000
0000
0100
0000
0000
0010
0000
0000
0100
0000
0000
1000
0000
0000
0001
0000
0100
0000
0001
0000
0100
0000
0000
0010
0000
0000
,
1000
0000
0000
0100
0000
0000
0010
0000
0000
0001
0000
0000
1000
0000
0000
0001
0000
0000
0100
0000
0000
0001
0000
0000
1000
0000
0000
0010
0000
0000
0100
0000
0000
0001
0000
0000
0010
0000
0100
0000
1000
0000
0010
0000
0000
0100
0000
0000
,
0001
0000
0000
0010
0000
0000
0100
0000
0000
1000
0000
0000
0001
0000
0000
0100
0000
0000
0001
0000
0000
1000
0000
0000
0010
0000
0000
1000
0000
0000
0010
0000
0000
0100
0000
0000
0001
0000
0010
0000
0100
0000
1000
0000
0000
0100
0000
0000
,
1000
0000
0000
0100
0000
0000
0010
0000
0000
0001
0000
0000
0010
0000
0000
0100
0000
0000
1000
0000
0000
0001
0000
0000
0100
0000
0000
0001
0000
0000
1000
0000
0000
0001
0000
0000
1000
0000
0001
0000
0100
0000
0010
0000
0000
1000
0000
0000
,
0010
0000
0000
0100
0000
0000
0001
0000
0000
0100
0000
0000
0001
0000
0000
0010
0000
0000
0100
0000
0000
1000
0000
0000
0001
0000
0000
0100
0000
0000
0001
0000
0000
1000
0000
0000
0010
0000
0100
0000
0001
0000
0010
0000
0000
0100
0000
0000
,
1000
0000
0000
0100
0000
0000
0010
0000
0000
0001
0000
0000
1000
0000
0000
0001
0000
0000
0100
0000
0000
0001
0000
0000
0010
0000
0000
0100
0000
0000
1000
0000
0001
0000
1000
0000
0001
0000
0100
0000
0010
0000
1000
0000
0000
0010
0000
0000
,
1000
0000
0000
0100
0000
0000
0010
0000
0000
0001
0000
0000
1000
0000
0000
0001
0000
0000
0100
0000
0000
0001
0000
0000
0010
0000
0000
0100
0000
0000
1000
0000
0000
0001
0000
0000
1000
0000
0001
0000
0100
0000
0001
0000
0000
0100
0000
0000
,
0001
0000
0000
0010
0000
0000
0100
0000
0000
1000
0000
0000
0001
0000
0000
0100
0000
0000
0001
0000
0000
1000
0000
0000
0001
0000
0000
1000
0000
0000
0100
0000
0000
0010
0000
0000
0001
0000
1000
0000
0100
0000
0010
0000
0000
0100
0000
0000
,
1000
0000
0000
0001
0000
0000
0100
0000
0000
0001
0000
0000
1000
0000
0000
0001
0000
0000
0100
0000
0000
0001
0000
0000
1000
0000
0000
0100
0000
0000
1000
0000
0000
0010
0000
0000
0100
0000
0001
0000
0010
0000
0100
0000
0000
1000
0000
0000
,
0010
0000
0000
0100
0000
0000
0001
0000
0000
0100
0000
0000
0001
0000
0000
0010
0000
0000
0100
0000
0000
1000
0000
0000
0001
0000
0000
0100
0000
0000
0001
0000
0000
1000
0000
0000
0100
0000
0010
0000
0001
0000
1000
0000
0000
0010
0000
0000
,
0100
0000
0000
0001
0000
0000
0010
0000
0000
0100
0000
0000
1000
0000
0000
0001
0000
0000
0100
0000
0000
0010
0000
0000
1000
0000
0000
0100
0000
0000
0010
0000
0000
0001
0000
0000
1000
0000
0001
0000
0100
0000
0001
0000
0000
1000
0000
0000
,
0010
0000
0000
0100
0000
0000
0001
0000
0000
0010
0000
0000
0100
0000
0000
1000
0000
0000
0001
0000
0000
0100
0000
0000
0001
0000
0000
1000
0000
0000
0001
0000
0000
1000
0000
0000
0100
0000
0010
0000
0001
0000
0010
0000
0000
0100
0000
0000
,
1000
0000
0000
0001
0000
0000
0100
0000
0000
0001
0000
0000
1000
0000
0000
0010
0000
0000
0100
0000
0000
0001
0000
0000
0010
0000
0000
0100
0000
0000
1000
0000
0000
0001
0000
0000
1000
0000
0001
0000
0100
0000
0010
0000
0000
0100
0000
0000
,
0001
0000
0000
0000
0010
0000
0000
0000
0100
0000
0000
0000
1000
0000
0000
0000
0001
0000
0000
0000
0000
0000
0000
0000
0101
0000
0000
0000
0000
0000
0000
0000
1001
0000
0000
0000
0000
0000
0000
0000
1000
0000
0000
0100
0000
0000
0010
0000
0000
0001
0000
0000
1000
0000
0000
0001
0000
0000
0100
0000
0000
0001
0000
0000
,
0010
0000
0000
0000
0000
0000
0000
0000
0000
0100
0000
0000
0000
0000
0000
0000
0000
0000
1000
0000
0000
0000
0000
0000
0000
0000
0000
0001
0000
0000
0000
0000
0000
0000
0000
0000
1000
0000
0000
0000
0000
0000
0000
0000
0000
0010
0000
0000
0000
0000
0000
0000
0000
0000
0100
0000
0000
0000
0000
0000
0000
0000
0000
0001
0000
0000
0000
0000
0000
0000
0000
0000
0010
0000
0000
0000
0000
0000
0000
0000
0000
0100
0000
0000
0000
0000
0000
0000
0000
0000
1000
0000
0000
0000
0000
0000
0000
0001
0000
0000
0000
0000
0000
0000
0000
0000
0000
0000
0000
0000
0000
0000
0000
0000
0000
0000
0000
0000
0000
0000
0000
0000
0000
0000
0000
0000
0000
0000
0000
0000
0000
0000
1000
0000
0000
0000
0000
0000
0000
0000
0000
0000
0000
0000
0000
0000
0000
0000
0000
0000
0000
0000
0000
0000
0000
0000
0000
0000
0000
0000
0000
0000
0000
0000
0000
0000
0000
0000
0200
0000
0000
0000
0000
0000
0000
0000
0000
0000
0000
0000
0000
0000
0000
0000
0000
0000
0000
0000
0000
0000
0000
0000
,
0000
0000
0000
0000
0000
0310
0010
0020
,
0000
0000
0000
0000
0000
0031
0001
0002
,
0000
0000
0000
0000
0000
1003
1000
2000
,
0000
0000
0000
0000
0000
3010
0010
0020
,
0000
0000
0000
0000
0000
0130
0100
0200
,
0000
0000
0000
0000
0000
0301
0001
0002
,
0000
0000
0000
0000
0000
0013
0010
0020
,
0000
0000
0000
0000
0000
0130
0100
0200
,
0000
0000
0000
0000
0000
1300
1000
2000
,
0000
0000
0000
0000
0000
0000
0000
0000
3140
0030
0140
0030
0140
0030
0020
0000
,
0000
0000
0000
0000
0000
0000
0000
0000
0431
0300
0401
0300
0401
0300
0200
0000
,
0000
0000
0000
0000
0000
0000
0000
0000
0314
0003
0001
0000
0001
0000
0002
0000
,
0000
0000
0000
0000
00M0
0013
0010
0020
,
0000
0000
0000
0000
0M00
0130
0100
0200
,
0000
0000
0000
0000
M000
1300
1000
2000
,
0000
0000
0000
0000
3001
0100
0010
1000
0200
0000
0000
0000
0310
0001
1000
0010
,
0100
0001
0100
0001
0010
0100
1000
0001
1000
0010
1000
0010
0100
0001
0100
0001
,
1000
0100
1000
0001
0100
0001
1000
0100
0010
0001
1000
0001
0100
0001
1000
0010
,
0100
0010
1000
0100
0010
0001
1000
0001
0100
0001
0010
0100
0010
0001
1000
0001
,
0100
0001
1000
0100
1000
0010
0100
0001
1000
0001
1000
0100
0010
0001
0010
0001
,
1000
0010
0100
0001
0100
0001
0010
0100
1000
0001
0100
0001
1000
0100
0010
0001
,
1000
0010
1000
0010
0100
0001
1000
0001
1000
0100
0010
0001
1000
0001
0100
0001
,
0010
0100
1000
0001
0100
0001
1000
0010
1000
0010
0100
0001
0010
0100
1000
0001
,
0100
0001
1000
0100
0010
0001
1000
0001
2000
0000
3000
0000
0002
0000
0203
0000
,
0300
0002
2003
3200
0320
0000
0000
0032
,
0000
0000
0203
0000
0320
0000
0030
2002
,
0000
3003
2000
3200
0320
0030
0000
0002
,
0000
0000
0000
0000
2003
3000
2000
3000
2000
0000
3000
0000
0002
0000
2003
0000
,
3000
0002
0023
0230
2300
3000
0000
0202
,
0000
0000
0303
0000
2000
3000
2000
3000
2000
0000
3000
0000
0000
0000
0200
0000
,
0300
0000
0020
0032
0203
0300
0000
0020
,
0030
0000
0000
0000
0000
0000
2002
0000
0000
3003
0000
0000
0001
1000
0010
0100
0000
0000
0001
0000
0000
0010
0100
1000
,
0001
0000
0000
0100
0000
0000
0010
1000
0100
0010
0000
0000
0001
0000
0000
1000
0010
0100
0001
0000
0000
0010
0000
0000
,
0100
1000
0001
0100
0000
0000
0010
1000
0001
0100
0000
0000
0001
0010
0100
1000
0000
0000
0001
0000
0000
1000
0001
0100
,
0001
0000
0000
0100
0000
0000
0010
1000
0100
0010
0000
0000
0001
0000
0000
1000
0100
1000
0010
0000
0000
0100
0000
0000
,
0001
0010
0100
1000
0000
0000
0001
0100
0010
0100
0000
0000
0001
0010
0100
1000
0000
0000
0001
0000
0000
0010
0100
1000
,
0100
0000
0000
0000
0000
0000
0000
0000
0000
0000
0000
0000
0000
0000
0000
0000
0000
0000
0000
0000
0000
0000
0000
0000
0010
0000
0000
0000
0000
0000
0000
0000
0000
0000
0000
0000
0000
0000
0000
0000
0000
0000
0000
0000
0000
0000
0000
0000
0001
0000
0000
0000
0000
0000
0000
0000
1000
0000
0000
0000
0000
0000
0000
0000
0001
0000
0000
0000
0000
0000
0000
0000
0100
0000
0000
0000
0000
0000
0000
0000
0000
0000
0000
0000
0000
0000
0000
0000
0000
0000
0000
0000
0000
0000
0000
0000
0010
0000
0000
0000
0000
0000
0000
0000
0000
0000
0000
0000
0000
0000
0000
0000
0000
0000
0000
0000
0000
0000
0000
0000
2000
3000
0000
0000
0000
0000
0000
0000
0200
0300
0000
0000
0000
0000
0000
0000
0020
0030
0000
0000
0000
0000
0000
0000
0002
0003
0000
0000
0000
0000
0000
0000
0000
0000
0000
0000
0000
0000
0000
0000
0000
0000
0000
0000
0000
0000
0000
0000
1000
0000
0000
0000
0000
0000
0000
0000
0000
0000
0000
0000
0000
0000
0000
0000
0000
0000
0000
0000
0000
0000
0000
0000
,
0001
1000
0010
0100
0000
0000
0001
0010
0001
0010
0000
0000
0100
1000
0001
0100
0000
0000
0010
0000
0000
1000
0100
0010
,
0001
0000
0000
0100
0000
0000
0010
1000
0100
0010
0000
0000
0001
0000
0000
0100
0010
1000
0001
0000
0000
1000
0000
0000
,
0001
0010
0100
1000
0000
0000
0001
0100
0010
1000
0000
0000
0100
0010
0001
0010
0000
0000
0100
0000
0000
1000
0001
0100
,
0010
0000
0000
1000
0000
0000
0100
0010
0100
0010
0000
0000
0001
0000
0000
1000
0001
0100
0001
0000
0000
1000
0000
0000
,
0001
0100
0001
0100
0000
0000
0010
1000
0100
0010
0000
0000
0001
0100
0001
0100
0000
0000
0010
0000
0000
1000
0100
0010
,
0001
0000
0000
1000
0000
0000
0001
0100
0010
1000
0000
0000
0100
0000
0000
0010
0001
0010
0001
0000
0000
1000
0000
0000
,
0100
0010
0001
0100
0000
0000
0010
1000
0001
1000
0000
0000
0001
0100
0001
0010
0000
0000
0100
0000
0000
1000
0010
0100
,
0001
0000
0000
1000
0000
0000
0100
0010
0001
0010
0000
0000
0100
0000
0000
1000
0001
0100
0001
0000
0000
1000
0000
0000
,
0001
0010
0001
0010
0000
0000
0100
1000
0010
0100
0000
0000
0001
0010
0100
1000
0000
0000
0001
0000
0000
1000
0010
1000
,
0001
0000
0000
0100
0000
0000
0001
0010
0100
1000
0000
0000
0001
0000
0000
1000
0001
0100
0001
0000
0000
0010
0000
0000
,
0100
0000
1000
0000
0001
0000
0010
0000
0000
0000
0000
0000
0100
0000
1000
0000
0010
0000
0100
0000
0000
0001
0000
0000
0020
0000
0000
0000
0000
0000
0000
0000
0000
0000
0000
0000
0130
0000
0000
1000
0000
0000
0001
0000
0000
0010
0000
0000
,
0100
1000
0001
0100
0001
1000
0010
1000
0010
0100
0001
0100
0001
1000
0001
1000
,
0100
1000
0100
0010
0001
1000
0001
0100
0001
1000
0010
1000
0010
0100
0001
1000
,
0001
1000
0100
0010
0001
1000
0001
0100
0001
1000
0010
0100
0001
1000
0001
1000
,
0100
0010
0001
1000
0001
0100
0001
1000
0100
1000
0001
0100
0001
0010
0100
1000
,
0001
0000
0000
0100
0000
0000
0001
0000
0000
1000
0000
0000
0100
0000
0000
0010
0000
0000
0001
0000
0000
1000
0000
0000
0001
0000
0000
0100
0000
0000
0001
0000
1000
0000
0001
0000
1000
0000
0000
0010
0000
0000
0100
0000
0000
0001
0000
0000
,
0010
0100
1000
0001
0100
0001
1000
0001
1000
0010
0100
0001
1000
0001
1000
0100
,
0010
0000
0000
0001
0000
0000
1000
0000
0000
0001
0000
0000
1000
0000
0000
0100
0000
0000
1000
0000
0000
0010
0000
0000
0100
0000
0000
0001
0000
0000
0100
0000
0010
0000
0100
0000
0010
0000
0000
1000
0000
0000
0100
0000
0000
0010
0000
0000
,
0001
0000
0000
1000
0000
0000
0010
0000
0000
0100
0000
0000
0001
0000
0000
0010
0000
0000
0100
0000
0000
1000
0000
0000
0001
0000
0000
1000
0000
0000
0010
0000
0100
0000
0000
0000
0001
0000
0000
0000
0010
0000
0000
0000
0100
0000
0000
0000
1000
0000
0000
0000
0001
0000
0000
0000
0100
0000
0000
0000
0001
0000
0000
0000
,
1000
0100
1000
0010
0100
0001
0010
0100
1000
0001
1000
0010
0100
0010
1000
0100
,
0010
0001
1000
0001
0100
0001
0010
0100
1000
0100
0010
0001
1000
0001
0100
0001
,
1000
0010
0100
0001
0010
0100
0010
0001
1000
0001
0100
0001
1000
0010
0100
0001
,
0010
0100
1000
0010
0100
0010
1000
0100
0020
0031
1000
0100
0010
0001
1000
0100
,
0010
0001
1000
0001
0100
0001
0010
0100
1000
0001
0010
0100
1000
0001
0010
0100
,
1000
0001
0100
0001
1000
0010
0100
0001
0220
0330
0000
0000
0000
0000
2200
3300
,
0000
0000
0000
0000
0022
0033
0000
0000
0101
0000
0011
0000
2002
3003
0000
0000
,
1010
0000
1001
0000
2200
3300
0000
0000
0200
0310
0001
1000
0001
1000
0010
0100
,
0001
1000
0001
1000
0100
0010
0001
1000
0001
0100
0001
1000
0001
0010
0100
1000
,
0001
0010
0100
1000
0001
0100
0001
1000
0010
0100
0001
0010
0100
1000
0001
0010
,
0100
1000
0001
0100
0001
1000
0010
1000
0010
0100
0001
0010
0100
1000
0010
0100
,
0001
1000
0010
0100
0001
1000
0010
1000
0010
0100
0001
1000
0001
1000
0100
0010
,
0001
1000
0100
0010
0001
1000
0001
0100
0001
0010
0100
1000
0001
1000
0100
0010
,
0001
1000
0100
0010
0001
1000
0001
0100
0001
0100
0010
1000
0010
0100
0001
1000
,
0010
0100
0001
1000
0010
0100
0001
0010
0100
1000
0001
1000
0001
0100
0001
1000
,
0100
1000
0001
0100
0001
1000
0100
0010
0001
1000
0001
0100
0001
0010
0100
1000
,
0001
0010
0100
1000
0001
0100
0001
1000
0010
1000
0010
1000
0100
0010
0001
1000
,
0100
0010
0001
1000
0001
0100
0001
0010
0100
1000
0001
1000
0010
0100
0010
1000
,
0010
0100
0010
1000
0100
0010
0001
1000
0001
0100
0001
1000
0001
0010
0100
1000
,
0001
0010
0100
1000
0001
0100
0010
1000
0010
0100
0001
1000
0001
0010
0100
1000
,
0001
0010
0100
1000
0001
0100
0001
1000
0010
0100
0010
1000
0100
0010
0001
1000
,
0100
0010
0001
1000
0100
0010
0001
0100
0001
0010
0100
1000
0001
1000
0010
0100
,
0001
0000
0000
1000
0000
0000
0010
0000
0000
0100
0000
0000
0001
0000
0000
1000
0000
0000
0100
0000
0000
0010
0000
0000
0002
0000
0000
0000
0000
0000
1003
0000
0010
0000
1000
0000
0020
0000
0000
0000
0000
0000
0000
0000
0000
0000
0000
0000
,
0130
0001
0010
0100
2000
0000
3001
0101
,
0000
0010
1000
0100
0022
0000
0033
2000
,
0000
0000
3100
0010
0002
0000
0000
2003
,
0000
3000
0110
0101
0011
0000
0000
0200
,
0000
0000
1300
0010
0200
0302
2003
3002
,
0203
0302
2003
3020
0230
0302
0023
0230
,
2300
3002
2003
3020
0230
0302
0203
0302
,
2003
3200
0320
0032
2003
3002
2003
3020
,
0230
0302
0023
0230
2300
3000
0101
0101
,
0000
1001
0001
1100
0002
0000
0000
0023
,
0000
0000
0130
1000
0200
0000
0000
2300
,
0000
0000
3010
0100
0002
0000
0000
0023
,
0000
0000
0130
1000
0200
0300
0011
0011
,
0000
0001
0100
0010
2000
0000
0000
3200
,
0000
0000
0310
0001
0200
0000
0000
0320
,
0000
0000
1030
0100
0020
0000
0000
0032
,
0000
0000
0000
0000
0000
0000
0000
0000
0000
0000
0000
0000
0000
0000
0000
0000
1003
0000
0000
0000
0000
0000
0000
0000
0001
0000
0000
0000
0000
0000
0000
0000
1000
0000
0000
0001
0000
0000
1000
0000
0000
0001
0000
0000
1000
0000
0000
0001
0000
0000
0100
0000
0000
0001
0000
0000
0100
0000
0000
0001
0000
0000
0010
0000
,
0000
0100
0000
0000
1000
0000
0000
0001
0000
0000
1000
0000
0000
0001
0000
0000
1000
0000
0000
0100
0000
0000
0010
0000
0000
0001
0000
0000
1000
0000
0000
0001
0000
0000
0100
0000
0000
0010
0000
0000
0100
0000
0000
0001
0000
0000
1000
0000
0000
0001
0000
0000
0010
0000
0000
0100
0000
0000
1000
0000
0000
0001
0000
0000
,
1000
0000
0000
0001
0000
0000
1000
0000
0000
0010
0000
0000
0100
0000
0000
0001
0000
0000
1000
0000
0000
0100
0000
0000
1000
0000
0000
0100
0000
0000
0010
0000
0000
0001
0000
0000
1000
0000
0000
0001
0000
0000
1000
0000
0000
0001
0000
0000
0100
0000
0000
0001
0000
0000
0010
0000
0000
0100
0000
0000
1000
0000
0000
0010
,
0000
0000
1000
0000
0000
0010
0000
0000
1000
0000
0000
0010
0000
0000
0100
0000
0000
0001
0000
0000
0010
0000
0000
0100
0000
0000
1000
0000
0000
0001
0000
0000
1000
0000
0000
0001
0000
0000
1000
0000
0000
0010
0000
0000
0100
0000
0000
0001
0000
0000
0010
0000
0000
0100
0000
0000
1000
0000
0000
0001
0000
0000
1000
0000
,
0000
0010
0000
0000
0100
0000
0000
0001
0000
0000
0100
0000
0000
0010
0000
0000
1000
0000
0000
0100
0000
0000
0010
0000
0000
0001
0000
0000
1000
0000
0000
0001
0000
0000
0100
0000
0000
0001
0000
0000
0100
0000
0000
0010
0000
0000
1000
0000
0000
0100
0000
0000
0010
0000
0000
0001
0000
0000
1000
0000
0000
0001
0000
0000
,
1000
0000
0000
0010
0000
0000
0100
0000
0000
0001
0000
0000
0100
0000
0000
0010
0000
0000
1000
0000
0000
0100
0000
0000
0010
0000
0000
0001
0000
0000
1000
0000
0000
0001
0000
0000
1000
0000
0000
0010
0000
0000
0100
0000
0000
0001
0000
0000
0010
0000
0000
0100
0000
0000
1000
0000
0000
0001
0000
0000
1000
0000
0000
0010
,
0000
0000
1000
0000
0000
0100
0000
0000
0010
0000
0000
0100
0000
0000
1000
0000
0000
0001
0000
0000
1000
0000
0000
0010
0000
0000
0100
0000
0000
0001
0000
0000
0010
0000
0000
0001
0000
0000
1000
0000
0000
0001
0000
0000
1000
0000
0000
0100
0000
0000
1000
0000
0000
0001
0000
0000
1000
0000
0000
0010
0000
0000
0100
0000
,
0000
0001
0000
0000
0100
0000
0000
0001
0000
0000
0010
0000
0000
0100
0000
0000
1000
0000
0000
0001
0000
0000
1000
0000
0000
0001
0000
0000
1000
0000
0000
0100
0000
0000
0010
0000
0000
0001
0000
0000
0010
0000
0000
0100
0000
0000
1000
0000
0000
0001
0000
0000
0100
0000
0000
0001
0000
0000
0100
0000
0000
0010
0000
0000
,
1000
0000
0000
0100
0000
0000
0010
0000
0000
0001
0000
0000
1000
0000
0000
0001
0000
0000
0010
0000
0000
0100
0000
0000
1000
0000
0000
0001
0000
0000
0100
0000
0000
0001
0000
0000
1000
0000
0000
0100
0000
0000
1000
0000
0000
0010
0000
0000
0100
0000
0000
0010
0000
0000
0100
0000
0000
0001
0000
0000
0100
0000
0000
0010
,
0000
0000
1000
0000
0000
0100
0000
0000
0010
0000
0000
0001
0000
0000
1000
0000
0000
0001
0000
0000
1000
0000
0000
0001
0000
0000
0100
0000
0000
0010
0000
0000
1000
0000
0000
0100
0000
0000
0010
0000
0000
0001
0000
0000
1000
0000
0000
0001
0000
0000
0100
0000
0000
0001
0000
0000
0010
0000
0000
0100
0000
0000
1000
0000
,
0000
0001
0000
0000
1000
0000
0000
0010
0000
0000
0100
0000
0000
0001
0000
0000
0100
0000
0000
0010
0000
0000
1000
0000
0000
0100
0000
0000
0010
0000
0000
0001
0000
0000
1000
0000
0000
0001
0000
0000
1000
0000
0000
0010
0000
0000
0100
0000
0000
0001
0000
0000
0100
0000
0000
0001
0000
0000
0100
0000
0000
0010
0000
0000
,
0100
0000
0000
0001
0000
0000
0010
0000
0000
0100
0000
0000
1000
0000
0000
0001
0000
0000
1000
0000
0000
0010
0000
0000
0100
0000
0000
0001
0000
0000
1000
0000
0000
0001
0000
0000
1000
0000
0000
0100
0000
0000
0010
0000
0000
0001
0000
0000
1000
0000
0000
0001
0000
0000
0100
0000
0000
0001
0000
0000
0100
0000
0000
0010
,
0000
0000
1000
0000
0000
0100
0000
0000
0010
0000
0000
0001
0000
0000
1000
0000
0000
0001
0000
0000
0100
0000
0000
0001
0000
0000
0010
0000
0100
0000
0000
1000
0000
0000
0010
0000
0000
0100
0000
0000
0001
0000
0000
1000
0000
0000
0001
0000
0000
1000
0000
0000
0010
0000
0000
0100
0000
0000
0001
0000
0000
1000
0000
0000
,
0100
0000
0000
0010
0000
0000
0001
0000
0000
1000
0000
0000
0001
0000
0000
0100
0000
0000
0001
0000
0000
1000
0000
0000
0100
0000
0000
1000
0000
0000
0010
0000
0000
1000
0000
0000
0100
0000
0000
0010
0000
0000
0001
0000
0000
1000
0000
0000
0001
0000
0000
0010
0000
0000
0100
0000
0000
1000
0000
0000
0001
0000
0000
1000
,
0000
0000
0010
0000
0000
0100
0000
0000
0001
0000
0000
0010
0000
0000
0100
0000
0000
1000
0000
0000
0001
0000
0000
1000
0000
0000
0010
0000
0000
0100
0000
0000
0001
0000
0000
1000
0000
0000
0010
0000
0000
0100
0000
0000
0001
0000
0000
1000
0000
0000
0001
0000
0000
0010
0000
0000
0100
0000
0000
1000
0000
0000
0001
0000
,
0000
1000
0000
0000
0001
0000
0000
1000
0000
0000
0010
0000
0000
0100
0000
0000
0001
0000
0000
0010
0000
0000
0100
0000
0000
1000
0000
0000
0100
0000
0000
1000
0000
0000
0001
0000
0000
1000
0000
0000
0010
0000
0000
0100
0000
0000
0001
0000
0000
0010
0000
0000
0100
0000
0000
1000
0000
0000
0001
0000
0000
1000
0000
0000
,
0010
0000
0000
0000
0000
0000
0000
0000
0000
0100
0000
0000
0000
0000
0000
0000
0000
0000
0010
0000
0000
0000
0000
0000
0000
0000
0000
1000
0000
0000
0000
0000
0000
0000
0000
0000
0100
0000
0000
0000
0000
0000
0000
0000
0000
0010
0000
0000
0000
0000
0000
0000
0000
0000
0001
0000
0000
0000
0000
0000
0000
0000
0000
1000
0000
0000
0000
0000
0000
0000
0000
0000
0001
0000
0000
0000
0000
0000
0000
0000
0000
0100
0000
0000
0000
0000
0000
0000
0000
0000
0001
0000
0000
0000
0000
0000
0000
0000
0020
0000
0000
0000
0000
0000
0000
0000
0000
0000
0000
0000
0000
0000
0000
0000
0000
0000
0000
0000
0000
0000
0130
0000
0000
0000
0000
0000
0000
0000
0000
0000
0000
0000
0000
0000
0000
0000
0000
0000
0000
0000
0000
0000
0000
0000
0100
0000
0000
0000
0000
0000
0000
0000
0000
0000
0000
0000
0000
0000
0000
0000
0000
0000
0000
0000
0000
0000
0000
0000
0200
0000
0000
0000
0000
0000
0000
0000
0000
0000
0000
0000
0000
0000
0000
0000
0000
0000
0000
0000
0000
0000
0000
0000
,
0000
0000
0000
0000
0000
1300
1000
2000
,
0000
0000
0000
0000
0000
3010
0010
0020
,
0000
0000
0000
0000
0000
0130
0100
0200
,
0000
0000
0000
0000
0000
0301
0001
0002
,
0000
0000
0000
0000
0000
0103
0100
0200
,
0000
0000
0000
0000
0000
0000
0000
0000
0340
0030
0010
0000
0010
0000
0020
0000
,
0000
0000
0000
0000
0000
0000
0000
0000
4030
3000
1000
0000
1000
0000
2000
0000
,
0000
0000
0000
0000
0000
0000
0000
0000
3004
0003
0001
0000
0001
0000
0002
0000
,
0000
0000
0000
0000
0000
0000
0000
0000
0403
0300
0100
0000
0100
0000
0200
0000
,
0000
0000
0000
0000
0000
0000
0000
0000
0304
0003
0004
0003
0004
0003
0002
0000
,
0000
0000
0000
0000
0000
0000
0000
0000
4003
3000
4000
3000
4000
3000
2000
0000
,
0000
0000
0000
0000
0000
0000
0000
0000
3040
0030
0010
0000
0010
0000
0020
0000
,
0000
0000
0000
0000
0000
0130
0100
0200
,
0000
0000
0000
0000
0000
0301
0001
0002
,
0000
0000
0000
0000
0000
0013
0010
0020
,
0000
0000
0000
0000
0130
0001
0010
0100
2000
0000
0000
0000
3004
0000
0000
0000
,
1003
0100
1000
0001
0100
0001
1000
0010
0100
0001
0010
0100
1000
0001
1000
0010
,
1000
0010
0100
0001
0010
0100
1000
0001
0100
0001
1000
0100
0010
0001
1000
0010
,
1000
0010
0100
0001
0010
0100
1000
0001
1000
0001
0100
0010
1000
0001
1000
0100
,
0010
0001
0100
0001
0010
0100
1000
0010
0100
0010
1000
0001
1000
0100
0010
0001
,
1000
0001
0100
0010
0100
0001
0010
0100
1000
0001
0100
0001
1000
0001
1000
0010
,
1000
0010
0100
0001
0010
0100
1000
0001
0100
0001
1000
0100
0010
0001
1000
0010
,
1000
0001
0010
0001
1000
0100
0010
0001
1000
0001
0100
0001
0010
0100
1000
0001
,
0100
0010
1000
0100
0010
0001
1000
0001
4000
3100
0010
0001
1000
0001
0100
0001
,
0010
0100
1000
0001
0100
0001
1000
0010
1000
0010
0100
0001
0010
0100
1000
0001
,
0100
0001
1000
0010
1000
0100
0010
0001
0100
0001
1000
0001
1000
0010
1000
0010
,
0100
0001
0010
0100
1000
0001
0100
0001
1000
0100
0010
0001
1000
0001
1000
0010
,
1000
0010
0100
0001
0010
0100
1000
0001
0100
0001
1000
0001
1000
0010
1000
0010
,
0100
0001
0010
0100
1000
0001
0100
0001
1000
0100
0010
0001
1000
0010
1000
0010
,
0100
0001
0010
0100
1000
0100
0010
0001
1000
0001
0100
0001
1000
0100
1000
0001
,
1000
0001
1000
0010
1000
0010
0100
0001
0010
0100
1000
0001
0100
0001
1000
0001
,
1000
0000
0000
0100
0000
0000
0010
0000
0000
0001
0000
0000
1000
0000
0000
0001
0000
0000
1000
0000
0000
0010
0000
0000
1000
0000
0100
0000
0010
0000
0001
0000
0000
0000
0000
0000
1000
0000
0000
0000
0000
0000
0001
0000
0100
0000
0010
0000
,
1000
0000
0000
0100
0000
0000
0010
0001
0010
0001
0000
0000
0100
0000
0000
0010
1000
0001
1000
0000
0000
0100
0000
0000
,
0001
1000
0001
0100
0000
0000
0001
0010
0100
1000
0000
0000
0010
0100
0010
0100
0000
0000
0001
0000
0000
0010
0100
1000
,
0001
0000
0000
1000
0000
0000
0100
0010
0001
1000
0000
0000
0001
0000
0000
0100
0010
1000
0010
0000
0000
1000
0000
0000
,
0100
0010
0001
0010
0000
0000
0100
1000
0100
1000
0000
0000
0001
0100
0010
1000
0000
0000
0001
0000
0000
1000
0001
0100
,
0001
0000
0000
1000
0000
0000
0100
0010
0001
1000
0000
0000
0010
0000
0000
0100
0001
0010
0100
1000
0001
0010
0000
0000
,
0100
1000
0001
0100
0000
0000
0001
0010
0100
1000
0000
0000
0100
0010
0001
1000
0000
0000
0010
0000
0000
0100
0001
0010
,
0100
0000
0000
1000
0000
0000
0001
0100
0001
0100
0000
0000
0010
0000
0000
1000
0100
0010
0001
1000
0001
1000
0000
0000
,
0001
0100
0001
0100
0000
0000
0010
1000
0100
0010
0000
0000
0001
0100
0001
1000
0000
0000
0100
0000
0000
0010
0001
0100
,
0001
0000
0000
0100
0000
0000
0010
1000
0100
0010
0000
0000
0001
0000
0000
1000
0001
1000
0100
0000
0000
1000
0000
0000
,
0010
0100
0010
0100
0000
0000
0001
0010
0100
1000
0000
0000
0001
0100
0010
1000
0000
0000
0001
0000
0000
1000
0010
1000
,
0010
0000
0000
0100
0000
0000
0001
0010
0100
1000
0000
0000
0001
0000
0000
1000
0100
1000
0100
0000
0000
0010
0000
0000
,
0001
0100
0001
0100
0000
0000
0010
1000
0100
0010
0000
0000
0001
0100
0010
1000
0000
0000
0001
0000
0000
0010
0100
1000
,
0001
0000
0000
1000
0000
0000
0010
0100
0001
0100
0000
0000
0010
0000
0000
1000
0100
0010
0001
1000
0001
0100
0000
0000
,
0010
1000
0100
0010
0000
0000
0001
0100
0001
0100
0000
0000
0010
1000
0001
1000
0000
0000
0100
0000
0000
0010
0001
0100
,
0001
0000
0000
0010
0000
0000
0100
1000
0001
0010
0000
0000
0100
0000
0000
1000
0001
1000
0001
0000
0000
1000
0000
0000
,
0010
0000
0100
0000
0001
0000
0010
0000
0000
0000
0000
0000
0100
0000
1000
0000
0010
0000
0100
0000
0000
0010
0000
0000
0001
0000
0000
1000
0000
0000
0010
0000
0000
0100
0000
0000
0001
0000
0000
0010
0000
0000
0100
0000
0000
1000
0000
0000
,
0001
0100
0001
1000
0001
1000
0010
1000
0010
0100
0001
0010
0100
1000
0001
0100
,
0001
1000
0001
1000
0010
1000
0010
0100
0001
0010
0100
1000
0001
0100
0001
1000
,
0001
1000
0010
1000
0100
0010
0001
1000
0001
0100
0001
0010
0100
1000
0001
0100
,
0001
1000
0001
1000
0010
1000
0010
0100
0001
0010
0100
1000
0001
0100
0001
1000
,
0001
0000
0000
1000
0000
0000
0010
0000
0000
1000
0000
0000
0010
0000
0000
0100
0000
0000
0001
0000
0000
0100
0000
0000
0001
0000
0000
0100
0000
0000
0001
0000
1000
0000
0010
0000
1000
0000
0000
0001
0000
0000
0100
0000
0000
0001
0000
0000
,
1000
0010
0100
0001
0010
0100
1000
0001
0100
0001
0010
0001
0100
0001
1000
0100
,
1000
0000
0000
0010
0000
0000
1000
0000
0000
0001
0000
0000
1000
0000
0000
0100
0000
0000
0010
0000
0000
0001
0000
0000
1000
0000
0000
0001
0000
0000
1000
0000
0100
0000
1000
0000
0100
0000
0000
0010
0000
0000
0001
0000
0000
1000
0000
0000
,
0001
0000
0000
1000
0000
0000
0010
0000
0000
0100
0000
0000
0001
0000
0000
0010
0000
0000
0100
0000
0000
0010
0000
0000
0001
0000
0000
1000
0000
0000
0001
0000
1000
0000
0000
0000
0010
0000
0000
0000
0100
0000
0000
0000
0001
0000
0000
0000
0010
0000
0000
0000
0100
0000
0000
0000
1000
0000
0000
0000
0001
0000
0000
0000
,
0100
0001
1000
0010
1000
0010
0100
0001
0010
0100
1000
0001
0100
0001
1000
0001
,
1000
0100
0010
0001
1000
0001
0100
0001
1000
0010
1000
0010
0100
0001
0010
0100
,
1000
0001
0100
0001
1000
0001
1000
0100
0010
0001
1000
0001
0100
0001
0010
0100
,
1000
0001
0100
0010
1000
0100
0010
0001
0010
0001
0100
0001
0010
0100
1000
0001
,
0100
0001
1000
0100
1000
0100
0010
0001
1000
0010
1000
0010
0100
0001
0010
0100
,
1000
0001
0100
0001
0010
0100
1000
0001
1001
0000
0000
0000
0000
0000
0110
0000
,
0000
0000
1100
0000
0101
1000
0200
0000
,
0310
0000
0000
0000
0000
0000
0000
0000
0000
0000
0000
0000
0000
0000
0000
0000
0000
0000
0000
0000
0000
0000
0000
0000
0001
0000
0000
0000
0000
0000
0000
0000
0000
0000
0000
0000
0000
0000
0000
0000
0000
0000
0000
0000
0000
0000
0000
0000
0100
0000
0000
0000
0000
0000
0000
0000
0000
0000
0000
0000
0000
0000
0000
0000
0000
0000
0000
0000
0000
0000
0000
0000
0010
0000
0000
0000
0000
0000
0000
0000
1000
0000
0000
0000
0000
0000
0000
0000
0100
0000
0000
0000
0000
0000
0000
0000
0010
0000
0000
0000
0000
0000
0000
0000
0000
0001
0000
0000
0000
0000
0000
0000
0000
0000
1000
0000
0000
0000
0000
0000
0000
0000
0000
0010
0000
0000
0000
0000
0000
0000
0000
0000
0100
0000
0000
0000
0000
0000
0000
0000
0000
0010
0000
0000
0000
0000
0000
0000
0000
0000
1000
0000
0000
0000
0000
0000
0000
0000
0000
0100
0000
0000
0000
0000
0000
0000
0000
0000
0010
0000
0000
0000
0000
0000
0000
0000
0000
0001
0000
0000
0000
0000
0000
0000
0000
0000
1000
0000
0000
0000
0000
0000
,
0000
0001
0000
0000
1000
0000
0000
0001
0000
0000
0010
0000
0000
0100
0000
0000
1000
0000
0000
0001
0000
0000
1000
0000
0000
0010
0000
0000
0100
0000
0000
0010
0000
0000
1000
0000
0000
0100
0000
0000
0010
0000
0000
0001
0000
0000
1000
0000
0000
0001
0000
0000
0010
0000
0000
0100
0000
0000
1000
0000
0000
0001
0000
0000
,
1000
0000
0000
0001
0000
0000
0100
0000
0000
0001
0000
0000
0010
0000
0000
0100
0000
0000
1000
0000
0000
0001
0000
0000
1000
0000
0000
0010
0000
0000
0100
0000
0000
0001
0000
0000
1000
0000
0000
0001
0000
0000
1000
0000
0000
0100
0000
0000
0010
0000
0000
0001
0000
0000
1000
0000
0000
0001
0000
0000
0010
0000
0000
0100
,
0000
0000
1000
0000
0000
0001
0000
0000
1000
0000
0000
0010
0000
0000
0100
0000
0000
0001
0000
0000
0010
0000
0000
0100
0000
0000
1000
0000
0000
0001
0000
0000
1000
0000
0000
0001
0000
0000
0100
0000
0000
0001
0000
0000
0100
0000
0000
0010
0000
0000
1000
0000
0000
0100
0000
0000
0010
0000
0000
0001
0000
0000
0010
0000
,
0000
0100
0000
0000
1000
0000
0000
0001
0000
0000
1000
0000
0000
0001
0000
0000
0100
0000
0000
0001
0000
0000
0010
0000
0000
0100
0000
0000
1000
0000
0000
0010
0000
0000
0100
0000
0000
0010
0000
0000
0100
0000
0000
0001
0000
0000
0010
0000
0000
0001
0000
0000
1000
0000
0000
0100
0000
0000
1000
0000
0000
0001
0000
0000
,
1000
0000
0000
0010
0000
0000
0100
0000
0000
0010
0000
0000
1000
0000
0000
0100
0000
0000
0010
0000
0000
0001
0000
0000
1000
0000
0000
0001
0000
0000
0100
0000
0000
0001
0000
0000
0010
0000
0000
0100
0000
0000
1000
0000
0000
0001
0000
0000
1000
0000
0000
0010
0000
0000
0100
0000
0000
0001
0000
0000
1000
0000
0000
0001
,
0000
0000
1000
0000
0000
0010
0000
0000
0100
0000
0000
0001
0000
0000
0100
0000
0000
0010
0000
0000
1000
0000
0000
0100
0000
0000
0010
0000
0000
0001
0000
0000
1000
0000
0000
0001
0000
0000
1000
0000
0000
0001
0000
0000
1000
0000
0000
0100
0000
0000
0010
0000
0000
0001
0000
0000
1000
0000
0000
0001
0000
0000
0100
0000
,
0000
0001
0000
0000
0010
0000
0000
0100
0000
0000
1000
0000
0000
0001
0000
0000
0100
0000
0000
0001
0000
0000
0010
0000
0000
0100
0000
0000
1000
0000
0000
0010
0000
0000
1000
0000
0000
0100
0000
0000
0010
0000
0000
0100
0000
0000
1000
0000
0000
0001
0000
0000
0100
0000
0000
0001
0000
0000
0010
0000
0000
0001
0000
0000
,
1000
0000
0000
0000
0000
0000
0000
0000
0000
0001
0000
0000
0000
0000
0000
0000
0000
0000
1000
0000
0000
0000
0000
0000
0000
0000
0000
0010
0000
0000
0000
0000
0000
0000
0000
0000
0100
0000
0000
0000
0000
0000
0000
0000
0000
0001
0000
0000
0000
0000
0000
0000
0000
0000
1000
0000
0000
0000
0000
0000
0000
0000
0000
0010
0000
0000
0000
0000
0000
0000
0000
0000
0100
0000
0000
0000
0000
0000
0000
0000
0000
0001
0000
0000
0000
0000
0000
0000
0000
0000
0010
0000
0000
0000
0000
0000
0000
0000
0200
0000
0000
0000
0000
0000
0000
0000
0000
0000
0000
0000
0000
0000
0000
0000
0000
0000
0000
0000
0000
0000
0000
0000
0000
0000
0000
0000
0000
0000
0000
0000
0000
0000
0000
0000
0000
0000
0000
0000
0000
0000
0000
0000
0000
0000
1300
0000
0000
0000
0000
0000
0000
0000
0000
0001
0000
0000
0000
0000
0000
0000
0000
0000
1000
0000
0000
0000
0000
0000
0000
0000
0000
0001
0000
0000
0000
0000
0000
0000
0000
0000
0100
0000
0000
0000
0000
0000
0000
0000
0000
0001
0000
0000
,
0000
0000
0010
0000
0000
0100
0000
0000
0010
0000
0000
0001
0000
0000
1000
0000
0000
0001
0000
0000
1000
0000
0000
0001
0000
0000
0100
0000
0000
0001
0000
0000
0010
0000
0000
0100
0000
0000
1000
0000
0000
0001
0000
0000
1000
0000
0000
0010
0000
0000
0100
0000
0000
0001
0000
0000
1000
0000
0000
0001
0000
0000
1000
0000
,
0000
0010
0000
0000
0100
0000
0000
0010
0000
0000
0100
0000
0000
0001
0000
0000
0100
0000
0000
0001
0000
0000
0010
0000
0000
0001
0000
0000
1000
0000
0000
0100
0000
0000
1000
0000
0000
0001
0000
0000
0100
0000
0000
0001
0000
0000
1000
0000
0000
0010
0000
0000
1000
0000
0000
0001
0000
0000
0010
0000
0000
0001
0000
0000
,
1000
0000
0000
0100
0000
0000
0010
0000
0000
0001
0000
0000
1000
0000
0000
0001
0000
0000
0010
0000
0000
0100
0000
0000
1000
0000
0000
0001
0000
0000
1000
0000
0000
0010
0000
0000
0100
0000
0000
0001
0000
0000
1000
0000
0000
0001
0000
0000
1000
0000
0000
0010
0000
0000
0100
0000
0000
0010
0000
0000
1000
0000
0000
0001
,
0000
0000
1000
0000
0000
0100
0000
0000
0010
0000
0000
0001
0000
0000
1000
0000
0000
0001
0000
0000
1000
0000
0000
0001
0000
0000
1000
0000
0000
0001
0000
0000
0100
0000
0000
0001
0000
0000
0010
0000
0000
0100
0000
0000
1000
0000
0000
0010
0000
0000
1000
0000
0000
0001
0000
0000
1000
0000
0000
0100
0000
0000
0010
0000
,
0000
0001
0000
0000
1000
0000
0000
0001
0000
0000
0100
0000
0000
0010
0000
0000
1000
0000
0000
0001
0000
0000
1000
0000
0000
0100
0000
0000
0010
0000
0000
0001
0000
0000
1000
0000
0000
0001
0000
0000
0100
0000
0000
0001
0000
0000
0010
0000
0000
0100
0000
0000
1000
0000
0000
0001
0000
0000
1000
0000
0000
0001
0000
0000
,
0100
0000
0000
0001
0000
0000
0010
0000
0000
0100
0000
0000
1000
0000
0000
0010
0000
0000
0100
0000
0000
0001
0000
0000
1000
0000
0000
0001
0000
0000
1000
0000
0000
0010
0000
0000
0100
0000
0000
0001
0000
0000
0010
0000
0000
0100
0000
0000
1000
0000
0000
0001
0000
0000
1000
0000
0000
0001
0000
0000
1000
0000
0000
0010
,
0000
0000
0100
0000
0000
0001
0000
0000
0010
0000
0000
0100
0000
0000
1000
0000
0000
0001
0000
0000
1000
0000
0000
0001
0000
0000
1000
0000
0000
0010
0000
0000
0100
0000
0000
0000
0000
0000
0000
0000
0001
0000
0000
0000
0000
0000
0000
0000
0020
0000
0000
0000
0000
0000
0000
0000
0000
0000
0000
0000
0000
0000
0000
0000
,
0130
1000
0010
0100
0002
0000
0023
0000
,
0000
0130
1000
0010
0200
0000
0000
0302
,
0000
0000
0013
0100
2000
0000
0000
3002
,
0000
0000
0103
0010
2000
0000
0000
3200
,
0000
0000
0310
0001
0200
0302
0023
0230
,
2300
3002
2003
3020
0230
0302
0023
0230
,
2300
3002
2003
3020
0230
0302
0203
0320
,
2030
3200
0320
0230
2300
3002
0203
0302
,
2003
3020
0230
0302
2003
0000
3100
0020
,
0000
0031
0100
0010
2000
0000
0000
3200
,
0000
0000
0310
0001
0200
0000
0000
0320
,
0000
0000
1030
0100
0020
0000
0000
0032
,
0000
0000
0103
0010
2000
3002
0203
0302
,
0023
0230
2300
3002
0203
0302
2003
3020
,
0230
0302
0023
0230
2300
3002
0203
0302
,
2003
3020
0230
0302
0023
0230
2300
3002
,
0203
0000
0302
0000
2003
0000
3002
0000
1003
0100
0010
0001
1000
0001
0100
0001
,
0010
0100
1000
0001
0100
0001
1000
0010
1000
0010
0100
0001
0010
0100
1000
0001
,
0100
0001
1000
0100
1000
0010
0100
0001
0010
0100
1000
0001
0100
0001
1000
0010
,
1000
0010
0100
0001
0010
0100
1000
0001
0100
0001
1000
0100
0010
0001
1000
0001
,
0100
0001
0010
0100
1000
0001
0100
0001
1000
0010
1000
0010
0100
0001
0010
0100
,
1000
0001
1000
0001
1000
0010
1000
0010
0100
0001
0010
0100
1000
0001
0100
0001
,
1000
0001
1000
0010
1000
0010
0100
0001
0010
0100
1000
0001
0100
0001
1000
0001
,
1000
0010
0100
0001
0010
0100
1000
0001
0100
0001
0010
0001
0100
0001
1000
0010
,
1000
0010
0100
0001
0010
0100
1000
0001
0100
0001
1000
0001
1000
0010
0100
0001
,
0010
0100
1000
0001
0100
0001
1000
0010
1000
0010
0100
0001
0100
0001
0010
0100
,
1000
0001
0100
0001
1000
0001
1000
0010
0100
0001
0010
0001
0010
0100
1000
0001
,
0100
0001
1000
0001
1000
0010
0100
0001
0010
0100
1000
0001
0100
0001
0010
0001
,
0100
0001
1000
0010
1000
0010
0100
0001
0010
0100
1000
0001
0100
0001
1000
0100
,
0010
0001
1000
0001
1000
0010
1000
0001
1000
0100
0010
0001
1000
0001
0100
0001
,
0010
0100
1000
0001
0100
0001
1000
0001
1000
0001
0100
0001
0010
0100
1000
0001
,
0100
0001
1000
0010
1000
0010
0100
0001
1000
0100
0010
0001
1000
0001
0100
0001
,
0010
0100
1000
0001
0100
0001
1000
0010
2000
0000
0000
0000
3100
0010
0001
1000
,
0100
0010
0001
1000
0100
0010
0001
1000
0200
0000
0000
0000
0310
0001
1000
0010
,
0100
0001
1000
0010
0100
0001
1000
0010
0200
0000
0000
0000
0301
0010
0100
0010
,
0001
0010
0100
0010
0001
0010
0100
0010
0002
0000
0000
0000
1003
0100
0010
0100
,
1000
0100
0010
0100
1000
0100
0010
0100
2000
0000
0000
0000
3001
0100
0010
0100
,
0001
0100
0010
0100
0001
0100
0010
0100
0002
0000
0000
0000
1003
0010
0100
0010
,
1000
0010
0100
0010
1000
0010
0100
0010
2000
0000
0000
0000
3001
1000
0010
0100
,
0001
1000
0010
0100
0001
1000
0010
0100
0002
0000
0000
0000
0013
0100
1000
0001
,
0010
0100
1000
0001
0010
0100
1000
0001
0020
0000
0000
0000
0130
1000
0010
0100
,
0001
0010
0100
1000
0001
0100
0010
1000
0200
0000
0000
0000
0310
0001
0100
0001
,
0010
0001
0100
0001
0010
0001
0100
0001
0020
0000
0000
0000
0130
1000
0010
1000
,
0100
1000
0010
1000
0100
1000
0010
1000
0200
0000
0000
0000
0310
0001
1000
0100
,
0010
0001
1000
0100
0010
0001
1000
0100
0020
0000
0000
0000
0031
1000
0010
0100
,
0001
1000
0010
0100
0001
1000
0010
0100
0002
0000
0000
0000
0013
0100
1000
0100
,
0010
0100
1000
0100
0010
0100
1000
0100
0020
0000
0000
0000
0031
0100
0010
0100
,
0001
0100
0010
0100
0001
0100
0010
0100
0002
2003
3020
0230
0302
0203
0302
0023
,
0230
2300
3200
0320
0032
2003
3000
0000
0000
0000
0000
0000
0000
0000
0000
0000
;

//---------------dance-single - ----------------
#NOTES:
     dance-single:
     :
     Medium:
     18:
     1.000,1.000,0.070,0.879,1.000,3948.000,27.000,341.000,3.000,0.000:
0000
0000
0000
0000
0000
0000
0000
0000
2000
3001
1000
0010
0200
0301
0010
0100
,
2000
3100
0010
0001
2000
3001
0100
0001
0020
0130
1000
0001
0200
0301
0010
0001
,
2000
3100
1000
0001
2000
3010
0100
0001
0020
0130
0010
0001
0200
0301
0010
0001
,
2000
3001
0100
0001
2000
3100
1000
0001
0200
0301
0010
0100
2000
3010
0100
0001
,
2000
3100
1000
0001
0200
0301
0010
0100
2000
3001
0100
0001
0020
0130
1000
0001
,
2000
3010
0100
0001
2000
3100
0010
0100
2000
3001
0010
0100
0020
0031
1000
0001
,
0200
0301
0010
0100
2000
3001
0100
0001
2000
3010
1000
0100
0020
0031
0100
0001
,
0020
0130
1000
0001
2000
3001
0100
0010
0200
0301
0010
0100
2000
3010
1000
0001
,
2000
3100
0010
0001
0020
0130
1000
0001
2000
0000
0000
0000
3001
0100
0001
0010
,
0200
0000
0000
0000
1300
0100
0010
0000
0002
0000
0000
0000
1003
0100
0010
0100
,
2000
0000
0000
0000
3020
0130
0001
0010
0200
1300
0001
0100
0002
1003
0010
1000
,
0002
0000
0000
0000
1003
0010
0100
0000
0200
0000
0000
0000
0301
0010
0100
0000
,
2000
0000
0000
0000
0000
0000
0000
0000
0000
0000
0000
0000
3001
0000
0000
0100
0000
0000
0001
0000
0000
0000
1000
0000
0001
0000
0000
0000
0000
0000
1000
0000
0000
0010
0000
0000
0100
0000
0000
0001
0000
0000
0010
0000
0000
0100
0000
0000
,
2000
0000
3001
1000
0010
0100
0001
0010
0200
0000
1300
0001
0100
0001
1000
0010
,
0200
0000
0301
0010
0100
1000
0100
0010
0002
0000
1003
0001
1000
0010
0100
0001
,
0020
0000
0000
0000
0000
0000
0130
0000
0000
1000
0000
0000
0001
0000
0000
0100
0000
0000
0010
0000
0000
1000
0000
0000
0100
0000
0010
0000
0001
0000
1000
0000
0001
0000
0100
0000
0001
0000
1000
0000
0001
0000
1000
0000
0010
0000
1000
0000
,
0001
1000
0100
0010
0001
1000
0200
0000
0000
0320
0000
0000
0000
0000
0000
0032
0000
0000
0003
0000
0000
0001
0000
0000
,
0010
0000
0100
0000
2000
3000
0001
0000
1000
0000
0010
0000
0200
0300
0001
0000
,
0010
0000
0100
0000
2000
3000
0002
0003
1000
0000
0010
0000
0200
0300
0001
0000
,
0010
0000
0100
0000
2000
3000
0010
0000
0100
0000
0001
0000
2000
3000
0100
0000
,
0010
0000
0000
0000
0000
0000
0100
0000
0000
0000
0000
0000
2000
0000
0000
3000
0000
0000
0001
0000
1000
0000
0000
0000
0001
0000
0000
0000
0000
0000
1000
0000
0000
0000
0000
0000
0020
0000
0000
0030
0000
0000
0100
0000
0000
0000
0000
0000
,
0001
0000
0010
0000
0200
0300
1000
0000
0010
0000
0100
0000
0002
0003
1000
0000
,
0001
0000
1000
0000
0020
0030
0200
0300
0001
0000
0010
0000
0200
0300
1000
0000
,
0001
0000
1000
0000
0020
0030
0100
0000
0001
0000
0010
0000
0200
0300
1000
0000
,
0001
0000
0100
0000
0002
0003
1000
0000
0020
0130
0001
0010
0100
1000
0001
0100
,
0002
1003
0010
0100
0001
0010
0100
1000
0002
1003
0010
0100
0001
1000
0100
0010
,
0002
0103
0001
0100
0001
0010
0100
1000
0002
1003
0010
1000
0010
0100
0001
0100
,
0002
1003
0010
0100
0001
0010
0100
1000
0002
1003
0010
1000
0010
0100
0001
1000
,
0002
1003
0100
0010
0100
1000
0100
0010
0002
1003
0010
0100
0001
0010
0100
1000
,
0020
0130
0001
0100
0001
1000
0100
1000
0020
0130
0001
0100
0001
1000
0100
0010
,
0002
1003
0001
1000
0100
0010
0001
1000
0020
0130
0001
0010
0100
1000
0100
0010
,
0002
1003
0100
1000
0001
0100
0001
1000
0200
1300
0010
0100
0001
1000
0100
0010
,
0002
0000
0000
1003
0000
0000
0001
0000
0000
0100
0000
0000
0010
0000
0000
1000
0000
0000
0001
0000
0000
0100
0000
0000
0010
0000
0000
1000
0000
0000
0001
0000
0000
0100
0000
0000
0010
0000
0100
0000
0001
0000
0010
0000
0000
0100
0000
0000
,
1000
0000
0000
0001
0000
0000
0010
0000
0000
0100
0000
0000
1000
0000
0000
0001
0000
0000
1000
0000
0000
0100
0000
0000
1000
0000
0000
0010
0000
0000
0100
0000
0000
0001
0000
0000
1000
0000
0100
0000
0010
0000
0001
0000
0000
0010
0000
0000
,
0001
0000
0000
1000
0000
0000
0010
0000
0000
0100
0000
0000
0001
0000
0000
0010
0000
0000
0100
0000
0000
1000
0000
0000
0100
0000
0000
0010
0000
0000
0100
0000
0000
1000
0000
0000
0001
0000
0100
0000
0001
0000
0100
0000
0000
0010
0000
0000
,
1000
0000
0000
0100
0000
0000
0010
0000
0000
0001
0000
0000
1000
0000
0000
0001
0000
0000
0100
0000
0000
0001
0000
0000
1000
0000
0000
0010
0000
0000
0100
0000
0000
0001
0000
0000
0010
0000
0100
0000
1000
0000
0010
0000
0000
0100
0000
0000
,
0001
0000
0000
0010
0000
0000
0100
0000
0000
1000
0000
0000
0001
0000
0000
0100
0000
0000
0001
0000
0000
1000
0000
0000
0010
0000
0000
1000
0000
0000
0010
0000
0000
0100
0000
0000
0001
0000
0010
0000
0100
0000
1000
0000
0000
0100
0000
0000
,
1000
0000
0000
0100
0000
0000
0010
0000
0000
0001
0000
0000
0010
0000
0000
0100
0000
0000
1000
0000
0000
0001
0000
0000
0100
0000
0000
0001
0000
0000
1000
0000
0000
0001
0000
0000
1000
0000
0001
0000
0100
0000
0010
0000
0000
1000
0000
0000
,
0010
0000
0000
0100
0000
0000
0001
0000
0000
0100
0000
0000
0001
0000
0000
0010
0000
0000
0100
0000
0000
1000
0000
0000
0001
0000
0000
0100
0000
0000
0001
0000
0000
1000
0000
0000
0010
0000
0100
0000
0001
0000
0010
0000
0000
0100
0000
0000
,
1000
0000
0000
0100
0000
0000
0010
0000
0000
0001
0000
0000
1000
0000
0000
0001
0000
0000
0100
0000
0000
0001
0000
0000
0010
0000
0000
0100
0000
0000
1000
0000
0001
0000
1000
0000
0001
0000
0100
0000
0010
0000
1000
0000
0000
0010
0000
0000
,
1000
0000
0000
0100
0000
0000
0010
0000
0000
0001
0000
0000
1000
0000
0000
0001
0000
0000
0100
0000
0000
0001
0000
0000
0010
0000
0000
0100
0000
0000
1000
0000
0000
0001
0000
0000
1000
0000
0001
0000
0100
0000
0001
0000
0000
0100
0000
0000
,
0001
0000
0000
0010
0000
0000
0100
0000
0000
1000
0000
0000
0001
0000
0000
0100
0000
0000
0001
0000
0000
1000
0000
0000
0001
0000
0000
1000
0000
0000
0100
0000
0000
0010
0000
0000
0001
0000
1000
0000
0100
0000
0010
0000
0000
0100
0000
0000
,
1000
0000
0000
0001
0000
0000
0100
0000
0000
0001
0000
0000
1000
0000
0000
0001
0000
0000
0100
0000
0000
0001
0000
0000
1000
0000
0000
0100
0000
0000
1000
0000
0000
0010
0000
0000
0100
0000
0001
0000
0010
0000
0100
0000
0000
1000
0000
0000
,
0010
0000
0000
0100
0000
0000
0001
0000
0000
0100
0000
0000
0001
0000
0000
0010
0000
0000
0100
0000
0000
1000
0000
0000
0001
0000
0000
0100
0000
0000
0001
0000
0000
1000
0000
0000
0100
0000
0010
0000
0001
0000
1000
0000
0000
0010
0000
0000
,
0100
0000
0000
0001
0000
0000
0010
0000
0000
0100
0000
0000
1000
0000
0000
0001
0000
0000
0100
0000
0000
0010
0000
0000
1000
0000
0000
0100
0000
0000
0010
0000
0000
0001
0000
0000
1000
0000
0001
0000
0100
0000
0001
0000
0000
1000
0000
0000
,
0010
0000
0000
0100
0000
0000
0001
0000
0000
0010
0000
0000
0100
0000
0000
1000
0000
0000
0001
0000
0000
0100
0000
0000
0001
0000
0000
1000
0000
0000
0001
0000
0000
1000
0000
0000
0100
0000
0010
0000
0001
0000
0010
0000
0000
0100
0000
0000
,
1000
0000
0000
0001
0000
0000
0100
0000
0000
0001
0000
0000
1000
0000
0000
0010
0000
0000
0100
0000
0000
0001
0000
0000
0010
0000
0000
0100
0000
0000
1000
0000
0000
0001
0000
0000
1000
0000
0001
0000
0100
0000
0010
0000
0000
0100
0000
0000
,
0001
0000
0000
0010
0000
0000
0100
0000
0000
1000
0000
0000
0001
0000
0000
0000
0000
0000
0101
0000
0000
0000
0000
0000
1000
0000
0001
0000
1000
0000
0001
0000
0100
0000
0001
0000
0010
0000
0100
0000
1000
0000
0001
0000
1000
0000
0001
0000
,
1000
0010
1000
0010
0100
0001
1000
0001
1000
0001
0100
0001
0010
0000
0000
0100
0000
0000
1000
0000
0000
0200
0000
0000
,
0000
0000
0000
0000
0000
0310
0010
0020
,
0000
0000
0000
0000
0000
0031
0001
0002
,
0000
0000
0000
0000
0000
1003
1000
2000
,
0000
0000
0000
0000
0000
3010
0010
0020
,
0000
0000
0000
0000
0000
0130
0100
0200
,
0000
0000
0000
0000
0000
0301
0001
0002
,
0000
0000
0000
0000
0000
0013
0010
0020
,
0000
0000
0000
0000
0000
0130
0100
0200
,
0000
0000
0000
0000
0000
1300
1000
2000
,
0000
0000
0000
0000
0000
0000
0000
0000
3140
0030
0140
0030
0140
0030
0020
0000
,
0000
0000
0000
0000
0000
0000
0000
0000
0431
0300
0401
0300
0401
0300
0200
0000
,
0000
0000
0000
0000
0000
0000
0000
0000
0314
0003
0001
0000
0001
0000
0002
0000
,
0000
0000
0000
0000
00M0
0013
0010
0020
,
0000
0000
0000
0000
0M00
0130
0100
0200
,
0000
0000
0000
0000
M000
1300
1000
2000
,
0000
0000
0000
0000
3001
0100
0010
1000
0200
0000
0000
0000
0310
0001
1000
0010
,
0100
0001
0100
0001
0010
0100
1000
0001
1000
0010
1000
0010
0100
0001
0100
0001
,
1000
0100
1000
0001
0100
0001
1000
0100
0010
0001
1000
0001
0100
0001
1000
0010
,
0100
0010
1000
0100
0010
0001
1000
0001
0100
0001
0010
0100
0010
0001
1000
0001
,
0100
0001
1000
0100
1000
0010
0100
0001
1000
0001
1000
0100
0010
0001
0010
0001
,
1000
0010
0100
0001
0100
0001
0010
0100
1000
0001
0100
0001
1000
0100
0010
0001
,
1000
0010
1000
0010
0100
0001
1000
0001
1000
0100
0010
0001
1000
0001
0100
0001
,
0010
0100
1000
0001
0100
0001
1000
0010
1000
0010
0100
0001
0010
0100
1000
0001
,
0100
0001
1000
0100
0010
0001
1000
0001
2000
3010
0100
0001
0020
0130
2000
3001
,
1000
0010
0200
0301
0020
0130
2000
3010
0200
0301
0010
0100
1000
0001
2000
3001
,
1000
0010
0100
0001
0020
0130
1000
0001
2000
3010
0100
0001
0010
0100
2000
3100
,
0010
0001
1000
0001
2000
3010
0200
0301
0020
0130
1000
0001
0100
0001
0020
0130
,
1000
0001
0100
0001
0020
0130
2000
3001
2000
3010
0100
0001
0020
0130
2000
3001
,
0100
0001
0020
0130
2000
3001
0200
0301
0020
0130
1000
0001
0100
0001
0020
0130
,
1000
0001
0100
0001
2000
3010
0200
0301
0020
0130
1000
0001
0100
0001
0020
0130
,
1000
0001
0100
0001
0020
0031
2000
3010
0200
0301
0010
0100
1000
0001
2000
3010
,
0100
0000
0000
0000
0000
0000
0000
0000
0000
0000
0000
0000
0001
0000
0000
0000
0000
0000
0000
0000
0000
0000
0000
0000
0010
0000
0000
0000
0000
0000
0000
0000
0000
0000
0000
0000
0100
0000
0000
0000
0000
0000
0000
0000
0000
0000
0000
0000
1000
0000
0000
0000
0000
0000
0000
0000
0000
0000
0000
0000
0001
0000
0000
0000
0000
0000
0000
0000
0000
0000
0000
0000
0100
0000
0000
0000
0000
0000
0000
0000
0000
0000
0000
0000
0001
0000
0000
0000
0000
0000
0000
0000
0000
0000
0000
0000
0010
0000
0000
0000
0000
0000
0000
0000
0000
0100
0000
0000
0000
0000
0000
0000
0000
0000
1000
0000
0000
0000
0000
0000
0000
0000
0000
0001
0000
0000
0000
0000
0000
0000
0000
0000
1000
0000
0000
0000
0000
0000
0000
0000
0000
0010
0000
0000
0000
0000
0000
0000
0000
0000
0100
0000
0000
0000
0000
0000
0000
0000
0000
0001
0000
0000
0000
0000
0000
0000
0000
0000
0010
0000
0000
0000
0000
0000
0000
0000
0100
0000
0000
0000
0000
0000
0000
0000
1000
0000
0000
0000
0000
0000
0000
0000
,
0001
0000
0000
0000
0000
0000
0000
0000
1000
0000
0000
0000
0000
0000
0000
0000
0010
0000
0000
0000
0000
0000
0000
0000
0100
0000
0000
0000
0000
0000
0000
0000
0000
0001
0000
0000
0000
0000
0000
0000
0000
0000
0010
0000
0000
0000
0000
0000
0000
0000
0000
0100
0000
0000
0000
0000
0000
0000
0000
0000
1000
0000
0000
0000
0000
0000
0000
0000
0000
0001
0000
0000
0000
0000
0000
0000
0000
0000
1000
0000
0000
0000
0000
0000
0000
0000
0000
0010
0000
0000
0000
0000
0000
0000
0000
0000
0100
0000
0000
0000
0000
0000
0000
0000
0000
0001
0000
0000
0000
0000
0000
0000
0000
0000
1000
0000
0000
0000
0000
0000
0000
0000
0000
0010
0000
0000
0000
0000
0000
0000
0000
0000
0100
0000
0000
0000
0000
0000
0000
0000
0000
0001
0000
0000
0000
0000
0000
0000
0000
0000
0010
0000
0000
0000
0000
0000
0000
0000
0000
0001
0000
0000
0000
0000
0000
0000
0000
0000
1000
0000
0000
0000
0000
0000
0000
0000
0001
0000
0000
0000
0000
0000
0000
0000
1000
0000
0000
0000
0000
0000
0000
0000
,
0010
0000
0000
0000
0000
0000
0000
0000
0100
0000
0000
0000
0000
0000
0000
0000
0001
0000
0000
0000
0000
0000
0000
0000
0010
0000
0000
0000
0000
0000
0000
0000
0000
0100
0000
0000
0000
0000
0000
0000
0000
0000
1000
0000
0000
0000
0000
0000
0000
0000
0000
0001
0000
0000
0000
0000
0000
0000
0000
0000
1000
0000
0000
0000
0000
0000
0000
0000
0000
0001
0000
0000
0000
0000
0000
0000
0000
0000
1000
0000
0000
0000
0000
0000
0000
0000
0000
0010
0000
0000
0000
0000
0000
0000
0000
0000
0100
0000
0000
0000
0000
0000
0000
0000
0000
0001
0000
0000
0000
0000
0000
0000
0000
0000
1000
0000
0000
0000
0000
0000
0000
0000
0000
0100
0000
0000
0000
0000
0000
0000
0000
0000
1000
0000
0000
0000
0000
0000
0000
0000
0000
0001
0000
0000
0000
0000
0000
0000
0000
0000
0100
0000
0000
0000
0000
0000
0000
0000
0000
0001
0000
0000
0000
0000
0000
0000
0000
0000
0010
0000
0000
0000
0000
0000
0000
0000
0100
0000
0000
0000
0000
0000
0000
0000
1000
0000
0000
0000
0000
0000
0000
0000
,
0001
0000
0000
0000
0000
0000
0000
0000
1000
0000
0000
0000
0000
0000
0000
0000
0001
0000
0000
0000
0000
0000
0000
0000
0010
0000
0000
0000
0000
0000
0000
0000
0000
0100
0000
0000
0000
0000
0000
0000
0000
0000
1000
0000
0000
0000
0000
0000
0000
0000
0000
0001
0000
0000
0000
0000
0000
0000
0000
0000
1000
0000
0000
0000
0000
0000
0000
0000
0000
0010
0000
0000
0000
0000
0000
0000
0000
0000
0100
0000
0000
0000
0000
0000
0000
0000
0000
0001
0000
0000
0000
0000
0000
0000
0000
0000
1000
0000
0000
0000
0000
0000
0000
0000
0000
0010
0000
0000
0000
0000
0000
0000
0000
0000
0100
0000
0000
0000
0000
0000
0000
0000
0000
0001
0000
0000
0000
0000
0000
0000
0000
0000
0010
0000
0000
0000
0000
0000
0000
0000
0000
0100
0000
0000
0000
0000
0000
0000
0000
0000
1000
0000
0000
0000
0000
0000
0000
0000
0000
0001
0000
0000
0000
0000
0000
0000
0000
0000
1000
0000
0000
0000
0000
0000
0000
0000
0000
0010
0000
0000
0000
0000
0000
0000
0000
0000
0100
0000
0000
0000
0000
0000
,
0000
0000
0000
0001
0000
0000
0000
0000
0000
0000
0000
0000
0100
0000
0000
0000
0000
0000
0000
0000
0000
0010
0000
0000
0000
0000
0000
0000
0000
0000
1000
0000
0000
0000
0000
0000
0000
0000
0000
0100
0000
0000
0000
0000
0000
0000
0000
0000
0010
0000
0000
0000
0000
0000
0000
0000
0000
0001
0000
0000
0000
0000
0000
0000
0000
0000
1000
0000
0000
0000
0000
0000
0000
0000
0000
0001
0000
0000
0000
0000
0000
0000
0000
0000
1000
0000
0000
0000
0000
0000
0000
0000
0000
0001
0000
0000
0000
0000
0000
0000
0000
0000
0010
0000
0000
0000
0000
0000
0000
0000
0000
0100
0000
0000
0000
0000
0000
0000
0000
0000
1000
0000
0000
0000
0000
0000
0000
0000
0001
0000
0000
0000
0000
0000
0000
0000
1000
0000
0000
0000
0000
0000
0000
0000
0001
0000
0000
0000
0000
0000
0000
0000
0100
0000
0000
0000
0000
0000
0000
0000
0001
0000
0000
0000
0000
0000
0000
0000
0010
0000
0000
0000
0000
0000
0000
0000
0100
0000
0000
0000
0000
0000
0000
0000
1000
0000
0000
0000
0000
0000
0000
0000
,
0001
0000
0000
0000
0000
0000
0000
0000
1000
0000
0000
0000
0000
0000
0000
0000
0010
0000
0000
0000
0000
0000
0000
0000
1000
0000
0000
0000
0000
0000
0000
0000
0000
0100
0000
0000
0000
0000
0000
0000
0000
0000
0010
0000
0000
0000
0000
0000
0000
0000
0000
0001
0000
0000
0000
0000
0000
0000
0000
0000
1000
0000
0000
0000
0000
0000
0000
0000
0000
0001
0000
0000
0000
0000
0000
0000
0000
0000
0010
0000
0000
0000
0000
0000
0000
0000
0000
0100
0000
0000
0000
0000
0000
0000
0000
0000
1000
0000
0000
0000
0000
0000
0000
0000
0000
0001
0000
0000
0000
0000
0000
0000
0000
0000
1000
0000
0000
0000
0000
0000
0000
0000
0000
0001
0000
0000
0000
0000
0000
0000
0000
0000
1000
0000
0000
0000
0000
0000
0000
0000
0000
0100
0000
0000
0000
0000
0000
0000
0000
0000
0010
0000
0000
0000
0000
0000
0000
0000
0000
0001
0000
0000
0000
0000
0000
0000
0000
0000
1000
0000
0000
0000
0000
0000
0000
0000
0000
0001
0000
0000
0000
0000
0000
0000
0000
0000
0100
0000
0000
0000
0000
0000
,
0000
0000
0000
0001
0000
0000
0000
0000
0000
0000
0000
0000
0010
0000
0000
0000
0000
0000
0000
0000
0000
0100
0000
0000
0000
0000
0000
0000
0000
0000
1000
0000
0000
0000
0000
0000
0000
0000
0000
0001
0000
0000
0000
0000
0000
0000
0000
0000
1000
0000
0000
0000
0000
0000
0000
0000
0001
0000
0000
0000
0000
0000
0000
0000
0100
0000
0000
0000
0000
0000
0000
0000
0001
0000
0000
0000
0000
0000
0000
0000
0010
0000
0000
0000
0000
0000
0000
0000
0100
0000
0000
0000
0000
0000
0000
0000
1000
0000
0000
0000
0000
0000
0000
0000
0000
0001
0000
0000
0000
0000
0000
0000
0000
0000
1000
0000
0000
0000
0000
0000
0000
0000
0000
0001
0000
0000
0000
0000
0000
0000
0000
0000
1000
0000
0000
0000
0000
0000
0000
0000
0000
0010
0000
0000
0000
0000
0000
0000
0000
0000
0100
0000
0000
0000
0000
0000
0000
0000
0000
0001
0000
0000
0000
0000
0000
0000
0000
0000
1000
0000
0000
0000
0000
0000
0000
0000
0000
0100
0000
0000
0000
0000
0000
0000
0000
0000
0010
0000
0000
0000
0000
0000
,
0000
0001
0000
0000
1000
0000
0000
0001
0000
0000
0010
0000
0000
0100
0000
0000
1000
0000
0000
0001
0000
0000
1000
0000
0000
0010
0000
0000
0100
0000
0000
0001
0000
0000
1000
0000
0000
0010
0000
0000
0100
0000
0000
0001
0000
0000
1000
0000
0000
0001
0000
0000
1000
0000
0000
0100
0000
0000
0010
0000
0000
0001
0000
0000
,
1000
0000
0000
0000
0000
0000
0000
0000
0001
0000
0000
0000
0000
0000
0000
0000
1000
0000
0000
0000
0000
0000
0000
0000
0001
0000
0000
0000
0000
0000
0000
0000
0100
0000
0000
0000
0000
0000
0000
0000
0001
0000
0000
0000
0000
0000
0000
0000
0010
0000
0000
0000
0000
0000
0000
0000
0000
0100
0000
0000
0000
0000
0000
0000
0000
0000
1000
0000
0000
0000
0000
0000
0000
0000
0000
0001
0000
0000
0000
0000
0000
0000
0000
0000
1000
0000
0000
0000
0000
0000
0000
0000
0000
0010
0000
0000
0000
0000
0000
0000
0000
0000
0100
0000
0000
0000
0000
0000
0000
0000
0000
0001
0000
0000
0000
0000
0000
0000
0000
0000
1000
0000
0000
0000
0000
0000
0000
0000
0000
0100
0000
0000
0000
0000
0000
0000
0000
0000
0010
0000
0000
0000
0000
0000
0000
0000
0000
0001
0000
0000
0000
0000
0000
0000
0000
0000
1000
0000
0000
0000
0000
0000
0000
0000
0000
0001
0000
0000
0000
0000
0000
0000
0000
0000
0010
0000
0000
0000
0000
0000
0000
0000
0000
0100
0000
0000
0000
0000
0000
0000
0000
0000
,
1000
0000
0000
0000
0000
0000
0000
0000
0000
0001
0000
0000
0000
0000
0000
0000
0000
0000
1000
0000
0000
0000
0000
0000
0000
0000
0000
0001
0000
0000
0000
0000
0000
0000
0000
0000
0010
0000
0000
0000
0000
0000
0000
0000
0000
0100
0000
0000
0000
0000
0000
0000
0000
0000
1000
0000
0000
0000
0000
0000
0000
0000
0000
0010
0000
0000
0000
0000
0000
0000
0000
0000
0100
0000
0000
0000
0000
0000
0000
0000
0001
0000
0000
0000
0000
0000
0000
0000
0010
0000
0000
0000
0000
0000
0000
0000
0100
0000
0000
0000
0000
0000
0000
0000
1000
0000
0000
0000
0000
0000
0000
0000
0001
0000
0000
0000
0000
0000
0000
0000
1000
0000
0000
0000
0000
0000
0000
0000
0010
0000
0000
0000
0000
0000
0000
0000
0100
0000
0000
0000
0000
0000
0000
0000
0001
0000
0000
0000
0000
0000
0000
0000
0010
0000
0000
0000
0000
0000
0000
0000
0100
0000
0000
0000
0000
0000
0000
0000
1000
0000
0000
0000
0000
0000
0000
0000
0000
0001
0000
0000
0000
0000
0000
0000
0000
0000
1000
0000
0000
0000
0000
0000
,
0000
0001
0000
0000
0010
0000
0000
0100
0000
0000
1000
0000
0000
0001
0000
0000
0100
0000
0000
0001
0000
0000
0010
0000
0000
0100
0000
0000
1000
0000
0000
0001
0000
0000
1000
0000
0000
0010
0000
0000
0100
0000
0000
0001
0000
0000
1000
0000
0000
0001
0000
0000
0010
0000
0000
0100
0000
0000
1000
0000
0000
0001
0000
0000
,
1000
0000
0000
0010
0000
0000
0100
0000
0000
0001
0000
0000
1000
0000
0000
0100
0000
0000
0010
0000
0000
0001
0000
0000
1000
0000
0000
0001
0000
0000
0100
0000
0000
0001
0000
0000
0010
0000
0000
0100
0000
0000
1000
0000
0000
0001
0000
0000
1000
0000
0000
0001
0000
0000
0100
0000
0000
0010
0000
0000
1000
0000
0000
0100
,
0000
0000
0000
0000
0000
0000
0010
0000
0000
0000
0000
0000
0000
0000
0000
0001
0000
0000
0000
0000
0000
0000
0000
0000
1000
0000
0000
0000
0000
0000
0000
0000
0001
0000
0000
0000
0000
0000
0000
0000
0100
0000
0000
0000
0000
0000
0000
0000
0001
0000
0000
0000
0000
0000
0000
0000
0010
0000
0000
0000
0000
0000
0000
0000
0100
0000
0000
0000
0000
0000
0000
0000
1000
0000
0000
0000
0000
0000
0000
0000
0010
0000
0000
0000
0000
0000
0000
0000
0100
0000
0000
0000
0000
0000
0000
0000
0001
0000
0000
0000
0000
0000
0000
0000
0010
0000
0000
0000
0000
0000
0000
0000
0001
0000
0000
0000
0000
0000
0000
0000
0010
0000
0000
0000
0000
0000
0000
0000
0000
0100
0000
0000
0000
0000
0000
0000
0000
0000
1000
0000
0000
0000
0000
0000
0000
0000
0000
0001
0000
0000
0000
0000
0000
0000
0000
0000
1000
0000
0000
0000
0000
0000
0000
0000
0000
0001
0000
0000
0000
0000
0000
0000
0000
0000
1000
0000
0000
0000
0000
0000
0000
0000
0000
0010
0000
0000
0000
0000
0000
0000
0000
0000
,
0100
0000
0000
0001
0000
0000
0100
0000
0000
0010
0000
0000
1000
0000
0000
0100
0000
0000
0010
0000
0000
0001
0000
0000
1000
0000
0000
0001
0000
0000
1000
0000
0000
0001
0000
0000
0100
0000
0000
0001
0000
0000
0010
0000
0000
0100
0000
0000
1000
0000
0000
0001
0000
0000
1000
0000
0000
0010
0000
0000
0100
0000
0000
0001
,
0000
0000
1000
0000
0000
0001
0000
0000
0010
0000
0000
0100
0000
0000
1000
0000
0000
0001
0000
0000
1000
0000
0000
0010
0000
0000
0100
0000
0000
0001
0000
0000
1000
0000
0000
0001
0000
0000
0010
0000
0000
0100
0000
0000
1000
0000
0000
0001
0000
0000
1000
0000
0000
0001
0000
0000
0100
0000
0000
0001
0000
0000
0010
0000
,
0000
0100
0000
0000
1000
0000
0000
0001
0000
0000
1000
0000
0000
0001
0000
0000
1000
0000
0000
0010
0000
0000
0100
0000
0000
0001
0000
0000
1000
0000
0000
0001
0000
0000
0010
0000
0000
0100
0000
0000
1000
0000
0000
0001
0000
0000
1000
0000
0000
0010
0000
0000
0100
0000
0000
0001
0000
0000
1000
0000
0000
0001
0000
0000
,
1000
0000
0001
0000
1000
0000
0010
0000
0100
0000
0001
0000
0010
0000
0100
0000
1000
0000
0002
0003
0000
0002
0003
0000
0020
0000
0000
0000
0000
0000
0000
0000
0000
0000
0000
0000
0130
0000
0000
1000
0000
0000
0001
0000
0000
0010
0000
0000
,
0100
1000
0001
0100
0001
1000
0010
1000
0010
0100
0001
0100
0001
1000
0001
1000
,
0100
1000
0100
0010
0001
1000
0001
0100
0001
1000
0010
1000
0010
0100
0001
1000
,
0001
1000
0100
0010
0001
1000
0001
0100
0001
1000
0010
0100
0001
1000
0001
1000
,
0100
0010
0001
1000
0001
0100
0001
1000
0100
1000
0001
0100
0001
0010
0100
1000
,
0001
0000
0000
0100
0000
0000
0001
0000
0000
1000
0000
0000
0100
0000
0000
0010
0000
0000
0001
0000
0000
1000
0000
0000
0001
0000
0000
0100
0000
0000
0001
0000
1000
0000
0001
0000
1000
0000
0000
0010
0000
0000
0100
0000
0000
0001
0000
0000
,
0010
0100
1000
0001
0100
0001
1000
0001
1000
0010
0100
0001
1000
0001
1000
0100
,
0010
0000
0000
0001
0000
0000
1000
0000
0000
0001
0000
0000
1000
0000
0000
0100
0000
0000
1000
0000
0000
0010
0000
0000
0100
0000
0000
0001
0000
0000
0100
0000
0010
0000
0100
0000
0010
0000
0000
1000
0000
0000
0100
0000
0000
0010
0000
0000
,
0001
0000
0000
1000
0000
0000
0010
0000
0000
0100
0000
0000
0001
0000
0000
0010
0000
0000
0100
0000
0000
1000
0000
0000
0001
0000
0000
1000
0000
0000
0010
0000
0100
0000
0000
0000
0001
0000
0000
0000
0010
0000
0000
0000
0100
0000
0000
0000
1000
0000
0000
0000
0001
0000
0000
0000
0100
0000
0000
0000
0001
0000
0000
0000
,
1000
0100
1000
0010
0100
0001
0010
0100
1000
0001
1000
0010
0100
0010
1000
0100
,
0010
0001
1000
0001
0100
0001
0010
0100
1000
0100
0010
0001
1000
0001
0100
0001
,
1000
0010
0100
0001
0010
0100
0010
0001
1000
0001
0100
0001
1000
0010
0100
0001
,
0010
0100
1000
0010
0100
0010
1000
0100
0020
0031
1000
0100
0010
0001
1000
0100
,
0010
0001
1000
0001
0100
0001
0010
0100
1000
0001
0010
0100
1000
0001
0010
0100
,
1000
0001
0100
0001
1000
0010
0100
0001
0220
0330
0000
0000
0000
0000
2200
3300
,
0000
0000
0000
0000
0022
0033
0000
0000
0101
0000
0011
0000
2002
3003
0000
0000
,
1010
0000
1001
0000
2200
3300
0000
0000
0200
0310
0001
1000
0001
1000
0010
0100
,
0001
1000
0001
1000
0100
0010
0001
1000
0001
0100
0001
1000
0001
0010
0100
1000
,
0001
0010
0100
1000
0001
0100
0001
1000
0010
0100
0001
0010
0100
1000
0001
0010
,
0100
1000
0001
0100
0001
1000
0010
1000
0010
0100
0001
0010
0100
1000
0010
0100
,
0001
1000
0010
0100
0001
1000
0010
1000
0010
0100
0001
1000
0001
1000
0100
0010
,
0001
1000
0100
0010
0001
1000
0001
0100
0001
0010
0100
1000
0001
1000
0100
0010
,
0001
1000
0100
0010
0001
1000
0001
0100
0001
0100
0010
1000
0010
0100
0001
1000
,
0010
0100
0001
1000
0010
0100
0001
0010
0100
1000
0001
1000
0001
0100
0001
1000
,
0100
1000
0001
0100
0001
1000
0100
0010
0001
1000
0001
0100
0001
0010
0100
1000
,
0001
0010
0100
1000
0001
0100
0001
1000
0010
1000
0010
1000
0100
0010
0001
1000
,
0100
0010
0001
1000
0001
0100
0001
0010
0100
1000
0001
1000
0010
0100
0010
1000
,
0010
0100
0010
1000
0100
0010
0001
1000
0001
0100
0001
1000
0001
0010
0100
1000
,
0001
0010
0100
1000
0001
0100
0010
1000
0010
0100
0001
1000
0001
0010
0100
1000
,
0001
0010
0100
1000
0001
0100
0001
1000
0010
0100
0010
1000
0100
0010
0001
1000
,
0100
0010
0001
1000
0100
0010
0001
0100
0001
0010
0100
1000
0001
1000
0010
0100
,
0001
0000
0000
1000
0000
0000
0010
0000
0000
0100
0000
0000
0001
0000
0000
1000
0000
0000
0100
0000
0000
0010
0000
0000
0002
0000
0000
0000
0000
0000
1003
0000
0010
0000
1000
0000
0020
0000
0000
0000
0000
0000
0000
0000
0000
0000
0000
0000
,
0130
0001
0010
0100
2000
0000
3001
0101
,
0000
0010
1000
0100
0022
0000
0033
2000
,
0000
0000
3100
0010
0002
0000
0000
2003
,
0000
3000
0110
0101
0011
0000
0000
0200
,
0000
0000
1300
0010
0200
0302
2003
3002
,
0203
0302
2003
3020
0230
0302
0023
0230
,
2300
3002
2003
3020
0230
0302
0203
0302
,
2003
3200
0320
0032
2003
3002
2003
3020
,
0230
0302
0023
0230
2300
3000
0101
0101
,
0000
1001
0001
1100
0002
0000
0000
0023
,
0000
0000
0130
1000
0200
0000
0000
2300
,
0000
0000
3010
0100
0002
0000
0000
0023
,
0000
0000
0130
1000
0200
0300
0011
0011
,
0000
0001
0100
0010
2000
0000
0000
3200
,
0000
0000
0310
0001
0200
0000
0000
0320
,
0000
0000
1030
0100
0020
0000
0000
0032
,
0000
0000
0000
0000
0000
0000
0000
0000
0000
0000
0000
0000
0000
0000
0000
0000
1003
0000
0000
0000
0000
0000
0000
0000
0001
0000
0000
0000
0000
0000
0000
0000
1000
0000
0000
0001
0000
0000
1000
0000
0000
0001
0000
0000
1000
0000
0000
0001
0000
0000
0100
0000
0000
0001
0000
0000
0100
0000
0000
0001
0000
0000
0010
0000
,
0000
0100
0000
0000
1000
0000
0000
0001
0000
0000
1000
0000
0000
0001
0000
0000
1000
0000
0000
0100
0000
0000
0010
0000
0000
0001
0000
0000
1000
0000
0000
0001
0000
0000
0100
0000
0000
0010
0000
0000
0100
0000
0000
0001
0000
0000
1000
0000
0000
0001
0000
0000
0010
0000
0000
0100
0000
0000
1000
0000
0000
0001
0000
0000
,
1000
0000
0000
0001
0000
0000
1000
0000
0000
0010
0000
0000
0100
0000
0000
0001
0000
0000
1000
0000
0000
0100
0000
0000
1000
0000
0000
0100
0000
0000
0010
0000
0000
0001
0000
0000
1000
0000
0000
0001
0000
0000
1000
0000
0000
0001
0000
0000
0100
0000
0000
0001
0000
0000
0010
0000
0000
0100
0000
0000
1000
0000
0000
0010
,
0000
0000
1000
0000
0000
0010
0000
0000
1000
0000
0000
0010
0000
0000
0100
0000
0000
0001
0000
0000
0010
0000
0000
0100
0000
0000
1000
0000
0000
0001
0000
0000
1000
0000
0000
0001
0000
0000
1000
0000
0000
0010
0000
0000
0100
0000
0000
0001
0000
0000
0010
0000
0000
0100
0000
0000
1000
0000
0000
0001
0000
0000
1000
0000
,
0000
0010
0000
0000
0100
0000
0000
0001
0000
0000
0100
0000
0000
0010
0000
0000
1000
0000
0000
0100
0000
0000
0010
0000
0000
0001
0000
0000
1000
0000
0000
0001
0000
0000
0100
0000
0000
0001
0000
0000
0100
0000
0000
0010
0000
0000
1000
0000
0000
0100
0000
0000
0010
0000
0000
0001
0000
0000
1000
0000
0000
0001
0000
0000
,
1000
0000
0000
0010
0000
0000
0100
0000
0000
0001
0000
0000
0100
0000
0000
0010
0000
0000
1000
0000
0000
0100
0000
0000
0010
0000
0000
0001
0000
0000
1000
0000
0000
0001
0000
0000
1000
0000
0000
0010
0000
0000
0100
0000
0000
0001
0000
0000
0010
0000
0000
0100
0000
0000
1000
0000
0000
0001
0000
0000
1000
0000
0000
0010
,
0000
0000
1000
0000
0000
0100
0000
0000
0010
0000
0000
0100
0000
0000
1000
0000
0000
0001
0000
0000
1000
0000
0000
0010
0000
0000
0100
0000
0000
0001
0000
0000
0010
0000
0000
0001
0000
0000
1000
0000
0000
0001
0000
0000
1000
0000
0000
0100
0000
0000
1000
0000
0000
0001
0000
0000
1000
0000
0000
0010
0000
0000
0100
0000
,
0000
0001
0000
0000
0100
0000
0000
0001
0000
0000
0010
0000
0000
0100
0000
0000
1000
0000
0000
0001
0000
0000
1000
0000
0000
0001
0000
0000
1000
0000
0000
0100
0000
0000
0010
0000
0000
0001
0000
0000
0010
0000
0000
0100
0000
0000
1000
0000
0000
0001
0000
0000
0100
0000
0000
0001
0000
0000
0100
0000
0000
0010
0000
0000
,
1000
0000
0000
0100
0000
0000
0010
0000
0000
0001
0000
0000
1000
0000
0000
0001
0000
0000
0010
0000
0000
0100
0000
0000
1000
0000
0000
0001
0000
0000
0100
0000
0000
0001
0000
0000
1000
0000
0000
0100
0000
0000
1000
0000
0000
0010
0000
0000
0100
0000
0000
0010
0000
0000
0100
0000
0000
0001
0000
0000
0100
0000
0000
0010
,
0000
0000
1000
0000
0000
0100
0000
0000
0010
0000
0000
0001
0000
0000
1000
0000
0000
0001
0000
0000
1000
0000
0000
0001
0000
0000
0100
0000
0000
0010
0000
0000
1000
0000
0000
0100
0000
0000
0010
0000
0000
0001
0000
0000
1000
0000
0000
0001
0000
0000
0100
0000
0000
0001
0000
0000
0010
0000
0000
0100
0000
0000
1000
0000
,
0000
0001
0000
0000
1000
0000
0000
0010
0000
0000
0100
0000
0000
0001
0000
0000
0100
0000
0000
0010
0000
0000
1000
0000
0000
0100
0000
0000
0010
0000
0000
0001
0000
0000
1000
0000
0000
0001
0000
0000
1000
0000
0000
0010
0000
0000
0100
0000
0000
0001
0000
0000
0100
0000
0000
0001
0000
0000
0100
0000
0000
0010
0000
0000
,
0100
0000
0000
0001
0000
0000
0010
0000
0000
0100
0000
0000
1000
0000
0000
0001
0000
0000
1000
0000
0000
0010
0000
0000
0100
0000
0000
0001
0000
0000
1000
0000
0000
0001
0000
0000
1000
0000
0000
0100
0000
0000
0010
0000
0000
0001
0000
0000
1000
0000
0000
0001
0000
0000
0100
0000
0000
0001
0000
0000
0100
0000
0000
0010
,
0000
0000
1000
0000
0000
0100
0000
0000
0010
0000
0000
0001
0000
0000
1000
0000
0000
0001
0000
0000
0100
0000
0000
0001
0000
0000
0010
0000
0100
0000
0000
1000
0000
0000
0010
0000
0000
0100
0000
0000
0001
0000
0000
1000
0000
0000
0001
0000
0000
1000
0000
0000
0010
0000
0000
0100
0000
0000
0001
0000
0000
1000
0000
0000
,
0100
0000
0000
0010
0000
0000
0001
0000
0000
1000
0000
0000
0001
0000
0000
0100
0000
0000
0001
0000
0000
1000
0000
0000
0100
0000
0000
1000
0000
0000
0010
0000
0000
1000
0000
0000
0100
0000
0000
0010
0000
0000
0001
0000
0000
1000
0000
0000
0001
0000
0000
0010
0000
0000
0100
0000
0000
1000
0000
0000
0001
0000
0000
1000
,
0000
0000
0010
0000
0000
0100
0000
0000
0001
0000
0000
0010
0000
0000
0100
0000
0000
1000
0000
0000
0001
0000
0000
1000
0000
0000
0010
0000
0000
0100
0000
0000
0001
0000
0000
1000
0000
0000
0010
0000
0000
0100
0000
0000
0001
0000
0000
1000
0000
0000
0001
0000
0000
0010
0000
0000
0100
0000
0000
1000
0000
0000
0001
0000
,
0000
1000
0000
0000
0001
0000
0000
1000
0000
0000
0010
0000
0000
0100
0000
0000
0001
0000
0000
0010
0000
0000
0100
0000
0000
1000
0000
0000
0100
0000
0000
1000
0000
0000
0001
0000
0000
1000
0000
0000
0010
0000
0000
0100
0000
0000
0001
0000
0000
0010
0000
0000
0100
0000
0000
1000
0000
0000
0001
0000
0000
1000
0000
0000
,
0010
0000
0000
0000
0000
0000
0000
0000
0000
0100
0000
0000
0000
0000
0000
0000
0000
0000
0010
0000
0000
0000
0000
0000
0000
0000
0000
1000
0000
0000
0000
0000
0000
0000
0000
0000
0100
0000
0000
0000
0000
0000
0000
0000
0000
0010
0000
0000
0000
0000
0000
0000
0000
0000
0001
0000
0000
0000
0000
0000
0000
0000
0000
1000
0000
0000
0000
0000
0000
0000
0000
0000
0001
0000
0000
0000
0000
0000
0000
0000
0000
0100
0000
0000
0000
0000
0000
0000
0000
0000
0001
0000
0000
0000
0000
0000
0000
0000
0020
0000
0000
0000
0000
0000
0000
0000
0000
0000
0000
0000
0000
0000
0000
0000
0000
0000
0000
0000
0000
0000
0130
0000
0000
0000
0000
0000
0000
0000
0000
0000
0000
0000
0000
0000
0000
0000
0000
0000
0000
0000
0000
0000
0000
0000
0100
0000
0000
0000
0000
0000
0000
0000
0000
0000
0000
0000
0000
0000
0000
0000
0000
0000
0000
0000
0000
0000
0000
0000
0200
0000
0000
0000
0000
0000
0000
0000
0000
0000
0000
0000
0000
0000
0000
0000
0000
0000
0000
0000
0000
0000
0000
0000
,
0000
0000
0000
0000
0000
1300
1000
2000
,
0000
0000
0000
0000
0000
3010
0010
0020
,
0000
0000
0000
0000
0000
0130
0100
0200
,
0000
0000
0000
0000
0000
0301
0001
0002
,
0000
0000
0000
0000
0000
0103
0100
0200
,
0000
0000
0000
0000
0000
0000
0000
0000
0340
0030
0010
0000
0010
0000
0020
0000
,
0000
0000
0000
0000
0000
0000
0000
0000
4030
3000
1000
0000
1000
0000
2000
0000
,
0000
0000
0000
0000
0000
0000
0000
0000
3004
0003
0001
0000
0001
0000
0002
0000
,
0000
0000
0000
0000
0000
0000
0000
0000
0403
0300
0100
0000
0100
0000
0200
0000
,
0000
0000
0000
0000
0000
0000
0000
0000
0304
0003
0004
0003
0004
0003
0002
0000
,
0000
0000
0000
0000
0000
0000
0000
0000
4003
3000
4000
3000
4000
3000
2000
0000
,
0000
0000
0000
0000
0000
0000
0000
0000
3040
0030
0010
0000
0010
0000
0020
0000
,
0000
0000
0000
0000
0000
0130
0100
0200
,
0000
0000
0000
0000
0000
0301
0001
0002
,
0000
0000
0000
0000
0000
0013
0010
0020
,
0000
0000
0000
0000
0130
0001
0010
0100
2000
0000
0000
0000
3004
0000
0000
0000
,
1003
0100
1000
0001
0100
0001
1000
0010
0100
0001
0010
0100
1000
0001
1000
0010
,
1000
0010
0100
0001
0010
0100
1000
0001
0100
0001
1000
0100
0010
0001
1000
0010
,
1000
0010
0100
0001
0010
0100
1000
0001
1000
0001
0100
0010
1000
0001
1000
0100
,
0010
0001
0100
0001
0010
0100
1000
0010
0100
0010
1000
0001
1000
0100
0010
0001
,
1000
0001
0100
0010
0100
0001
0010
0100
1000
0001
0100
0001
1000
0001
1000
0010
,
1000
0010
0100
0001
0010
0100
1000
0001
0100
0001
1000
0100
0010
0001
1000
0010
,
1000
0001
0010
0001
1000
0100
0010
0001
1000
0001
0100
0001
0010
0100
1000
0001
,
0100
0010
1000
0100
0010
0001
1000
0001
4000
3100
0010
0001
1000
0001
0100
0001
,
0010
0100
1000
0001
0100
0001
1000
0010
1000
0010
0100
0001
0010
0100
1000
0001
,
0100
0001
1000
0010
1000
0100
0010
0001
0100
0001
1000
0001
1000
0010
1000
0010
,
0100
0001
0010
0100
1000
0001
0100
0001
1000
0100
0010
0001
1000
0001
1000
0010
,
1000
0010
0100
0001
0010
0100
1000
0001
0100
0001
1000
0001
1000
0010
1000
0010
,
0100
0001
0010
0100
1000
0001
0100
0001
1000
0100
0010
0001
1000
0010
1000
0010
,
0100
0001
0010
0100
1000
0100
0010
0001
1000
0001
0100
0001
1000
0100
1000
0001
,
1000
0001
1000
0010
1000
0010
0100
0001
0010
0100
1000
0001
0100
0001
1000
0001
,
1000
0000
0000
0100
0000
0000
0010
0000
0000
0001
0000
0000
1000
0000
0000
0001
0000
0000
1000
0000
0000
0010
0000
0000
1000
0000
0100
0000
0010
0000
0001
0000
0000
0000
0000
0000
1000
0000
0000
0000
0000
0000
0001
0000
0100
0000
0010
0000
,
1000
0000
0000
0100
0000
0000
0010
0001
0010
0001
0000
0000
0100
0000
0000
0010
1000
0001
1000
0000
0000
0100
0000
0000
,
0001
1000
0001
0100
0000
0000
0001
0010
0100
1000
0000
0000
0010
0100
0010
0100
0000
0000
0001
0000
0000
0010
0100
1000
,
0001
0000
0000
1000
0000
0000
0100
0010
0001
1000
0000
0000
0001
0000
0000
0100
0010
1000
0010
0000
0000
1000
0000
0000
,
0100
0010
0001
0010
0000
0000
0100
1000
0100
1000
0000
0000
0001
0100
0010
1000
0000
0000
0001
0000
0000
1000
0001
0100
,
0001
0000
0000
1000
0000
0000
0100
0010
0001
1000
0000
0000
0010
0000
0000
0100
0001
0010
0100
1000
0001
0010
0000
0000
,
0100
1000
0001
0100
0000
0000
0001
0010
0100
1000
0000
0000
0100
0010
0001
1000
0000
0000
0010
0000
0000
0100
0001
0010
,
0100
0000
0000
1000
0000
0000
0001
0100
0001
0100
0000
0000
0010
0000
0000
1000
0100
0010
0001
1000
0001
1000
0000
0000
,
0001
0100
0001
0100
0000
0000
0010
1000
0100
0010
0000
0000
0001
0100
0001
1000
0000
0000
0100
0000
0000
0010
0001
0100
,
0001
0000
0000
0100
0000
0000
0010
1000
0100
0010
0000
0000
0001
0000
0000
1000
0001
1000
0100
0000
0000
1000
0000
0000
,
0010
0100
0010
0100
0000
0000
0001
0010
0100
1000
0000
0000
0001
0100
0010
1000
0000
0000
0001
0000
0000
1000
0010
1000
,
0010
0000
0000
0100
0000
0000
0001
0010
0100
1000
0000
0000
0001
0000
0000
1000
0100
1000
0100
0000
0000
0010
0000
0000
,
0001
0100
0001
0100
0000
0000
0010
1000
0100
0010
0000
0000
0001
0100
0010
1000
0000
0000
0001
0000
0000
0010
0100
1000
,
0001
0000
0000
1000
0000
0000
0010
0100
0001
0100
0000
0000
0010
0000
0000
1000
0100
0010
0001
1000
0001
0100
0000
0000
,
0010
1000
0100
0010
0000
0000
0001
0100
0001
0100
0000
0000
0010
1000
0001
1000
0000
0000
0100
0000
0000
0010
0001
0100
,
0001
0000
0000
0010
0000
0000
0100
1000
0001
0010
0000
0000
0100
0000
0000
1000
0001
1000
0001
0000
0000
1000
0000
0000
,
0010
0000
0100
0000
0001
0000
0010
0000
0000
0000
0000
0000
0100
0000
1000
0000
0010
0000
0100
0000
0000
0010
0000
0000
0001
0000
0000
1000
0000
0000
0010
0000
0000
0100
0000
0000
0001
0000
0000
0010
0000
0000
0100
0000
0000
1000
0000
0000
,
0001
0100
0001
1000
0001
1000
0010
1000
0010
0100
0001
0010
0100
1000
0001
0100
,
0001
1000
0001
1000
0010
1000
0010
0100
0001
0010
0100
1000
0001
0100
0001
1000
,
0001
1000
0010
1000
0100
0010
0001
1000
0001
0100
0001
0010
0100
1000
0001
0100
,
0001
1000
0001
1000
0010
1000
0010
0100
0001
0010
0100
1000
0001
0100
0001
1000
,
0001
0000
0000
1000
0000
0000
0010
0000
0000
1000
0000
0000
0010
0000
0000
0100
0000
0000
0001
0000
0000
0100
0000
0000
0001
0000
0000
0100
0000
0000
0001
0000
1000
0000
0010
0000
1000
0000
0000
0001
0000
0000
0100
0000
0000
0001
0000
0000
,
1000
0010
0100
0001
0010
0100
1000
0001
0100
0001
0010
0001
0100
0001
1000
0100
,
1000
0000
0000
0010
0000
0000
1000
0000
0000
0001
0000
0000
1000
0000
0000
0100
0000
0000
0010
0000
0000
0001
0000
0000
1000
0000
0000
0001
0000
0000
1000
0000
0100
0000
1000
0000
0100
0000
0000
0010
0000
0000
0001
0000
0000
1000
0000
0000
,
0001
0000
1000
0000
0010
0000
0100
0000
0001
0000
0010
0000
0100
0000
1000
0000
0001
0000
0100
0000
0001
0000
1000
0000
0001
0000
0000
1000
0000
0000
0010
0000
0000
0100
0000
0000
0001
0000
0000
0010
0000
0000
0100
0000
0000
1000
0000
0000
,
0001
0100
0001
1000
0100
0010
0001
1000
0010
0100
0001
1000
0100
0010
0001
1000
,
0001
0100
0001
0010
0100
1000
0010
1000
0001
1000
0100
0010
0001
1000
0001
0100
,
0001
0010
0100
0010
0001
1000
0100
1000
0001
0100
0001
0010
0100
1000
0001
0100
,
0001
1000
0100
0010
0001
1000
0010
1000
0001
1000
0100
0010
0001
1000
0001
0100
,
0001
0010
0100
1000
0001
0100
0001
1000
0010
0100
0001
0010
0100
1000
0001
0100
,
0001
1000
0010
1000
0001
0100
0001
0010
2200
0000
0000
0000
0000
3300
0202
0000
,
0000
0000
0000
0303
2002
0000
0000
3003
0022
0033
1000
0000
0200
0000
0000
0000
,
0310
0000
0000
0000
0000
0000
0000
0000
0000
0000
0000
0000
0000
0000
0000
0000
0000
0000
0000
0000
0000
0000
0000
0000
0001
0000
0000
0000
0000
0000
0000
0000
0000
0000
0000
0000
0000
0000
0000
0000
0000
0000
0000
0000
0000
0000
0000
0000
0100
0000
0000
0000
0000
0000
0000
0000
0000
0000
0000
0000
0000
0000
0000
0000
0000
0000
0000
0000
0000
0000
0000
0000
0010
0000
0000
0000
0000
0000
0000
0000
1000
0000
0000
0000
0000
0000
0000
0000
0100
0000
0000
0000
0000
0000
0000
0000
0010
0000
0000
0000
0000
0000
0000
0000
0000
0001
0000
0000
0000
0000
0000
0000
0000
0000
1000
0000
0000
0000
0000
0000
0000
0000
0000
0010
0000
0000
0000
0000
0000
0000
0000
0000
0100
0000
0000
0000
0000
0000
0000
0000
0000
0010
0000
0000
0000
0000
0000
0000
0000
0000
1000
0000
0000
0000
0000
0000
0000
0000
0000
0100
0000
0000
0000
0000
0000
0000
0000
0000
0010
0000
0000
0000
0000
0000
0000
0000
0000
0001
0000
0000
0000
0000
0000
0000
0000
0000
1000
0000
0000
0000
0000
0000
,
0000
0001
0000
0000
1000
0000
0000
0001
0000
0000
0010
0000
0000
0100
0000
0000
1000
0000
0000
0001
0000
0000
1000
0000
0000
0010
0000
0000
0100
0000
0000
0010
0000
0000
1000
0000
0000
0100
0000
0000
0010
0000
0000
0001
0000
0000
1000
0000
0000
0001
0000
0000
0010
0000
0000
0100
0000
0000
1000
0000
0000
0001
0000
0000
,
1000
0000
0000
0001
0000
0000
0100
0000
0000
0001
0000
0000
0010
0000
0000
0100
0000
0000
1000
0000
0000
0001
0000
0000
1000
0000
0000
0010
0000
0000
0100
0000
0000
0001
0000
0000
1000
0000
0000
0001
0000
0000
1000
0000
0000
0100
0000
0000
0010
0000
0000
0001
0000
0000
1000
0000
0000
0001
0000
0000
0010
0000
0000
0100
,
0000
0000
1000
0000
0000
0001
0000
0000
1000
0000
0000
0010
0000
0000
0100
0000
0000
0001
0000
0000
0010
0000
0000
0100
0000
0000
1000
0000
0000
0001
0000
0000
1000
0000
0000
0001
0000
0000
0100
0000
0000
0001
0000
0000
0100
0000
0000
0010
0000
0000
1000
0000
0000
0100
0000
0000
0010
0000
0000
0001
0000
0000
0010
0000
,
0000
0100
0000
0000
1000
0000
0000
0001
0000
0000
1000
0000
0000
0001
0000
0000
0100
0000
0000
0001
0000
0000
0010
0000
0000
0100
0000
0000
1000
0000
0000
0010
0000
0000
0100
0000
0000
0010
0000
0000
0100
0000
0000
0001
0000
0000
0010
0000
0000
0001
0000
0000
1000
0000
0000
0100
0000
0000
1000
0000
0000
0001
0000
0000
,
1000
0000
0000
0010
0000
0000
0100
0000
0000
0010
0000
0000
1000
0000
0000
0100
0000
0000
0010
0000
0000
0001
0000
0000
1000
0000
0000
0001
0000
0000
0100
0000
0000
0001
0000
0000
0010
0000
0000
0100
0000
0000
1000
0000
0000
0001
0000
0000
1000
0000
0000
0010
0000
0000
0100
0000
0000
0001
0000
0000
1000
0000
0000
0001
,
0000
0000
1000
0000
0000
0010
0000
0000
0100
0000
0000
0001
0000
0000
0100
0000
0000
0010
0000
0000
1000
0000
0000
0100
0000
0000
0010
0000
0000
0001
0000
0000
1000
0000
0000
0001
0000
0000
1000
0000
0000
0001
0000
0000
1000
0000
0000
0100
0000
0000
0010
0000
0000
0001
0000
0000
1000
0000
0000
0001
0000
0000
0100
0000
,
0000
0001
0000
0000
0010
0000
0000
0100
0000
0000
1000
0000
0000
0001
0000
0000
0100
0000
0000
0001
0000
0000
0010
0000
0000
0100
0000
0000
1000
0000
0000
0010
0000
0000
1000
0000
0000
0100
0000
0000
0010
0000
0000
0100
0000
0000
1000
0000
0000
0001
0000
0000
0100
0000
0000
0001
0000
0000
0010
0000
0000
0001
0000
0000
,
1000
0000
0000
0000
0000
0000
0000
0000
0000
0001
0000
0000
0000
0000
0000
0000
0000
0000
1000
0000
0000
0000
0000
0000
0000
0000
0000
0010
0000
0000
0000
0000
0000
0000
0000
0000
0100
0000
0000
0000
0000
0000
0000
0000
0000
0001
0000
0000
0000
0000
0000
0000
0000
0000
1000
0000
0000
0000
0000
0000
0000
0000
0000
0010
0000
0000
0000
0000
0000
0000
0000
0000
0100
0000
0000
0000
0000
0000
0000
0000
0000
0001
0000
0000
0000
0000
0000
0000
0000
0000
0010
0000
0000
0000
0000
0000
0000
0000
0200
0000
0000
0000
0000
0000
0000
0000
0000
0000
0000
0000
0000
0000
0000
0000
0000
0000
0000
0000
0000
0000
0000
0000
0000
0000
0000
0000
0000
0000
0000
0000
0000
0000
0000
0000
0000
0000
0000
0000
0000
0000
0000
0000
0000
0000
1300
0000
0000
0000
0000
0000
0000
0000
0000
0001
0000
0000
0000
0000
0000
0000
0000
0000
1000
0000
0000
0000
0000
0000
0000
0000
0000
0001
0000
0000
0000
0000
0000
0000
0000
0000
0100
0000
0000
0000
0000
0000
0000
0000
0000
0001
0000
0000
,
0000
0000
0010
0000
0000
0100
0000
0000
0010
0000
0000
0001
0000
0000
1000
0000
0000
0001
0000
0000
1000
0000
0000
0001
0000
0000
0100
0000
0000
0001
0000
0000
0010
0000
0000
0100
0000
0000
1000
0000
0000
0001
0000
0000
1000
0000
0000
0010
0000
0000
0100
0000
0000
0001
0000
0000
1000
0000
0000
0001
0000
0000
1000
0000
,
0000
0010
0000
0000
0100
0000
0000
0010
0000
0000
0100
0000
0000
0001
0000
0000
0100
0000
0000
0001
0000
0000
0010
0000
0000
0001
0000
0000
1000
0000
0000
0100
0000
0000
1000
0000
0000
0001
0000
0000
0100
0000
0000
0001
0000
0000
1000
0000
0000
0010
0000
0000
1000
0000
0000
0001
0000
0000
0010
0000
0000
0001
0000
0000
,
1000
0000
0000
0100
0000
0000
0010
0000
0000
0001
0000
0000
1000
0000
0000
0001
0000
0000
0010
0000
0000
0100
0000
0000
1000
0000
0000
0001
0000
0000
1000
0000
0000
0010
0000
0000
0100
0000
0000
0001
0000
0000
1000
0000
0000
0001
0000
0000
1000
0000
0000
0010
0000
0000
0100
0000
0000
0010
0000
0000
1000
0000
0000
0001
,
0000
0000
1000
0000
0000
0100
0000
0000
0010
0000
0000
0001
0000
0000
1000
0000
0000
0001
0000
0000
1000
0000
0000
0001
0000
0000
1000
0000
0000
0001
0000
0000
0100
0000
0000
0001
0000
0000
0010
0000
0000
0100
0000
0000
1000
0000
0000
0010
0000
0000
1000
0000
0000
0001
0000
0000
1000
0000
0000
0100
0000
0000
0010
0000
,
0000
0001
0000
0000
1000
0000
0000
0001
0000
0000
0100
0000
0000
0010
0000
0000
1000
0000
0000
0001
0000
0000
1000
0000
0000
0100
0000
0000
0010
0000
0000
0001
0000
0000
1000
0000
0000
0001
0000
0000
0100
0000
0000
0001
0000
0000
0010
0000
0000
0100
0000
0000
1000
0000
0000
0001
0000
0000
1000
0000
0000
0001
0000
0000
,
0100
0000
0000
0001
0000
0000
0010
0000
0000
0100
0000
0000
1000
0000
0000
0010
0000
0000
0100
0000
0000
0001
0000
0000
1000
0000
0000
0001
0000
0000
1000
0000
0000
0010
0000
0000
0100
0000
0000
0001
0000
0000
0010
0000
0000
0100
0000
0000
1000
0000
0000
0001
0000
0000
1000
0000
0000
0001
0000
0000
1000
0000
0000
0010
,
0000
0000
0100
0000
0000
0001
0000
0000
0010
0000
0000
0100
0000
0000
1000
0000
0000
0001
0000
0000
1000
0000
0000
0001
0000
0000
1000
0000
0000
0010
0000
0000
0100
0000
0000
0000
0000
0000
0000
0000
0001
0000
0000
0000
0000
0000
0000
0000
0020
0000
0000
0000
0000
0000
0000
0000
0000
0000
0000
0000
0000
0000
0000
0000
,
0130
1000
0010
0100
0002
0000
0023
0000
,
0000
0130
1000
0010
0200
0000
0000
0302
,
0000
0000
0013
0100
2000
0000
0000
3002
,
0000
0000
0103
0010
2000
0000
0000
3200
,
0000
0000
0310
0001
0200
0302
0023
0230
,
2300
3002
2003
3020
0230
0302
0023
0230
,
2300
3002
2003
3020
0230
0302
0203
0320
,
2030
3200
0320
0230
2300
3002
0203
0302
,
2003
3020
0230
0302
2003
0000
3100
0020
,
0000
0031
0100
0010
2000
0000
0000
3200
,
0000
0000
0310
0001
0200
0000
0000
0320
,
0000
0000
1030
0100
0020
0000
0000
0032
,
0000
0000
0103
0010
2000
3002
0203
0302
,
0023
0230
2300
3002
0203
0302
2003
3020
,
0230
0302
0023
0230
2300
3002
0203
0302
,
2003
3020
0230
0302
0023
0230
2300
3002
,
0203
0000
0302
0000
2003
0000
3002
0000
1003
0100
0010
0001
1000
0001
0100
0001
,
0010
0100
1000
0001
0100
0001
1000
0010
1000
0010
0100
0001
0010
0100
1000
0001
,
0100
0001
1000
0100
1000
0010
0100
0001
0010
0100
1000
0001
0100
0001
1000
0010
,
1000
0010
0100
0001
0010
0100
1000
0001
0100
0001
1000
0100
0010
0001
1000
0001
,
0100
0001
0010
0100
1000
0001
0100
0001
1000
0010
1000
0010
0100
0001
0010
0100
,
1000
0001
1000
0001
1000
0010
1000
0010
0100
0001
0010
0100
1000
0001
0100
0001
,
1000
0001
1000
0010
1000
0010
0100
0001
0010
0100
1000
0001
0100
0001
1000
0001
,
1000
0010
0100
0001
0010
0100
1000
0001
0100
0001
0010
0001
0100
0001
1000
0010
,
1000
0010
0100
0001
0010
0100
1000
0001
0100
0001
1000
0001
1000
0010
0100
0001
,
0010
0100
1000
0001
0100
0001
1000
0010
1000
0010
0100
0001
0100
0001
0010
0100
,
1000
0001
0100
0001
1000
0001
1000
0010
0100
0001
0010
0001
0010
0100
1000
0001
,
0100
0001
1000
0001
1000
0010
0100
0001
0010
0100
1000
0001
0100
0001
0010
0001
,
0100
0000
0000
0000
0001
0000
0000
0000
1000
0000
0000
0000
0010
0000
0000
0000
1000
0000
0000
0000
0010
0000
0000
0000
0100
0000
0000
0000
0001
0000
0000
0000
1000
0000
0000
0001
0000
0000
1000
0000
0000
0010
0000
0000
0100
0000
0000
0001
0000
0000
1000
0000
0000
0001
0000
0000
0010
0000
0000
0100
0000
0000
1000
0000
,
0000
0001
0000
0000
1000
0000
0000
0010
0000
0000
0100
0000
0000
0001
0000
0000
1000
0000
0000
0100
0000
0000
0010
0000
0000
0001
0000
0000
1000
0000
0000
0001
0000
0000
0100
0000
0000
0001
0000
0000
0010
0000
0000
0100
0000
0000
1000
0000
0000
0001
0000
0000
1000
0000
0000
0010
0000
0000
0100
0000
0000
0001
0000
0000
,
1000
0000
0000
0001
0000
0000
0010
0000
0000
0100
0000
0000
1000
0000
0000
0001
0000
0000
1000
0000
0000
0010
0000
0000
0100
0000
0000
0001
0000
0000
1000
0000
0000
0100
0000
0000
0010
0000
0000
0001
0000
0000
1000
0000
0000
0001
0000
0000
0100
0000
0000
0001
0000
0000
0010
0000
0000
0100
0000
0000
1000
0000
0000
0001
,
0000
0000
1000
0000
0000
0001
0000
0000
1000
0000
0000
0010
0000
0000
0100
0000
0000
0001
0000
0000
1000
0000
0000
0100
0000
0000
0010
0000
0000
0100
0000
0000
1000
0000
0000
0001
0000
0000
0010
0000
0000
0100
0000
0000
1000
0000
0000
0001
0000
0000
1000
0000
0000
0001
0000
0000
0100
0000
0000
0001
0000
0000
0010
0000
,
0000
0000
0000
0100
0000
0000
0000
0000
0000
0000
0000
0000
1000
0000
0000
0000
0000
0000
0000
0000
0000
0001
0000
0000
0000
0000
0000
0000
0000
0000
1000
0000
0000
0000
0000
0000
0000
0000
0000
0010
0000
0000
0000
0000
0000
0000
0000
0000
0100
0000
0000
0000
0000
0000
0000
0000
0001
0000
0000
0000
0000
0000
0000
0000
0010
0000
0000
0000
0000
0000
0000
0000
0100
0000
0000
0000
0000
0000
0000
0000
1000
0000
0000
0000
0000
0000
0000
0000
0001
0000
0000
0000
0000
0000
0000
0000
2000
0000
0000
0000
0000
0000
0000
0000
0000
0000
0000
0000
0000
0000
0000
0000
0000
0000
0000
0000
0000
0000
0000
0000
0000
0000
0000
0000
0000
0000
0000
0000
0000
0000
0000
0000
0000
0000
0000
0000
0000
0000
0000
0000
0000
0000
0000
0000
3100
0000
0000
0000
0000
0000
0000
0000
0000
0000
0000
0000
0010
0000
0000
0000
0000
0000
0000
0000
0000
0000
0000
0000
0001
0000
0000
0000
0000
0000
0000
0000
0000
0000
0000
0000
1000
0000
0000
0000
0000
0000
0000
0000
0000
0000
0000
0000
,
0100
0010
0001
1000
0100
0010
0001
1000
0200
0000
0000
0000
0310
0001
1000
0010
,
0100
0001
1000
0010
0100
0001
1000
0010
0200
0000
0000
0000
0301
0010
0100
0010
,
0001
0010
0100
0010
0001
0010
0100
0010
0002
0000
0000
0000
1003
0100
0010
0100
,
1000
0100
0010
0100
1000
0100
0010
0100
2000
0000
0000
0000
3001
0100
0010
0100
,
0001
0100
0010
0100
0001
0100
0010
0100
0002
0000
0000
0000
1003
0010
0100
0010
,
1000
0010
0100
0010
1000
0010
0100
0010
2000
0000
0000
0000
3001
1000
0010
0100
,
0001
1000
0010
0100
0001
1000
0010
0100
0002
0000
0000
0000
0013
0100
1000
0001
,
0010
0100
1000
0001
0010
0100
1000
0001
0020
0000
0000
0000
0130
1000
0010
0100
,
0001
0010
0100
1000
0001
0100
0010
1000
0200
0000
0000
0000
0310
0001
0100
0001
,
0010
0001
0100
0001
0010
0001
0100
0001
0020
0000
0000
0000
0130
1000
0010
1000
,
0100
1000
0010
1000
0100
1000
0010
1000
0200
0000
0000
0000
0310
0001
1000
0100
,
0010
0001
1000
0100
0010
0001
1000
0100
0020
0000
0000
0000
0031
1000
0010
0100
,
0001
1000
0010
0100
0001
1000
0010
0100
0002
0000
0000
0000
0013
0100
1000
0100
,
0010
0100
1000
0100
0010
0100
1000
0100
0020
0000
0000
0000
0031
0100
0010
0100
,
0001
0100
0010
0100
0001
0100
0010
0100
0002
2003
3020
0230
0302
0203
0302
0023
,
0230
2300
3200
0320
0032
2003
3000
0000
0000
0000
0000
0000
0000
0000
0000
0000
;

//---------------dance-single - ----------------
#NOTES:
     dance-single:
     :
     Hard:
     22:
     1.000,1.000,0.039,1.000,1.000,4345.000,15.000,457.000,3.000,0.000:
0000
0000
0000
0000
0000
0000
0000
0000
2000
3001
1000
0010
0200
0301
0010
0100
,
2000
3100
0010
0001
2000
3001
0100
0001
0020
0130
1000
0001
0200
0301
0010
0001
,
2000
3100
1000
0001
2000
3010
0100
0001
0020
0130
0010
0001
0200
0301
0010
0001
,
2000
3001
0100
0001
2000
3100
1000
0001
0200
0301
0010
0100
2000
3010
0100
0001
,
2000
3100
1000
0001
0200
0301
0010
0100
2000
3001
0100
0001
0020
0130
1000
0001
,
2000
3010
0100
0001
2000
3100
0010
0100
2000
3001
0010
0100
0020
0031
1000
0001
,
0200
0301
0010
0100
2000
3001
0100
0001
2000
3010
1000
0100
0020
0031
0100
0001
,
0020
0130
1000
0001
2000
3001
0100
0010
0200
0301
0010
0100
2000
3010
1000
0001
,
2000
3100
0010
0001
0020
0130
1000
0001
2000
3100
0010
0001
2000
3001
1000
0010
,
0200
0301
0010
0100
2000
3100
0010
0001
0200
0310
1000
0100
0020
0031
1000
0001
,
0020
0130
1000
0010
0200
0301
0010
0100
2000
3001
1000
0010
2000
3001
0100
0010
,
2000
3100
1000
0010
0200
0301
0010
0100
2000
3001
1000
0100
0020
0031
1000
0001
,
0020
0000
0000
0130
0000
0000
1000
0000
0000
0001
0000
0000
0200
0000
0000
0301
0000
0000
0010
0000
0100
0000
0000
0000
2000
0000
0000
3001
0000
0000
1000
0000
0000
0010
0000
0000
0200
0000
0000
0301
0000
0000
0010
0000
0000
0100
0000
0000
,
2000
3001
1000
0100
0020
0031
1000
0010
0200
0301
0010
0100
2000
3001
1000
0100
,
0020
0031
0100
0001
2000
3100
1000
0010
0200
0301
0010
0100
2000
3001
1000
0100
,
0020
0000
0000
0031
0000
0000
1000
0000
0000
0001
0000
0000
0020
0000
0000
0130
0000
0000
1000
0000
0000
0010
0000
0000
0100
0000
0001
0000
0010
0000
0100
0000
1000
0000
0001
0000
1000
0000
0100
0000
0010
0000
0001
0000
1000
0000
0010
0000
,
1000
0100
0010
0001
0100
0001
0020
0000
0000
0230
0000
0000
0000
0000
0000
1300
0000
0000
1000
0000
0000
0001
0000
0000
,
0010
0000
0100
0000
2000
3000
0001
0000
1000
0000
0010
0000
0200
0300
0001
0000
,
0010
0000
0100
0000
2000
3000
0002
0003
1000
0000
0010
0000
0200
0300
0001
0000
,
0010
0000
0100
0000
2000
3000
0010
0000
0100
0000
0001
0000
2000
3000
0100
0000
,
0010
0000
0000
0000
0000
0000
0100
0000
0000
0000
0000
0000
2000
0000
0000
3000
0000
0000
0001
0000
1000
0000
0001
0000
1000
0000
0000
0000
0000
0000
1000
0000
0000
0000
0000
0000
0020
0000
0000
0030
0000
0000
0100
0000
0000
0000
0000
0000
,
0001
0000
0010
0000
0200
0300
1000
0000
0010
0000
0100
0000
0002
0003
1000
0000
,
0001
0000
1000
0000
0020
0030
0200
0300
0001
0000
0010
0000
0200
0300
1000
0000
,
0001
0000
1000
0000
0020
0030
0100
0000
0001
0000
0010
0000
0200
0300
1000
0000
,
0001
0000
0100
0000
0002
0003
1000
0000
0020
0130
0001
0010
0200
1300
0001
1000
,
0200
0310
0001
1000
0002
0103
0010
1000
0200
1300
0001
0010
0200
1300
0001
1000
,
0200
0310
0001
1000
0020
0130
0001
1000
0200
1300
0001
0010
0200
1300
0001
1000
,
0020
0130
0001
1000
0200
0310
0100
1000
0002
1003
0010
0100
0002
0013
0001
1000
,
0200
0310
0001
1000
0002
0013
0100
1000
0002
0103
0001
1000
0200
0310
0001
1000
,
0020
0130
0001
0010
0002
1003
0100
0010
0002
1003
0001
0010
0200
1300
0001
0100
,
0002
1003
0100
0010
0002
1003
0010
0100
0002
0013
0001
1000
0200
0310
0001
1000
,
0002
0013
0100
1000
0002
1003
0100
0010
0002
1003
0010
1000
0200
0310
0001
1000
,
0002
0000
0000
0013
0000
0000
0100
0000
0000
1000
0000
0000
0002
0000
0000
1003
0000
0000
0010
0000
0000
0100
0000
0000
0002
0000
0000
0013
0000
0000
0001
0000
0000
1000
0000
0000
0100
0000
1000
0000
0001
0000
0010
0000
0100
0000
1000
0000
,
0001
1000
0100
0010
0001
1000
0001
0010
0100
1000
0001
1000
0100
1000
0010
0100
0001
0010
0001
1000
0100
0010
0001
1000
,
0001
0010
0100
1000
0001
0100
0001
1000
0100
0010
0100
1000
0001
0010
0001
1000
0100
0010
0001
1000
0001
0010
0100
1000
,
0001
0100
0001
1000
0100
0010
0001
1000
0001
0010
0100
1000
0001
0100
0001
1000
0100
0010
0001
1000
0001
0010
0100
1000
,
0001
1000
0010
0100
0001
0010
0100
1000
0001
1000
0100
0010
0001
0100
0001
1000
0100
1000
0001
0010
0100
1000
0001
1000
,
0010
0100
0001
1000
0100
1000
0001
0010
0100
1000
0001
0100
0001
1000
0100
0010
0001
1000
0001
0010
0001
1000
0100
0010
,
0001
1000
0010
0100
0001
0010
0001
1000
0100
1000
0001
0010
0100
1000
0001
1000
0100
0010
0001
1000
0010
0100
0001
0010
,
0100
1000
0001
1000
0100
0010
0001
1000
0010
1000
0100
0010
0001
0100
0001
0010
0100
1000
0001
1000
0100
0010
0001
1000
,
0010
1000
0100
0010
0001
1000
0001
0010
0100
1000
0001
0100
0001
1000
0100
0010
0001
1000
0001
0010
0100
1000
0001
1000
,
0100
0010
0001
1000
0010
1000
0100
0010
0001
0100
0001
1000
0100
0010
0001
1000
0001
0010
0100
1000
0001
1000
0010
0100
,
0001
1000
0100
0010
0001
1000
0001
0010
0100
1000
0100
0010
0001
1000
0010
0100
0001
0010
0001
1000
0100
0010
0001
1000
,
0001
0010
0100
1000
0001
1000
0010
0100
0001
0010
0001
1000
0100
0010
0001
1000
0001
0010
0100
1000
0001
0100
0001
1000
,
0100
0010
0001
1000
0001
0010
0100
1000
0010
0100
0001
1000
0100
1000
0001
0010
0100
1000
0001
1000
0100
0010
0001
1000
,
0010
1000
0100
0010
0001
1000
0001
0010
0100
1000
0001
0100
0001
0010
0100
1000
0001
1000
0100
0010
0001
1000
0001
0010
,
0100
1000
0001
0100
0001
1000
0100
0010
0001
1000
0001
0010
0100
1000
0001
1000
0010
1000
0100
0010
0001
1000
0001
0010
,
0100
1000
0001
0100
0001
1000
0001
0000
0000
0101
0000
0000
1000
0001
1000
0001
0100
0001
0010
0100
1000
0001
1000
0001
,
1000
0010
1000
0010
0100
0001
1000
0001
1000
0001
0100
0001
0010
0000
0000
0100
0000
0000
1000
0000
0000
0200
0000
0000
,
0000
0000
0000
0000
0000
0310
0010
0020
,
0000
0000
0000
0000
0000
0031
0001
0002
,
0000
0000
0000
0000
0000
1003
1000
2000
,
0000
0000
0000
0000
0000
3010
0010
0020
,
0000
0000
0000
0000
0000
0130
0100
0200
,
0000
0000
0000
0000
0000
0301
0001
0002
,
0000
0000
0000
0000
0000
0013
0010
0020
,
0000
0000
0000
0000
0000
0130
0100
0200
,
0000
0000
0000
0000
0000
1300
1000
2000
,
0000
0000
0000
0000
0000
0000
0000
0000
3140
0030
0140
0030
0140
0030
0020
0000
,
0000
0000
0000
0000
0000
0000
0000
0000
0431
0300
0401
0300
0401
0300
0200
0000
,
0000
0000
0000
0000
0000
0000
0000
0000
0314
0003
0001
0000
0001
0000
0002
0000
,
0000
0000
0000
0000
00M0
0013
0010
0020
,
0000
0000
0000
0000
0M00
0130
0100
0200
,
0000
0000
0000
0000
M000
1300
1000
2000
,
0000
0000
0000
0000
0000
0000
0000
0000
3004
0003
0004
0003
1000
0000
0100
0000
0020
0000
0031
0000
1000
0000
0001
0000
0020
0000
0130
0000
1000
0000
0001
0000
,
2000
3100
0010
0001
0200
0310
1000
0001
0020
0130
1000
0001
2000
3100
0010
0001
,
0200
0310
1000
0001
0020
0130
1000
0001
2000
3100
0010
0001
2000
3100
1000
0001
,
0020
0130
0010
0001
2000
3001
0010
0100
2000
3100
0010
0001
0200
0310
1000
0001
,
0020
0130
1000
0001
2000
3100
0010
0001
0200
0310
1000
0001
0020
0130
1000
0001
,
2000
3100
0010
0001
2000
3100
1000
0001
0020
0031
1000
0100
0020
0031
1000
0001
,
0020
0130
1000
0010
2000
3001
0010
0100
2000
3001
1000
0100
0020
0031
0100
0010
,
2000
3001
0010
0100
2000
3001
1000
0100
0020
0031
1000
0100
2000
3010
0100
0001
,
2000
3100
0010
0001
2000
3001
0010
0100
2000
3010
0100
0001
0020
0130
2000
3001
,
1000
0010
0200
0301
0020
0130
2000
3010
0200
0301
0010
0100
1000
0001
2000
3001
,
1000
0010
0100
0001
0020
0130
1000
0001
2000
3010
0100
0001
0010
0100
2000
3100
,
0010
0001
1000
0001
2000
3010
0200
0301
0020
0130
1000
0001
0100
0001
0020
0130
,
1000
0001
0100
0001
0020
0130
2000
3001
2000
3010
0100
0001
0020
0130
2000
3001
,
0100
0001
0020
0130
2000
3001
0200
0301
0020
0130
1000
0001
0100
0001
0020
0130
,
1000
0001
0100
0001
2000
3010
0200
0301
0020
0130
1000
0001
0100
0001
0020
0130
,
1000
0001
0100
0001
0020
0031
2000
3010
0200
0301
0010
0100
1000
0001
2000
3010
,
0100
0000
0000
0001
0000
0000
0010
0000
0000
0100
0000
0000
1000
0000
0000
0001
0000
0000
0100
0000
0000
0001
0000
0000
0010
0000
0100
0000
1000
0000
0001
0000
1000
0000
0100
0000
0010
0000
0001
0000
1000
0000
0010
0000
0100
0000
0001
0000
,
0010
0001
1000
0100
0010
0001
1000
0001
0010
0100
1000
0001
1000
0100
0010
0001
1000
0010
1000
0100
0010
0001
1000
0001
,
0010
0100
1000
0001
1000
0100
0010
0001
1000
0001
0010
0100
1000
0001
0100
0001
1000
0100
0010
0001
1000
0010
1000
0100
,
0010
0001
1000
0001
0010
0100
1000
0001
0100
0001
1000
0100
0010
0001
1000
0001
0010
0100
1000
0010
0100
0001
1000
0100
,
1000
0001
0010
0100
1000
0001
1000
0100
0010
0001
1000
0010
0100
0001
0010
0001
1000
0100
0010
0001
1000
0100
1000
0001
,
0010
0100
1000
0001
1000
0100
0010
0001
1000
0010
0100
0001
0010
0001
1000
0001
0100
0001
1000
0100
1000
0010
0100
0001
,
0010
0100
1000
0001
1000
0100
0010
0100
1000
0001
0010
0001
1000
0100
0010
0001
1000
0001
0010
0001
1000
0001
0010
0100
,
1000
0001
1000
0100
0010
0001
1000
0010
0100
0001
0010
0001
1000
0100
0010
0001
1000
0001
0010
0100
1000
0001
0100
0001
,
0010
0100
1000
0001
0100
0010
1000
0100
1000
0001
0010
0001
1000
0010
0100
0001
0010
0001
1000
0100
0010
0001
1000
0001
,
0010
0100
1000
0001
1000
0100
0010
0001
1000
0001
0010
0100
1000
0010
0100
0001
1000
0100
1000
0001
0010
0100
1000
0001
,
1000
0100
0010
0001
1000
0010
1000
0100
0010
0001
1000
0001
0010
0100
1000
0001
0100
0001
1000
0100
0010
0001
1000
0010
,
1000
0100
0010
0001
0100
0001
0010
0100
1000
0001
1000
0100
0010
0001
1000
0010
0100
0001
0010
0001
1000
0100
0010
0001
,
1000
0001
0010
0100
1000
0001
0100
0001
1000
0100
0010
0001
1000
0001
0010
0100
1000
0010
0100
0001
0010
0001
1000
0001
,
0100
0001
0010
0100
1000
0010
0100
0010
1000
0100
0010
0001
1000
0001
0010
0100
1000
0001
0100
0001
0010
0100
1000
0001
,
1000
0100
0010
0001
1000
0010
0100
0001
0010
0001
1000
0100
0010
0001
1000
0001
0010
0100
1000
0010
0100
0001
0010
0001
,
1000
0100
0010
0001
1000
0001
0010
0100
1000
0001
1000
0100
0010
0001
1000
0010
0100
0001
0010
0001
1000
0100
0010
0001
,
1000
0000
0000
0000
0000
0000
0000
0000
0001
0000
0000
0000
0000
0000
0000
0000
0010
0000
0000
0000
0000
0000
0000
0000
0100
0000
0000
0000
0000
0000
0000
0000
1000
0000
0000
0000
0000
0000
0000
0000
0001
0000
0000
0000
0000
0000
0000
0000
1000
0000
0000
0000
0000
0000
0000
0000
0010
0000
0000
0000
0000
0000
0000
0000
1000
0000
0000
0000
0000
0000
0000
0000
0002
0000
0000
0000
0000
0000
0003
0000
0000
0000
0000
0000
0002
0000
0000
0000
0000
0000
0003
0000
0000
0000
0000
0000
0020
0000
0000
0000
0000
0000
0000
0000
0000
0000
0000
0000
0000
0000
0000
0000
0000
0000
0000
0000
0000
0000
0000
0000
0000
0000
0000
0000
0000
0000
0000
0000
0000
0000
0000
0000
0000
0000
0000
0000
0000
0000
0000
0000
0000
0000
0000
0000
0130
0000
0000
0000
0000
0000
0000
0000
0000
0000
0000
0000
1000
0000
0000
0000
0000
0000
0000
0000
0000
0000
0000
0000
0001
0000
0000
0000
0000
0000
0000
0000
0000
0000
0000
0000
1000
0000
0000
0000
0000
0000
0000
0000
0000
0000
0000
0000
,
0100
0010
0001
1000
0010
0100
0001
0010
0001
1000
0100
0010
0001
1000
0001
0010
,
0100
1000
0010
0100
0001
1000
0100
1000
0001
0010
0100
1000
0001
0100
0010
1000
,
0010
0100
0001
0010
0100
1000
0001
1000
0100
0010
0001
1000
0010
1000
0100
0010
,
0001
0100
0001
0010
0001
1000
0100
0010
0001
1000
0001
0010
0100
1000
0001
0100
,
0001
0000
0000
1000
0000
0000
0100
0000
0000
0010
0000
0000
0001
0000
0000
1000
0000
0000
0001
0000
0000
0010
0000
0000
0100
0000
0000
1000
0000
0000
0001
0000
1000
0000
0010
0000
0100
0000
0000
0001
0000
0000
0010
0000
0000
0100
0000
0000
,
1000
0001
1000
0100
0010
0001
1000
0010
0100
0001
0010
0001
1000
0100
0010
0001
,
1000
0000
0000
0001
0000
0000
0010
0000
0000
0100
0000
0000
1000
0000
0000
0001
0000
0000
0100
0000
0000
0010
0000
0000
1000
0000
0000
0100
0000
0000
0010
0000
0001
0000
1000
0000
0010
0000
0000
0100
0000
0000
0001
0000
0000
0010
0000
0000
,
0100
0000
1000
0000
0001
0000
1000
0000
0100
0000
0010
0000
0001
0000
1000
0000
0010
0000
0100
0000
0001
0000
0010
0000
0100
0000
0000
1000
0000
0000
0001
0000
0000
1000
0000
0000
0100
0000
0000
0010
0000
0000
0001
0000
0000
1000
0000
0000
,
0010
0100
0001
0010
0001
1000
0100
0010
0001
1000
0001
0010
0100
1000
0001
0100
,
0001
1000
0100
0010
0100
1000
0001
0010
0100
1000
0001
1000
0100
0010
0001
1000
,
0010
0100
0001
0010
0001
1000
0100
0010
0001
1000
0001
0010
0100
1000
0001
0100
,
0001
0010
0100
1000
0001
1000
0100
0010
0001
1000
0010
1000
0100
0010
0001
0100
,
0001
1000
0100
0010
0001
1000
0001
0010
0100
1000
0010
0100
0001
0010
0001
1000
,
0100
0010
0001
1000
0010
1000
0100
0010
0202
0303
0000
0000
0000
0000
2200
3300
,
0000
0000
0000
0000
0022
0033
0000
0000
0101
0000
0011
0000
2002
3003
0000
0000
,
1010
0000
1001
0000
2200
3300
0010
0001
1000
0001
1000
0100
0010
0001
1000
0010
,
0100
0001
0010
0001
1000
0100
0010
0001
1000
0010
1000
0100
0010
0001
1000
0001
,
0010
0100
1000
0001
0100
0001
1000
0100
0010
0001
1000
0001
0010
0100
1000
0010
,
0100
0001
0010
0001
1000
0100
0010
0001
1000
0001
0010
0100
1000
0001
1000
0100
,
1000
0010
0100
0001
0010
0001
1000
0100
0010
0001
1000
0010
0100
0001
0010
0001
,
1000
0100
0010
0001
1000
0001
0010
0100
1000
0010
0100
0001
0010
0001
1000
0100
,
1000
0010
0100
0001
0010
0001
1000
0001
0100
0010
1000
0100
0010
0001
1000
0001
,
0010
0100
1000
0001
1000
0100
0010
0001
1000
0010
0100
0001
0010
0001
1000
0100
,
0010
0001
1000
0001
0010
0100
1000
0010
0100
0001
0100
0010
1000
0100
0010
0001
,
1000
0001
0010
0100
1000
0010
0100
0001
0010
0001
1000
0100
0010
0001
1000
0001
,
0010
0100
1000
0010
0100
0001
1000
0100
1000
0010
0100
0001
0010
0001
1000
0100
,
0010
0001
1000
0001
0010
0100
1000
0001
0100
0010
1000
0100
0010
0001
1000
0001
,
0010
0100
1000
0010
0100
0001
0010
0001
1000
0100
1000
0010
0100
0001
0010
0100
,
1000
0001
1000
0100
0010
0001
1000
0001
0100
0001
0010
0100
1000
0001
1000
0010
,
0100
0001
0010
0001
1000
0100
0010
0001
1000
0001
0010
0100
1000
0010
0100
0001
,
0010
0000
0000
0001
0000
0000
1000
0000
0000
0100
0000
0000
0010
0000
0000
0001
0000
0000
1000
0000
0000
0001
0000
0000
0010
0000
0000
0100
0000
0000
1000
0000
0010
0000
1000
0000
0020
0000
0000
0000
0000
0000
0000
0000
0000
0000
0000
0000
,
0230
0302
0023
0230
2300
3001
0200
0310
,
1000
0200
0320
0032
2003
3000
0001
2000
,
3010
0100
0002
0023
0230
1300
0001
2000
,
3010
0100
0002
0023
0032
1003
0100
2000
,
3010
0100
0002
0023
0230
2300
3002
2003
,
3020
0230
0302
0023
0230
2300
3002
2003
,
3200
0320
0032
2003
3020
2030
3200
0320
,
0032
0203
0302
2003
3200
0320
0032
2003
,
3002
0023
0230
2300
3002
1003
0020
0230
,
0301
0020
0230
2300
3002
1003
0010
0200
,
0301
0010
0200
2300
3200
0310
0001
2000
,
3010
0100
0002
0023
0230
1300
0001
2000
,
3100
0010
0002
2003
3020
0130
0002
0023
,
0130
2000
3200
0320
0032
1003
0010
0200
,
0301
0010
0200
2300
3020
0130
0001
0020
,
0130
1000
0002
0203
0320
1030
0100
0020
,
0031
0000
0000
0000
0000
0000
0000
0000
1000
0000
0000
0000
0000
0000
0000
0000
0002
0000
0000
0000
0000
0000
0000
0000
0103
0000
0000
0000
0000
0000
0000
0000
0010
0000
0000
1000
0000
0000
0100
0000
0000
0010
0000
0000
0001
0000
0000
1000
0000
0000
0001
0000
0000
0100
0000
0000
0010
0000
0000
1000
0000
0000
0100
0000
,
0000
0010
0000
0000
0001
0000
0000
1000
0000
0000
0001
0000
0000
0010
0000
0000
0100
0000
0000
1000
0000
0000
0001
0000
0000
0100
0000
0000
0001
0000
0000
1000
0000
0000
0100
0000
0000
0010
0000
0000
0001
0000
0000
1000
0000
0000
0001
0000
0000
0010
0000
0000
0100
0000
0000
1000
0000
0000
0001
0000
0000
0100
0000
0000
,
0001
0000
0000
0010
0000
0000
0100
0000
0000
1000
0000
0000
0001
0000
0000
1000
0000
0000
0010
0000
0000
0100
0000
0000
0001
0000
0000
0010
0000
0000
0100
0000
0000
0010
0000
0000
0001
0000
0000
1000
0000
0000
0001
0000
0000
0010
0000
0000
0100
0000
0000
1000
0000
0000
0001
0000
0000
0100
0000
0000
0001
0000
0000
0010
,
0000
0000
0100
0000
0000
1000
0000
0000
0001
0000
0000
1000
0000
0000
0010
0000
0000
0100
0000
0000
0001
0000
0000
0010
0000
0000
0100
0000
0000
1000
0000
0000
0001
0000
0000
1000
0000
0000
0010
0000
0000
0100
0000
0000
0001
0000
0000
1000
0000
0000
0100
0000
0000
0010
0000
0000
0001
0000
0000
1000
0000
0000
0001
0000
,
0000
0010
0000
0000
0100
0000
0000
1000
0000
0000
0001
0000
0000
1000
0000
0000
0010
0000
0000
0100
0000
0000
0001
0000
0000
1000
0000
0000
0100
0000
0000
1000
0000
0000
0001
0000
0000
0010
0000
0000
0100
0000
0000
1000
0000
0000
0001
0000
0000
1000
0000
0000
0010
0000
0000
0100
0000
0000
0001
0000
0000
0010
0000
0000
,
0100
0000
0000
0010
0000
0000
0001
0000
0000
1000
0000
0000
0001
0000
0000
0010
0000
0000
0100
0000
0000
1000
0000
0000
0001
0000
0000
1000
0000
0000
0100
0000
0000
0010
0000
0000
0001
0000
0000
1000
0000
0000
0010
0000
0000
0100
0000
0000
0001
0000
0000
0010
0000
0000
0100
0000
0000
1000
0000
0000
0001
0000
0000
1000
,
0000
0000
0100
0000
0000
0010
0000
0000
0001
0000
0000
1000
0000
0000
0010
0000
0000
0100
0000
0000
0001
0000
0000
1000
0000
0000
0100
0000
0000
0010
0000
0000
0001
0000
0000
1000
0000
0000
0001
0000
0000
0100
0000
0000
0010
0000
0000
1000
0000
0000
0100
0000
0000
0010
0000
0000
0001
0000
0000
1000
0000
0000
0001
0000
,
0000
0010
0000
0000
0100
0000
0000
1000
0000
0000
0001
0000
0000
0100
0000
0000
0001
0000
0000
0010
0000
0000
0100
0000
0000
1000
0000
0000
0001
0000
0000
1000
0000
0000
0100
0000
0000
0010
0000
0000
0001
0000
0000
1000
0000
0000
0010
0000
0000
0100
0000
0000
0001
0000
0000
0010
0000
0000
0100
0000
0000
1000
0000
0000
,
0001
0000
0000
1000
0000
0000
0010
0000
0000
0100
0000
0000
0001
0000
0000
0010
0000
0000
0100
0000
0000
1000
0000
0000
0001
0000
0000
1000
0000
0000
0100
0000
0000
0010
0000
0000
0001
0000
0000
1000
0000
0000
0001
0000
0000
0010
0000
0000
0100
0000
0000
1000
0000
0000
0001
0000
0000
0100
0000
0000
0001
0000
0000
1000
,
0000
0000
0010
0000
0000
0100
0000
0000
0001
0000
0000
1000
0000
0000
0100
0000
0000
0010
0000
0000
0001
0000
0000
1000
0000
0000
0001
0000
0000
0010
0000
0000
0100
0000
0000
1000
0000
0000
0001
0000
0000
0100
0000
0000
0001
0000
0000
0010
0000
0000
0100
0000
0000
1000
0000
0000
0001
0000
0000
1000
0000
0000
0100
0000
,
0000
0010
0000
0000
0001
0000
0000
1000
0000
0000
0010
0000
0000
0100
0000
0000
0001
0000
0000
1000
0000
0000
0100
0000
0000
0010
0000
0000
0001
0000
0000
1000
0000
0000
0001
0000
0000
0010
0000
0000
0100
0000
0000
1000
0000
0000
0001
0000
0000
0100
0000
0000
0001
0000
0000
0010
0000
0000
0100
0000
0000
1000
0000
0000
,
0001
0000
0000
1000
0000
0000
0100
0000
0000
0010
0000
0000
0100
0000
0000
1000
0000
0000
0001
0000
0000
1000
0000
0000
0010
0000
0000
0100
0000
0000
0001
0000
0000
1000
0000
0000
0100
0000
0000
1000
0000
0000
0001
0000
0000
0010
0000
0000
0100
0000
0000
1000
0000
0000
0001
0000
0000
0100
0000
0000
0001
0000
0000
1000
,
0000
0000
0010
0000
0000
0100
0000
0000
0001
0000
0000
1000
0000
0000
0001
0000
0000
0010
0000
0000
0100
0000
0000
1000
0000
0000
0001
0000
0000
1000
0000
0000
0100
0000
0000
0010
0000
0000
0001
0000
0000
1000
0000
0000
0001
0000
0000
0010
0000
0000
0100
0000
0000
1000
0000
0000
0001
0000
0000
1000
0000
0000
0100
0000
,
0000
0010
0000
0000
0001
0000
0000
1000
0000
0000
0001
0000
0000
0100
0000
0000
0010
0000
0000
1000
0000
0000
0100
0000
0000
0010
0000
0000
0001
0000
0000
1000
0000
0000
0001
0000
0000
0010
0000
0000
0100
0000
0000
1000
0000
0000
0001
0000
0000
0100
0000
0000
0001
0000
0000
1000
0000
0000
0100
0000
0000
0010
0000
0000
,
0001
0000
0000
1000
0000
0000
0001
0000
0000
0010
0000
0000
0100
0000
0000
1000
0000
0000
0001
0000
0000
0100
0000
0000
0010
0000
0000
1000
0000
0000
0100
0000
0000
0010
0000
0000
0001
0000
0000
1000
0000
0000
0001
0000
0000
0010
0000
0000
0100
0000
0000
1000
0000
0000
0001
0000
0000
0100
0000
0000
0001
0000
0000
1000
,
0000
0000
0100
0000
0000
0010
0000
0000
0001
0000
0000
1000
0000
0000
0001
0000
0000
0010
0000
0000
0100
0000
0000
1000
0000
0000
0001
0000
0000
0100
0000
0000
0010
0000
0000
1000
0000
0000
0100
0000
0000
0010
0000
0000
0100
0000
0000
1000
0000
0000
0001
0000
0000
1000
0000
0000
0001
0000
0000
0010
0000
0000
0100
0000
,
0000
0000
0000
1000
0000
0000
0000
0000
0000
0000
0000
0000
0001
0000
0000
0000
0000
0000
0000
0000
0000
1000
0000
0000
0000
0000
0000
0000
0000
0000
0010
0000
0000
0000
0000
0000
0000
0000
0000
0100
0000
0000
0000
0000
0000
0000
0000
0000
0001
0000
0000
0000
0000
0000
0000
0000
1000
0000
0000
0000
0000
0000
0000
0000
0100
0000
0000
0000
0000
0000
0000
0000
0010
0000
0000
0000
0000
0000
0000
0000
0001
0000
0000
0000
0000
0000
0000
0000
0010
0000
0000
0000
0000
0000
0000
0000
0200
0000
0000
0000
0000
0000
0000
0000
0000
0000
0000
0000
0000
0000
0000
0000
0000
0000
0000
0000
0000
0000
0000
0000
1300
0000
0000
0000
0000
0000
0000
0000
0000
0000
0000
0000
0000
0000
0000
0000
0000
0000
0000
0000
0000
0000
0000
0000
1000
0000
0000
0000
0000
0000
0000
0000
0000
0000
0000
0000
0000
0000
0000
0000
0000
0000
0000
0000
0000
0000
0000
0000
0200
0000
0000
0000
0000
0000
0000
0000
0000
0000
0000
0000
0000
0000
0000
0000
0000
0000
0000
0000
0000
0000
0000
0000
,
0000
0000
0000
0000
0000
1300
0001
2000
,
0000
0000
0000
0000
0000
3010
0010
0020
,
0000
0000
0000
0000
0000
0130
0100
0200
,
0000
0000
0000
0000
0000
0301
0001
0002
,
0000
0000
0000
0000
0000
0103
0100
0200
,
0000
0000
0000
0000
0000
0000
0000
0000
0340
0030
0010
0000
0010
0000
0020
0000
,
0000
0000
0000
0000
0000
0000
0000
0000
4030
3000
1000
0000
1000
0000
2000
0000
,
0000
0000
0000
0000
0000
0000
0000
0000
3004
0003
0001
0000
0001
0000
0002
0000
,
0000
0000
0000
0000
0000
0000
0000
0000
0403
0300
0100
0000
0100
0000
0200
0000
,
0000
0000
0000
0000
0000
0000
0000
0000
0304
0003
0004
0003
0004
0003
0002
0000
,
0000
0000
0000
0000
0000
0000
0000
0000
4003
3000
4000
3000
4000
3000
2000
0000
,
0000
0000
0000
0000
0000
0000
0000
0000
3040
0030
0010
0000
0010
0000
0020
0000
,
0000
0000
0000
0000
0000
0130
0100
0200
,
0000
0000
0000
0000
0000
0301
0001
0002
,
0000
0000
0000
0000
0000
0013
0010
0020
,
0000
0000
0000
0000
0130
1000
0001
0010
0200
0000
0000
0000
1300
0001
0010
0100
,
1000
0100
1000
0001
0100
0001
1000
0010
0100
0001
0010
0100
1000
0001
1000
0010
,
0100
0001
0010
0100
1000
0001
1000
0100
0010
0001
1000
0010
1000
0100
0010
0001
,
1000
0001
0100
0010
1000
0100
0010
0001
1000
0001
0100
0001
0010
0100
1000
0001
,
1000
0010
0100
0001
0010
0100
1000
0001
1000
0100
0010
0001
1000
0010
0100
0001
,
0010
0001
1000
0100
0010
0001
1000
0001
0010
0100
1000
0010
0100
0001
1000
0100
,
0010
0001
1000
0001
0010
0100
1000
0001
0100
0010
1000
0100
0010
0001
1000
0001
,
0010
0100
1000
0001
0100
0001
0010
0100
1000
0001
1000
0100
0010
0001
1000
0100
,
1000
0001
0010
0100
1000
0001
0100
0001
4000
3010
0100
0001
0010
0100
1000
0001
,
1000
0100
0010
0001
1000
0010
0100
0001
0010
0001
1000
0100
0010
0001
1000
0001
,
0010
0100
1000
0001
0100
0001
1000
0100
0010
0001
1000
0001
0010
0100
1000
0010
,
0100
0001
0010
0001
1000
0100
0010
0001
1000
0001
0010
0100
1000
0001
0100
0001
,
0010
0100
1000
0001
1000
0100
0010
0001
1000
0010
0100
0001
0010
0001
1000
0100
,
0010
0001
1000
0001
0010
0100
1000
0001
0100
0001
0010
0100
1000
0001
1000
0100
,
0010
0001
1000
0010
0100
0001
0010
0001
1000
0100
0010
0001
1000
0001
0010
0100
,
1000
0001
0100
0001
1000
0100
0010
0001
1000
0001
0010
0100
1000
0001
0100
0001
,
0010
0000
0000
0000
0100
0000
0000
0000
1000
0000
0000
0000
0001
0000
0000
0000
1000
0000
0000
0000
0010
0000
0000
0000
1000
0000
0000
0000
0100
0000
0000
0000
0010
0000
0000
0001
0000
0000
1000
0000
0000
0001
0000
0000
0100
0000
0000
0010
0000
0000
1000
0000
0000
0100
0000
0000
1000
0000
0000
0001
0000
0000
0010
0000
,
0000
0100
0000
0000
1000
0000
0000
0001
0000
0000
1000
0000
0000
0100
0000
0000
0010
0000
0000
0001
0000
0000
1000
0000
0000
0010
0000
0000
1000
0000
0000
0100
0000
0000
0010
0000
0000
0001
0000
0000
1000
0000
0000
0001
0000
0000
0010
0000
0000
0100
0000
0000
1000
0000
0000
0001
0000
0000
1000
0000
0000
0010
0000
0000
,
0100
0000
0000
0001
0000
0000
1000
0000
0000
0001
0000
0000
0010
0000
0000
0100
0000
0000
1000
0000
0000
0001
0000
0000
1000
0000
0000
0100
0000
0000
0010
0000
0000
0001
0000
0000
1000
0000
0000
0001
0000
0000
0010
0000
0000
0100
0000
0000
1000
0000
0000
0001
0000
0000
0100
0000
0000
0001
0000
0000
1000
0000
0000
0100
,
0000
0000
0010
0000
0000
0001
0000
0000
1000
0000
0000
0001
0000
0000
0010
0000
0000
0100
0000
0000
1000
0000
0000
0001
0000
0000
0100
0000
0000
0001
0000
0000
0010
0000
0000
0100
0000
0000
1000
0000
0000
0001
0000
0000
1000
0000
0000
0010
0000
0000
0100
0000
0000
0001
0000
0000
0010
0000
0000
0001
0000
0000
1000
0000
,
0000
0100
0000
0000
0010
0000
0000
0001
0000
0000
1000
0000
0000
0001
0000
0000
0010
0000
0000
0100
0000
0000
1000
0000
0000
0001
0000
0000
1000
0000
0000
0100
0000
0000
0010
0000
0000
0001
0000
0000
1000
0000
0000
0001
0000
0000
0010
0000
0000
0100
0000
0000
1000
0000
0000
0001
0000
0000
1000
0000
0000
0100
0000
0000
,
0010
0000
0000
0001
0000
0000
1000
0000
0000
0001
0000
0000
0100
0000
0000
0010
0000
0000
1000
0000
0000
0100
0000
0000
0010
0000
0000
0001
0000
0000
1000
0000
0000
0001
0000
0000
0010
0000
0000
0100
0000
0000
1000
0000
0000
0001
0000
0000
0100
0000
0000
0001
0000
0000
1000
0000
0000
0100
0000
0000
0010
0000
0000
0001
,
0000
0000
1000
0000
0000
0001
0000
0000
0010
0000
0000
0100
0000
0000
1000
0000
0000
0001
0000
0000
1000
0000
0000
0100
0000
0000
0010
0000
0000
0001
0000
0000
1000
0000
0000
0001
0000
0000
0010
0000
0000
0100
0000
0000
1000
0000
0000
0001
0000
0000
0100
0000
0000
0001
0000
0000
1000
0000
0000
0100
0000
0000
0010
0000
,
0000
0100
0000
0000
1000
0000
0000
0001
0000
0000
1000
0000
0000
0010
0000
0000
0100
0000
0000
0001
0000
0000
1000
0000
0000
0100
0000
0000
0010
0000
0000
0001
0000
0000
1000
0000
0000
0001
0000
0000
0010
0000
0000
0100
0000
0000
1000
0000
0000
0001
0000
0000
1000
0000
0000
0100
0000
0000
0010
0000
0000
0001
0000
0000
,
1000
0000
0000
0001
0000
0000
0100
0000
0000
0010
0000
0000
1000
0000
0000
0100
0000
0000
0010
0000
0000
0001
0000
0000
1000
0000
0000
0001
0000
0000
0010
0000
0000
0100
0000
0000
1000
0000
0000
0001
0000
0000
1000
0000
0000
0100
0000
0000
0010
0000
0000
0001
0000
0000
1000
0000
0000
0010
0000
0000
0100
0000
0000
0001
,
0000
0000
0010
0000
0000
0001
0000
0000
1000
0000
0000
0100
0000
0000
0010
0000
0000
0001
0000
0000
1000
0000
0000
0001
0000
0000
0010
0000
0000
0100
0000
0000
1000
0000
0000
0010
0000
0000
0100
0000
0000
0001
0000
0000
1000
0000
0000
0100
0000
0000
0010
0000
0000
0001
0000
0000
1000
0000
0000
0001
0000
0000
0010
0000
,
0000
0100
0000
0000
1000
0000
0000
0001
0000
0000
1000
0000
0000
0010
0000
0000
0100
0000
0000
0001
0000
0000
0100
0000
0000
0010
0000
0000
1000
0000
0000
0100
0000
0000
0010
0000
0000
0001
0000
0000
1000
0000
0000
0001
0000
0000
0010
0000
0000
0100
0000
0000
1000
0000
0000
0001
0000
0000
1000
0000
0000
0010
0000
0000
,
0100
0000
0000
0001
0000
0000
1000
0000
0000
0100
0000
0000
0010
0000
0000
0001
0000
0000
1000
0000
0000
0001
0000
0000
0010
0000
0000
0100
0000
0000
1000
0000
0000
0001
0000
0000
0100
0000
0000
0001
0000
0000
1000
0000
0000
0100
0000
0000
0010
0000
0000
0001
0000
0000
1000
0000
0000
0001
0000
0000
0010
0000
0000
0100
,
0000
0000
1000
0000
0000
0001
0000
0000
1000
0000
0000
0100
0000
0000
0010
0000
0000
0001
0000
0000
1000
0000
0000
0001
0000
0000
0100
0000
0000
0010
0000
0000
1000
0000
0000
0100
0000
0000
0010
0000
0000
0001
0000
0000
1000
0000
0000
0001
0000
0000
0010
0000
0000
0100
0000
0000
1000
0000
0000
0001
0000
0000
1000
0000
,
0000
0010
0000
0000
0100
0000
0000
0001
0000
0000
0010
0000
0000
0100
0000
0000
1000
0000
0000
0001
0000
0000
1000
0000
0000
0001
0000
0000
0100
0000
0000
0010
0000
0000
1000
0000
0000
0100
0000
0000
0010
0000
0000
0001
0000
0000
1000
0000
0000
0001
0000
0000
0100
0000
0000
0010
0000
0000
1000
0000
0000
0100
0000
0000
,
0010
0000
0000
0001
0000
0000
1000
0000
0000
0001
0000
0000
0010
0000
0000
0100
0000
0000
1000
0000
0000
0001
0000
0000
0100
0000
0000
0001
0000
0000
1000
0000
0000
0100
0000
0000
0010
0000
0000
0001
0000
0000
1000
0000
0000
0010
0000
0000
1000
0000
0000
0001
0000
0000
0010
0000
0000
0100
0000
0000
1000
0000
0000
0001
,
0000
0000
1000
0000
0000
0100
0000
0000
0010
0000
0000
0001
0000
0000
1000
0000
0000
0001
0000
0000
0010
0000
0000
0100
0000
0000
1000
0000
0000
0001
0000
0000
1000
0000
0000
0100
0000
0000
0010
0000
0000
0001
0000
0000
1000
0000
0000
0001
0000
0000
0100
0000
0000
0010
0000
0000
1000
0000
0000
0100
0000
0000
0010
0000
,
0000
0000
0000
0001
0000
0000
0000
0000
0000
0000
0000
0000
1000
0000
0000
0000
0000
0000
0000
0000
0000
0001
0000
0000
0000
0000
0000
0000
0000
0000
0010
0000
0000
0000
0000
0000
0000
0000
0000
0100
0000
0000
0000
0000
0000
0000
0000
0000
1000
0000
0000
0000
0000
0000
0000
0000
0001
0000
0000
0000
0000
0000
0000
0000
1000
0000
0000
0000
0000
0000
0000
0000
0100
0000
0000
0000
0000
0000
0000
0000
0000
0000
0000
0000
0010
0000
0000
0000
0000
0000
0000
0000
0000
0000
0000
0000
0001
0000
0000
0000
0000
0000
0000
0000
0000
0000
0000
0000
1000
0000
0000
0000
0000
0000
0000
0000
0000
0000
0000
0000
0010
0000
0000
0000
0000
0000
0000
0000
0000
0000
0000
0000
0100
0000
0000
0000
0000
0000
0000
0000
0000
0000
0000
0000
0001
0000
0000
0000
0000
0000
0000
0000
0000
0000
0000
0000
0010
0000
0000
0000
0000
0000
0000
0000
0000
0000
0000
0000
0100
0000
0000
0000
0000
0000
0000
0000
0000
0000
0000
0000
1000
0000
0000
0000
0000
0000
0000
0000
0000
0000
0000
0000
,
0001
0100
0001
1000
0100
0010
0001
1000
0001
0010
0100
1000
0010
0100
0001
1000
,
0100
1000
0001
0010
0001
1000
0010
0100
0001
0010
0001
1000
0100
0010
0001
1000
,
0001
0010
0100
1000
0010
0100
0001
0100
0010
1000
0100
0010
0001
1000
0001
0010
,
0100
1000
0001
0100
0001
1000
0100
0010
0001
1000
0001
0010
0100
1000
0001
0100
,
0001
0000
0000
1000
0000
0000
0010
0000
0000
0100
0000
0000
0001
0000
0000
0010
0000
0000
0001
0000
0000
1000
0000
0000
0100
0000
0000
0010
0000
0000
0001
0000
1000
0000
0010
0000
1000
0000
0000
0001
0000
0000
0100
0000
0000
0001
0000
0000
,
1000
0010
0100
0001
0010
0100
1000
0001
0100
0001
0010
0001
0100
0001
1000
0100
,
1000
0000
0000
0010
0000
0000
1000
0000
0000
0001
0000
0000
1000
0000
0000
0100
0000
0000
0010
0000
0000
0001
0000
0000
1000
0000
0000
0001
0000
0000
1000
0000
0100
0000
1000
0000
0100
0000
0000
0010
0000
0000
0001
0000
0000
1000
0000
0000
,
0001
0000
1000
0000
0010
0000
0100
0000
0001
0000
0010
0000
0100
0000
1000
0000
0001
0000
0100
0000
0001
0000
1000
0000
0001
0000
0000
1000
0000
0000
0010
0000
0000
0100
0000
0000
0001
0000
0000
0010
0000
0000
0100
0000
0000
1000
0000
0000
,
0001
0100
0001
1000
0100
0010
0001
1000
0010
0100
0001
1000
0100
0010
0001
1000
,
0001
0100
0001
0010
0100
1000
0010
1000
0001
1000
0100
0010
0001
1000
0001
0100
,
0001
0010
0100
0010
0001
1000
0100
1000
0001
0100
0001
0010
0100
1000
0001
0100
,
0001
1000
0100
0010
0001
1000
0010
1000
0001
1000
0100
0010
0001
1000
0001
0100
,
0001
0010
0100
1000
0001
0100
0001
1000
0010
0100
0001
0010
0100
1000
0001
0100
,
0001
1000
0010
1000
0001
0100
0001
0010
2200
0000
0000
0000
0000
3300
0202
0000
,
0000
0000
0000
0303
2002
0000
0000
3003
0022
0033
1000
0000
0200
0000
0000
0000
,
0310
0000
0000
0000
0000
0000
0000
0000
0000
0000
0000
0000
0000
0000
0000
0000
0000
0000
0000
0000
0000
0000
0000
0000
0001
0000
0000
0000
0000
0000
0000
0000
0000
0000
0000
0000
0000
0000
0000
0000
0000
0000
0000
0000
0000
0000
0000
0000
0100
0000
0000
0000
0000
0000
0000
0000
0000
0000
0000
0000
0000
0000
0000
0000
0000
0000
0000
0000
0000
0000
0000
0000
0010
0000
0000
0000
0000
0000
0000
0000
1000
0000
0000
0000
0000
0000
0000
0000
0100
0000
0000
0000
0000
0000
0000
0000
0010
0000
0000
0000
0000
0000
0000
0000
0000
0001
0000
0000
0000
0000
0000
0000
0000
0000
1000
0000
0000
0000
0000
0000
0000
0000
0000
0010
0000
0000
0000
0000
0000
0000
0000
0000
0100
0000
0000
0000
0000
0000
0000
0000
0000
0010
0000
0000
0000
0000
0000
0000
0000
0000
1000
0000
0000
0000
0000
0000
0000
0000
0000
0100
0000
0000
0000
0000
0000
0000
0000
0000
0010
0000
0000
0000
0000
0000
0000
0000
0000
0001
0000
0000
0000
0000
0000
0000
0000
0000
1000
0000
0000
0000
0000
0000
,
0000
0001
0000
0000
1000
0000
0000
0001
0000
0000
0010
0000
0000
0100
0000
0000
1000
0000
0000
0001
0000
0000
1000
0000
0000
0010
0000
0000
0100
0000
0000
0010
0000
0000
1000
0000
0000
0100
0000
0000
0010
0000
0000
0001
0000
0000
1000
0000
0000
0001
0000
0000
0010
0000
0000
0100
0000
0000
1000
0000
0000
0001
0000
0000
,
1000
0000
0000
0001
0000
0000
0100
0000
0000
0001
0000
0000
0010
0000
0000
0100
0000
0000
1000
0000
0000
0001
0000
0000
1000
0000
0000
0010
0000
0000
0100
0000
0000
0001
0000
0000
1000
0000
0000
0001
0000
0000
1000
0000
0000
0100
0000
0000
0010
0000
0000
0001
0000
0000
1000
0000
0000
0001
0000
0000
0010
0000
0000
0100
,
0000
0000
1000
0000
0000
0001
0000
0000
1000
0000
0000
0010
0000
0000
0100
0000
0000
0001
0000
0000
0010
0000
0000
0100
0000
0000
1000
0000
0000
0001
0000
0000
1000
0000
0000
0001
0000
0000
0100
0000
0000
0001
0000
0000
0100
0000
0000
0010
0000
0000
1000
0000
0000
0100
0000
0000
0010
0000
0000
0001
0000
0000
0010
0000
,
0000
0100
0000
0000
1000
0000
0000
0001
0000
0000
1000
0000
0000
0001
0000
0000
0100
0000
0000
0001
0000
0000
0010
0000
0000
0100
0000
0000
1000
0000
0000
0010
0000
0000
0100
0000
0000
0010
0000
0000
0100
0000
0000
0001
0000
0000
0010
0000
0000
0001
0000
0000
1000
0000
0000
0100
0000
0000
1000
0000
0000
0001
0000
0000
,
1000
0000
0000
0010
0000
0000
0100
0000
0000
0010
0000
0000
1000
0000
0000
0100
0000
0000
0010
0000
0000
0001
0000
0000
1000
0000
0000
0001
0000
0000
0100
0000
0000
0001
0000
0000
0010
0000
0000
0100
0000
0000
1000
0000
0000
0001
0000
0000
1000
0000
0000
0010
0000
0000
0100
0000
0000
0001
0000
0000
1000
0000
0000
0001
,
0000
0000
1000
0000
0000
0010
0000
0000
0100
0000
0000
0001
0000
0000
0100
0000
0000
0010
0000
0000
1000
0000
0000
0100
0000
0000
0010
0000
0000
0001
0000
0000
1000
0000
0000
0001
0000
0000
1000
0000
0000
0001
0000
0000
1000
0000
0000
0100
0000
0000
0010
0000
0000
0001
0000
0000
1000
0000
0000
0001
0000
0000
0100
0000
,
0000
0001
0000
0000
0010
0000
0000
0100
0000
0000
1000
0000
0000
0001
0000
0000
0100
0000
0000
0001
0000
0000
0010
0000
0000
0100
0000
0000
1000
0000
0000
0010
0000
0000
1000
0000
0000
0100
0000
0000
0010
0000
0000
0100
0000
0000
1000
0000
0000
0001
0000
0000
0100
0000
0000
0001
0000
0000
0010
0000
0000
0001
0000
0000
,
1000
0000
0000
0000
0000
0000
0000
0000
0000
0001
0000
0000
0000
0000
0000
0000
0000
0000
1000
0000
0000
0000
0000
0000
0000
0000
0000
0010
0000
0000
0000
0000
0000
0000
0000
0000
0100
0000
0000
0000
0000
0000
0000
0000
0000
0001
0000
0000
0000
0000
0000
0000
0000
0000
1000
0000
0000
0000
0000
0000
0000
0000
0000
0010
0000
0000
0000
0000
0000
0000
0000
0000
0100
0000
0000
0000
0000
0000
0000
0000
0000
0001
0000
0000
0000
0000
0000
0000
0000
0000
0010
0000
0000
0000
0000
0000
0000
0000
0200
0000
0000
0000
0000
0000
0000
0000
0000
0000
0000
0000
0000
0000
0000
0000
0000
0000
0000
0000
0000
0000
0000
0000
0000
0000
0000
0000
0000
0000
0000
0000
0000
0000
0000
0000
0000
0000
0000
0000
0000
0000
0000
0000
0000
0000
1300
0000
0000
0000
0000
0000
0000
0000
0000
0001
0000
0000
0000
0000
0000
0000
0000
0000
1000
0000
0000
0000
0000
0000
0000
0000
0000
0001
0000
0000
0000
0000
0000
0000
0000
0000
0100
0000
0000
0000
0000
0000
0000
0000
0000
0001
0000
0000
,
0000
0000
0010
0000
0000
0100
0000
0000
0010
0000
0000
0001
0000
0000
1000
0000
0000
0001
0000
0000
1000
0000
0000
0001
0000
0000
0100
0000
0000
0001
0000
0000
0010
0000
0000
0100
0000
0000
1000
0000
0000
0001
0000
0000
1000
0000
0000
0010
0000
0000
0100
0000
0000
0001
0000
0000
1000
0000
0000
0001
0000
0000
1000
0000
,
0000
0010
0000
0000
0100
0000
0000
0010
0000
0000
0100
0000
0000
0001
0000
0000
0100
0000
0000
0001
0000
0000
0010
0000
0000
0001
0000
0000
1000
0000
0000
0100
0000
0000
1000
0000
0000
0001
0000
0000
0100
0000
0000
0001
0000
0000
1000
0000
0000
0010
0000
0000
1000
0000
0000
0001
0000
0000
0010
0000
0000
0001
0000
0000
,
1000
0000
0000
0100
0000
0000
0010
0000
0000
0001
0000
0000
1000
0000
0000
0001
0000
0000
0010
0000
0000
0100
0000
0000
1000
0000
0000
0001
0000
0000
1000
0000
0000
0010
0000
0000
0100
0000
0000
0001
0000
0000
1000
0000
0000
0001
0000
0000
1000
0000
0000
0010
0000
0000
0100
0000
0000
0010
0000
0000
1000
0000
0000
0001
,
0000
0000
1000
0000
0000
0100
0000
0000
0010
0000
0000
0001
0000
0000
1000
0000
0000
0001
0000
0000
1000
0000
0000
0001
0000
0000
1000
0000
0000
0001
0000
0000
0100
0000
0000
0001
0000
0000
0010
0000
0000
0100
0000
0000
1000
0000
0000
0010
0000
0000
1000
0000
0000
0001
0000
0000
1000
0000
0000
0100
0000
0000
0010
0000
,
0000
0001
0000
0000
1000
0000
0000
0001
0000
0000
0100
0000
0000
0010
0000
0000
1000
0000
0000
0001
0000
0000
1000
0000
0000
0100
0000
0000
0010
0000
0000
0001
0000
0000
1000
0000
0000
0001
0000
0000
0100
0000
0000
0001
0000
0000
0010
0000
0000
0100
0000
0000
1000
0000
0000
0001
0000
0000
1000
0000
0000
0001
0000
0000
,
0100
0000
0000
0001
0000
0000
0010
0000
0000
0100
0000
0000
1000
0000
0000
0010
0000
0000
0100
0000
0000
0001
0000
0000
1000
0000
0000
0001
0000
0000
1000
0000
0000
0010
0000
0000
0100
0000
0000
0001
0000
0000
0010
0000
0000
0100
0000
0000
1000
0000
0000
0001
0000
0000
1000
0000
0000
0001
0000
0000
1000
0000
0000
0010
,
0000
0000
0100
0000
0000
0001
0000
0000
0010
0000
0000
0100
0000
0000
1000
0000
0000
0001
0000
0000
1000
0000
0000
0001
0000
0000
1000
0000
0000
0010
0000
0000
0100
0000
0000
0000
0000
0000
0000
0000
0001
0000
0000
0000
0000
0000
0000
0000
0020
0000
0000
0000
0000
0000
0000
0000
0000
0000
0000
0000
0000
0000
0000
0000
,
0230
2300
3020
0230
0302
0013
0200
1300
,
0001
0200
0320
2030
3200
0310
0001
2000
,
3100
0010
0002
0203
0320
2030
3100
0020
,
0031
1000
0002
0203
0320
1030
0100
0020
,
0031
1000
0002
0023
0230
2300
3002
2003
,
3200
0320
0032
2003
3002
0203
0320
2030
,
3200
0320
0032
2003
3002
0023
0230
2300
,
3002
0203
0302
2003
3200
0320
0032
2003
,
3002
0023
0230
2300
3020
0130
0002
0023
,
0130
2000
3200
0320
0032
0103
0001
0020
,
0130
1000
0002
2003
3020
0130
0001
0020
,
0130
1000
0002
0203
0320
1030
0100
0020
,
0031
1000
0002
0203
0320
2030
3200
0320
,
0032
2003
3002
0023
0230
2300
3002
0203
,
0302
2003
3200
0320
0032
2003
3002
0023
,
0230
2300
3002
0203
0302
2003
3200
0320
,
0032
0000
2003
0000
3002
0000
0203
0000
0310
1000
0100
0010
0001
1000
0001
0010
,
0100
1000
0001
0100
0001
1000
0100
0010
0001
1000
0001
0010
0100
1000
0001
0100
,
0010
1000
0100
0010
0001
1000
0001
0010
0100
1000
0001
1000
0100
0010
0001
0100
,
0001
0010
0100
1000
0010
0100
0001
1000
0100
0010
0001
1000
0001
0010
0100
1000
,
0001
0100
0001
1000
0100
0010
0001
1000
0001
0010
0100
1000
0010
0100
0001
1000
,
0100
1000
0001
0010
0100
1000
0001
1000
0100
0010
0001
1000
0010
0100
0001
0010
,
0001
1000
0100
0010
0001
1000
0001
0010
0100
1000
0001
0100
0001
1000
0100
0010
,
0001
1000
0010
0100
0001
0010
0001
1000
0100
1000
0010
0100
0001
0010
0100
1000
,
0001
0000
0000
1000
0000
0000
0100
0000
0000
0010
0000
0000
0001
0000
0000
1000
0000
0000
0010
0000
0000
0100
0000
0000
0001
0000
1000
0000
0001
0000
0010
0000
0100
0000
1000
0000
0001
0000
0100
0000
0001
0000
0010
0000
0100
0000
1000
0000
,
0001
1000
0100
0010
0001
1000
0010
0100
0001
0010
0001
1000
0100
0010
0001
1000
0001
0010
0100
1000
0001
0100
0001
1000
,
0100
0010
0001
1000
0001
0010
0100
1000
0010
0100
0001
0010
0001
1000
0100
0010
0001
1000
0001
0010
0100
1000
0001
0100
,
0001
1000
0100
0010
0001
1000
0001
0010
0100
1000
0001
0100
0001
1000
0100
0010
0001
1000
0001
0010
0100
1000
0010
1000
,
0100
0010
0001
0100
0001
0010
0100
1000
0001
1000
0100
0010
0001
1000
0001
0010
0100
1000
0001
0100
0001
1000
0100
0010
,
0001
1000
0001
0010
0001
1000
0100
0010
0001
1000
0001
0010
0100
1000
0001
0100
0001
1000
0100
0010
0001
1000
0001
0010
,
0100
1000
0001
0100
0001
1000
0100
0010
0001
1000
0001
0010
0100
1000
0001
0100
0001
1000
0100
0010
0001
1000
0001
0010
,
0001
1000
0100
0010
0001
1000
0001
0010
0100
1000
0001
0100
0001
1000
0100
0010
0001
1000
0010
1000
0100
0010
0001
0100
,
0001
0000
0010
0000
0100
0000
1000
0000
0001
0000
1000
0000
0100
0000
0010
0000
0001
0000
1000
0000
0100
0000
0010
0000
0002
0000
0000
0000
0000
0000
0000
0000
0000
0003
0000
0000
0001
0000
0000
0010
0000
0000
0001
0000
0000
1000
0000
0000
,
0100
0010
0001
1000
0100
0010
0001
1000
0200
0000
0000
0000
0310
0001
1000
0010
,
0100
0001
1000
0010
0100
0001
1000
0010
0200
0000
0000
0000
0301
0010
0100
0010
,
0001
0010
0100
0010
0001
0010
0100
0010
0002
0000
0000
0000
1003
0100
0010
0100
,
1000
0100
0010
0100
1000
0100
0010
0100
2000
0000
0000
0000
3001
0100
0010
0100
,
0001
0100
0010
0100
0001
0100
0010
0100
0002
0000
0000
0000
1003
0010
0100
0010
,
1000
0010
0100
0010
1000
0010
0100
0010
2000
0000
0000
0000
3001
1000
0010
0100
,
0001
1000
0010
0100
0001
1000
0010
0100
0002
0000
0000
0000
0013
0100
1000
0001
,
0010
0100
1000
0001
0010
0100
1000
0001
0020
0000
0000
0000
0130
1000
0010
0100
,
0001
0010
0100
1000
0001
0100
0010
1000
0200
0000
0000
0000
0310
0001
0100
0001
,
0010
0001
0100
0001
0010
0001
0100
0001
0020
0000
0000
0000
0130
1000
0010
1000
,
0100
1000
0010
1000
0100
1000
0010
1000
0200
0000
0000
0000
0310
0001
1000
0100
,
0010
0001
1000
0100
0010
0001
1000
0100
0020
0000
0000
0000
0031
1000
0010
0100
,
0001
1000
0010
0100
0001
1000
0010
0100
0002
0000
0000
0000
0013
0100
1000
0100
,
0010
0100
1000
0100
0010
0100
1000
0100
0020
0000
0000
0000
0031
0100
0010
0100
,
0001
0100
0010
0100
0001
0100
0010
0100
0002
2003
3020
0230
0302
0203
0302
0023
,
0230
2300
3200
0320
0032
2003
3000
0000
0000
0000
0000
0000
0000
0000
0000
0000
;

//---------------dance-single - ----------------
#NOTES:
     dance-single:
     :
     Challenge:
     25:
     1.000,1.000,0.034,1.000,1.000,4720.000,13.000,458.000,3.000,0.000:
0000
0000
0000
0000
0000
0000
0000
0000
2000
3001
1000
0010
0200
0301
0010
0100
,
2000
3100
0010
0001
2000
3001
0100
0001
0020
0130
1000
0001
0200
0301
0010
0001
,
2000
3100
1000
0001
2000
3010
0100
0001
0020
0130
0010
0001
0200
0301
0010
0001
,
2000
3001
0100
0001
2000
3100
1000
0001
0200
0301
0010
0100
2000
3010
0100
0001
,
2000
3100
1000
0001
0200
0301
0010
0100
2000
3001
0100
0001
0020
0130
1000
0001
,
2000
3010
0100
0001
2000
3100
0010
0100
2000
3001
0010
0100
0020
0031
1000
0001
,
0200
0301
0010
0100
2000
3001
0100
0001
2000
3010
1000
0100
0020
0031
0100
0001
,
0020
0130
1000
0001
2000
3001
0100
0010
0200
0301
0010
0100
2000
3010
1000
0001
,
2000
3100
0010
0001
0020
0130
1000
0001
2000
3100
0010
0001
2000
3001
1000
0010
,
0200
0301
0010
0100
2000
3100
0010
0001
0200
0310
1000
0100
0020
0031
1000
0001
,
0020
0130
1000
0010
0200
0301
0010
0100
2000
3001
1000
0010
2000
3001
0100
0010
,
2000
3100
1000
0010
0200
0301
0010
0100
2000
3001
1000
0100
0020
0031
1000
0001
,
0020
0000
0000
0130
0000
0000
1000
0000
0000
0001
0000
0000
0200
0000
0000
0301
0000
0000
0010
0000
0100
0000
0000
0000
2000
0000
0000
3001
0000
0000
1000
0000
0000
0010
0000
0000
0200
0000
0000
0301
0000
0000
0010
0000
0000
0100
0000
0000
,
2000
3001
1000
0100
0020
0031
1000
0010
0200
0301
0010
0100
2000
3001
1000
0100
,
0020
0031
0100
0001
2000
3100
1000
0010
0200
0301
0010
0100
2000
3001
1000
0100
,
0020
0000
0000
0031
0000
0000
1000
0000
0000
0001
0000
0000
0020
0000
0000
0130
0000
0000
1000
0000
0000
0010
0000
0000
0100
0000
0001
0000
0010
0000
0100
0000
1000
0000
0001
0000
1000
0000
0100
0000
0010
0000
0001
0000
1000
0000
0010
0000
,
1000
0100
0010
0001
0100
0001
0020
0000
0000
0230
0000
0000
0000
0000
0000
1300
0000
0000
1000
0000
0000
0001
0000
0000
,
0010
0000
0100
0000
2000
3000
0001
0000
1000
0000
0010
0000
0200
0300
0001
0000
,
0010
0000
0100
0000
2000
3000
0002
0003
1000
0000
0010
0000
0200
0300
0001
0000
,
0010
0000
0100
0000
2000
3000
0010
0000
0100
0000
0001
0000
2000
3000
0100
0000
,
0010
0000
0000
0000
0000
0000
0100
0000
0000
0000
0000
0000
2000
0000
0000
3000
0000
0000
0001
0000
1000
0000
0001
0000
1000
0000
0000
0000
0000
0000
1000
0000
0000
0000
0000
0000
0020
0000
0000
0030
0000
0000
0100
0000
0000
0000
0000
0000
,
0001
0000
0010
0000
0200
0300
1000
0000
0010
0000
0100
0000
0002
0003
1000
0000
,
0001
0000
1000
0000
0020
0030
0200
0300
0001
0000
0010
0000
0200
0300
1000
0000
,
0001
0000
1000
0000
0020
0030
0100
0000
0001
0000
0010
0000
0200
0300
1000
0000
,
0001
0000
0100
0000
0002
0003
1000
0000
0020
0130
0001
0010
0200
1300
0001
1000
,
0200
0310
0001
1000
0002
0103
0010
1000
0200
1300
0001
0010
0200
1300
0001
1000
,
0200
0310
0001
1000
0020
0130
0001
1000
0200
1300
0001
0010
0200
1300
0001
1000
,
0020
0130
0001
1000
0200
0310
0100
1000
0002
1003
0010
0100
0002
0013
0001
1000
,
0200
0310
0001
1000
0002
0013
0100
1000
0002
0103
0001
1000
0200
0310
0001
1000
,
0020
0130
0001
0010
0002
1003
0100
0010
0002
1003
0001
0010
0200
1300
0001
0100
,
0002
1003
0100
0010
0002
1003
0010
0100
0002
0013
0001
1000
0200
0310
0001
1000
,
0002
0013
0100
1000
0002
1003
0100
0010
0002
1003
0010
1000
0200
0310
0001
1000
,
0002
0000
0000
0013
0000
0000
0100
0000
0000
1000
0000
0000
0002
0000
0000
1003
0000
0000
0010
0000
0000
0100
0000
0000
0002
0000
0000
0013
0000
0000
0001
0000
0000
1000
0000
0000
0100
0000
1000
0000
0001
0000
0010
0000
0100
0000
1000
0000
,
0001
1000
0100
0010
0001
1000
0001
0010
0100
1000
0001
1000
0100
1000
0010
0100
0001
0010
0001
1000
0100
0010
0001
1000
,
0001
0010
0100
1000
0001
0100
0001
1000
0100
0010
0100
1000
0001
0010
0001
1000
0100
0010
0001
1000
0001
0010
0100
1000
,
0001
0100
0001
1000
0100
0010
0001
1000
0001
0010
0100
1000
0001
0100
0001
1000
0100
0010
0001
1000
0001
0010
0100
1000
,
0001
1000
0010
0100
0001
0010
0100
1000
0001
1000
0100
0010
0001
0100
0001
1000
0100
1000
0001
0010
0100
1000
0001
1000
,
0010
0100
0001
1000
0100
1000
0001
0010
0100
1000
0001
0100
0001
1000
0100
0010
0001
1000
0001
0010
0001
1000
0100
0010
,
0001
1000
0010
0100
0001
0010
0001
1000
0100
1000
0001
0010
0100
1000
0001
1000
0100
0010
0001
1000
0010
0100
0001
0010
,
0100
1000
0001
1000
0100
0010
0001
1000
0010
1000
0100
0010
0001
0100
0001
0010
0100
1000
0001
1000
0100
0010
0001
1000
,
0010
1000
0100
0010
0001
1000
0001
0010
0100
1000
0001
0100
0001
1000
0100
0010
0001
1000
0001
0010
0100
1000
0001
1000
,
0100
0010
0001
1000
0010
1000
0100
0010
0001
0100
0001
1000
0100
0010
0001
1000
0001
0010
0100
1000
0001
1000
0010
0100
,
0001
1000
0100
0010
0001
1000
0001
0010
0100
1000
0100
0010
0001
1000
0010
0100
0001
0010
0001
1000
0100
0010
0001
1000
,
0001
0010
0100
1000
0001
1000
0010
0100
0001
0010
0001
1000
0100
0010
0001
1000
0001
0010
0100
1000
0001
0100
0001
1000
,
0100
0010
0001
1000
0001
0010
0100
1000
0010
0100
0001
1000
0100
1000
0001
0010
0100
1000
0001
1000
0100
0010
0001
1000
,
0010
1000
0100
0010
0001
1000
0001
0010
0100
1000
0001
0100
0001
0010
0100
1000
0001
1000
0100
0010
0001
1000
0001
0010
,
0100
1000
0001
0100
0001
1000
0100
0010
0001
1000
0001
0010
0100
1000
0001
1000
0010
1000
0100
0010
0001
1000
0001
0010
,
0100
1000
0001
0100
0001
1000
0001
1000
0010
0100
0001
1000
0100
1000
0001
0010
0100
1000
0001
0100
0001
1000
0100
0010
,
0001
1000
0001
0010
0100
1000
0010
0100
0001
1000
0100
1000
0001
0000
0000
0010
0000
0000
0100
0000
0000
0200
0000
0000
,
0000
0000
0000
0000
0000
0310
0010
0020
,
0000
0000
0000
0000
0000
0031
0001
0002
,
0000
0000
0000
0000
0000
1003
1000
2000
,
0000
0000
0000
0000
0000
3010
0010
0020
,
0000
0000
0000
0000
0000
0130
0100
0200
,
0000
0000
0000
0000
0000
0301
0001
0002
,
0000
0000
0000
0000
0000
0013
0010
0020
,
0000
0000
0000
0000
0000
0130
0100
0200
,
0000
0000
0000
0000
0000
1300
1000
2000
,
0000
0000
0000
0000
0000
0000
0000
0000
3140
0030
0140
0030
0140
0030
0020
0000
,
0000
0000
0000
0000
0000
0000
0000
0000
0431
0300
0401
0300
0401
0300
0200
0000
,
0000
0000
0000
0000
0000
0000
0000
0000
0314
0003
0001
0000
0001
0000
0002
0000
,
0000
0000
0000
0000
00M0
0013
0010
0020
,
0000
0000
0000
0000
0M00
0130
0100
0200
,
0000
0000
0000
0000
M000
1300
1000
2000
,
0000
0000
0000
0000
0000
0000
0000
0000
3004
0003
0004
0003
1000
0000
0100
0000
0020
0000
0031
0000
1000
0000
0001
0000
0020
0000
0130
0000
1000
0000
0001
0000
,
2000
3100
0010
0001
0200
0310
1000
0001
0020
0130
1000
0001
2000
3100
0010
0001
,
0200
0310
1000
0001
0020
0130
1000
0001
2000
3100
0010
0001
2000
3100
1000
0001
,
0020
0130
0010
0001
2000
3001
0010
0100
2000
3100
0010
0001
0200
0310
1000
0001
,
0020
0130
1000
0001
2000
3100
0010
0001
0200
0310
1000
0001
0020
0130
1000
0001
,
2000
3100
0010
0001
2000
3100
1000
0001
0020
0031
1000
0100
0020
0031
1000
0001
,
0020
0130
1000
0010
2000
3001
0010
0100
2000
3001
1000
0100
0020
0031
0100
0010
,
2000
3001
0010
0100
2000
3001
1000
0100
0020
0031
1000
0100
2000
3010
0100
0001
,
2000
3100
0010
0001
2000
3001
0010
0100
2000
3010
0100
0001
0020
0130
2000
3001
,
1000
0010
0200
0301
0020
0130
2000
3010
0200
0301
0010
0100
1000
0001
2000
3001
,
1000
0010
0100
0001
0020
0130
1000
0001
2000
3010
0100
0001
0010
0100
2000
3100
,
0010
0001
1000
0001
2000
3010
0200
0301
0020
0130
1000
0001
0100
0001
0020
0130
,
1000
0001
0100
0001
0020
0130
2000
3001
2000
3010
0100
0001
0020
0130
2000
3001
,
0100
0001
0020
0130
2000
3001
0200
0301
0020
0130
1000
0001
0100
0001
0020
0130
,
1000
0001
0100
0001
2000
3010
0200
0301
0020
0130
1000
0001
0100
0001
0020
0130
,
1000
0001
0100
0001
0020
0031
2000
3010
0200
0301
0010
0100
1000
0001
2000
3010
,
0100
0000
0000
0001
0000
0000
0010
0000
0000
0100
0000
0000
1000
0000
0000
0001
0000
0000
0100
0000
0000
0001
0000
0000
0010
0000
0100
0000
1000
0000
0001
0000
1000
0000
0100
0000
0010
0000
0001
0000
1000
0000
0010
0000
0100
0000
0001
0000
,
0010
0001
1000
0100
0010
0001
1000
0001
0010
0100
1000
0001
1000
0100
0010
0001
1000
0010
1000
0100
0010
0001
1000
0001
,
0010
0100
1000
0001
1000
0100
0010
0001
1000
0001
0010
0100
1000
0001
0100
0001
1000
0100
0010
0001
1000
0010
1000
0100
,
0010
0001
1000
0001
0010
0100
1000
0001
0100
0001
1000
0100
0010
0001
1000
0001
0010
0100
1000
0010
0100
0001
1000
0100
,
1000
0001
0010
0100
1000
0001
1000
0100
0010
0001
1000
0010
0100
0001
0010
0001
1000
0100
0010
0001
1000
0100
1000
0001
,
0010
0100
1000
0001
1000
0100
0010
0001
1000
0010
0100
0001
0010
0001
1000
0001
0100
0001
1000
0100
1000
0010
0100
0001
,
0010
0100
1000
0001
1000
0100
0010
0100
1000
0001
0010
0001
1000
0100
0010
0001
1000
0001
0010
0001
1000
0001
0010
0100
,
1000
0001
1000
0100
0010
0001
1000
0010
0100
0001
0010
0001
1000
0100
0010
0001
1000
0001
0010
0100
1000
0001
0100
0001
,
0010
0100
1000
0001
0100
0010
1000
0100
1000
0001
0010
0001
1000
0010
0100
0001
0010
0001
1000
0100
0010
0001
1000
0001
,
0010
0100
1000
0001
1000
0100
0010
0001
1000
0001
0010
0100
1000
0010
0100
0001
1000
0100
1000
0001
0010
0100
1000
0001
,
1000
0100
0010
0001
1000
0010
1000
0100
0010
0001
1000
0001
0010
0100
1000
0001
0100
0001
1000
0100
0010
0001
1000
0010
,
1000
0100
0010
0001
0100
0001
0010
0100
1000
0001
1000
0100
0010
0001
1000
0010
0100
0001
0010
0001
1000
0100
0010
0001
,
1000
0001
0010
0100
1000
0001
0100
0001
1000
0100
0010
0001
1000
0001
0010
0100
1000
0010
0100
0001
0010
0001
1000
0001
,
0100
0001
0010
0100
1000
0010
0100
0010
1000
0100
0010
0001
1000
0001
0010
0100
1000
0001
0100
0001
0010
0100
1000
0001
,
1000
0100
0010
0001
1000
0010
0100
0001
0010
0001
1000
0100
0010
0001
1000
0001
0010
0100
1000
0010
0100
0001
0010
0001
,
1000
0100
0010
0001
1000
0001
0010
0100
1000
0001
1000
0100
0010
0001
1000
0010
0100
0001
0010
0001
1000
0100
0010
0001
,
1000
0000
0000
0000
0000
0000
0000
0000
0001
0000
0000
0000
0000
0000
0000
0000
0010
0000
0000
0000
0000
0000
0000
0000
0100
0000
0000
0000
0000
0000
0000
0000
1000
0000
0000
0000
0000
0000
0000
0000
0001
0000
0000
0000
0000
0000
0000
0000
1000
0000
0000
0000
0000
0000
0000
0000
0010
0000
0000
0000
0000
0000
0000
0000
1000
0000
0000
0000
0000
0000
0000
0000
0002
0000
0000
0000
0000
0000
0003
0000
0000
0000
0000
0000
0002
0000
0000
0000
0000
0000
0003
0000
0000
0000
0000
0000
0020
0000
0000
0000
0000
0000
0000
0000
0000
0000
0000
0000
0000
0000
0000
0000
0000
0000
0000
0000
0000
0000
0000
0000
0000
0000
0000
0000
0000
0000
0000
0000
0000
0000
0000
0000
0000
0000
0000
0000
0000
0000
0000
0000
0000
0000
0000
0000
0130
0000
0000
0000
0000
0000
0000
0000
0000
0000
0000
0000
1000
0000
0000
0000
0000
0000
0000
0000
0000
0000
0000
0000
0001
0000
0000
0000
0000
0000
0000
0000
0000
0000
0000
0000
1000
0000
0000
0000
0000
0000
0000
0000
0000
0000
0000
0000
,
0100
0010
0001
1000
0010
0100
0001
0010
0001
1000
0100
0010
0001
1000
0001
0010
,
0100
1000
0010
0100
0001
1000
0100
1000
0001
0010
0100
1000
0001
0100
0010
1000
,
0010
0100
0001
0010
0100
1000
0001
1000
0100
0010
0001
1000
0010
1000
0100
0010
,
0001
0100
0001
0010
0001
1000
0100
0010
0001
1000
0001
0010
0100
1000
0001
0100
,
0001
0000
0000
1000
0000
0000
0100
0000
0000
0010
0000
0000
0001
0000
0000
1000
0000
0000
0001
0000
0000
0010
0000
0000
0100
0000
0000
1000
0000
0000
0001
0000
1000
0000
0010
0000
0100
0000
0000
0001
0000
0000
0010
0000
0000
0100
0000
0000
,
1000
0001
1000
0100
0010
0001
1000
0010
0100
0001
0010
0001
1000
0100
0010
0001
,
1000
0000
0000
0001
0000
0000
0010
0000
0000
0100
0000
0000
1000
0000
0000
0001
0000
0000
0100
0000
0000
0010
0000
0000
1000
0000
0000
0100
0000
0000
0010
0000
0001
0000
1000
0000
0010
0000
0000
0100
0000
0000
0001
0000
0000
0010
0000
0000
,
0100
0000
1000
0000
0001
0000
1000
0000
0100
0000
0010
0000
0001
0000
1000
0000
0010
0000
0100
0000
0001
0000
0010
0000
0100
0000
0000
1000
0000
0000
0001
0000
0000
1000
0000
0000
0100
0000
0000
0010
0000
0000
0001
0000
0000
1000
0000
0000
,
0010
0100
0001
0010
0001
1000
0100
0010
0001
1000
0001
0010
0100
1000
0001
0100
,
0001
1000
0100
0010
0100
1000
0001
0010
0100
1000
0001
1000
0100
0010
0001
1000
,
0010
0100
0001
0010
0001
1000
0100
0010
0001
1000
0001
0010
0100
1000
0001
0100
,
0001
0010
0100
1000
0001
1000
0100
0010
0001
1000
0010
1000
0100
0010
0001
0100
,
0001
1000
0100
0010
0001
1000
0001
0010
0100
1000
0010
0100
0001
0010
0001
1000
,
0100
0010
0001
1000
0010
1000
0100
0010
0202
0303
0000
0000
0000
0000
2200
3300
,
0000
0000
0000
0000
0022
0033
0000
0000
0101
0000
0011
0000
2002
3003
0000
0000
,
1010
0000
0000
0000
0000
0000
1001
0000
0000
0000
0000
0000
2200
0000
0000
3300
0000
0000
0010
0000
0000
0001
0000
0000
1000
0000
0000
0001
0000
0000
1000
0000
0000
0100
0000
0000
0010
0000
0001
0000
1000
0000
0001
0000
0010
0000
0100
0000
,
1000
0001
0100
0001
1000
0100
0010
0001
1000
0001
0010
0100
1000
0010
1000
0100
0010
0001
0100
0001
1000
0100
0010
0001
,
1000
0001
0010
0100
1000
0010
1000
0100
0010
0001
1000
0001
0100
0010
1000
0100
0010
0001
1000
0001
0010
0100
1000
0001
,
0100
0010
1000
0100
1000
0001
0010
0100
1000
0001
1000
0100
0010
0001
1000
0010
0100
0001
0010
0001
1000
0100
0010
0001
,
1000
0001
0010
0100
1000
0001
0100
0001
1000
0100
0010
0001
1000
0001
0010
0100
1000
0010
0100
0001
1000
0100
1000
0010
,
0100
0001
0010
0001
1000
0100
0010
0001
1000
0001
0010
0100
1000
0001
0100
0001
1000
0100
0010
0001
1000
0001
0010
0100
,
1000
0010
0100
0001
1000
0100
0010
0100
1000
0001
0100
0001
1000
0100
0010
0100
1000
0001
0010
0001
1000
0010
0100
0001
,
0010
0100
1000
0001
1000
0100
0010
0001
1000
0010
0100
0010
1000
0100
0010
0001
1000
0001
0010
0100
1000
0001
0100
0001
,
1000
0100
0010
0001
1000
0001
0010
0100
1000
0001
0100
0001
1000
0100
0010
0001
1000
0001
0010
0100
1000
0010
0100
0001
,
0010
0001
1000
0100
0010
0001
1000
0001
0010
0100
1000
0001
0100
0001
1000
0100
0010
0001
1000
0001
0010
0100
1000
0010
,
0100
0001
1000
0100
0010
0001
1000
0001
0010
0100
1000
0001
0100
0001
1000
0100
0010
0001
1000
0001
0010
0100
1000
0001
,
0100
0001
1000
0100
0010
0001
1000
0001
0010
0100
1000
0010
0100
0001
0010
0001
1000
0100
0010
0001
1000
0001
0010
0100
,
1000
0001
0100
0001
1000
0100
0010
0001
1000
0001
0010
0100
1000
0010
0100
0001
0010
0001
1000
0100
0010
0001
1000
0001
,
0010
0100
1000
0001
0100
0001
1000
0100
0010
0001
1000
0001
0010
0100
1000
0010
0100
0001
0010
0001
1000
0100
0010
0001
,
1000
0001
0010
0100
1000
0001
0100
0001
1000
0010
0100
0001
0010
0001
1000
0100
0010
0001
1000
0001
0010
0100
1000
0010
,
0100
0001
1000
0100
0010
0001
1000
0001
0010
0100
1000
0001
0100
0010
1000
0001
1000
0100
2000
0000
0000
3000
0000
0000
,
2000
3002
0023
0230
2300
3001
0200
0310
,
1000
0200
0320
0032
2003
3001
0001
2000
,
3010
0100
0002
0023
0230
1300
0001
2000
,
3010
0100
0002
0023
0032
1003
0100
2000
,
3010
0100
0002
0023
0230
2300
3002
2003
,
3020
0230
0302
0023
0230
2300
3002
2003
,
3200
0320
0032
2003
3020
2030
3200
0320
,
0032
0203
0302
2003
3200
0320
0032
2003
,
3002
0023
0230
2300
3002
1003
0020
0230
,
0301
0020
0230
2300
3002
1003
0010
0200
,
0301
0010
0200
2300
3200
0310
0001
2000
,
3010
0100
0002
0023
0230
1300
0001
2000
,
3100
0010
0002
2003
3020
0130
0002
0023
,
0130
2000
3200
0320
0032
1003
0010
0200
,
0301
0010
0200
2300
3020
0130
0001
0020
,
0130
1000
0002
0203
0320
1030
0100
0020
,
0031
0000
0000
1000
0000
0000
0002
0000
0000
0103
0000
0000
0010
1000
0100
0010
0001
1000
0001
0010
0100
1000
0001
0100
,
0001
1000
0100
0010
0001
1000
0001
0010
0100
1000
0010
0100
0001
1000
0100
0010
0001
1000
0001
0010
0100
1000
0010
0100
,
0001
1000
0100
1000
0001
0010
0100
1000
0001
1000
0100
0010
0001
1000
0010
0100
0001
0010
0001
1000
0100
0010
0001
1000
,
0001
0100
0010
1000
0100
1000
0001
0010
0100
0010
0001
1000
0010
0100
0001
1000
0100
1000
0001
0010
0100
1000
0001
1000
,
0100
0010
0001
1000
0001
0010
0100
1000
0001
0100
0001
0010
0100
1000
0010
0100
0001
1000
0100
1000
0001
0010
0100
1000
,
0001
1000
0100
0010
0001
1000
0010
1000
0100
0010
0001
0100
0001
0010
0100
1000
0001
1000
0100
0010
0001
1000
0010
1000
,
0100
0010
0001
1000
0001
0010
0100
1000
0001
0100
0001
1000
0100
0010
0001
1000
0001
0010
0100
1000
0001
0100
0001
1000
,
0100
0010
0001
1000
0001
0010
0100
1000
0001
0100
0001
1000
0100
0010
0001
1000
0001
0010
0100
1000
0010
0100
0001
1000
,
0100
1000
0001
0010
0100
1000
0001
1000
0100
0010
0001
1000
0010
1000
0100
0010
0001
1000
0001
0010
0100
1000
0001
0100
,
0001
1000
0100
0010
0001
1000
0001
0010
0100
1000
0001
0100
0001
1000
0100
0010
0001
1000
0001
0010
0100
1000
0010
0100
,
0001
1000
0100
1000
0001
0010
0100
1000
0001
1000
0100
0010
0001
1000
0010
1000
0100
0010
0001
1000
0001
0010
0100
1000
,
0001
0100
0001
1000
0100
0010
0001
1000
0001
0010
0100
1000
0001
0100
0001
1000
0100
0010
0001
1000
0001
0010
0100
1000
,
0010
0100
0001
1000
0100
1000
0001
0010
0100
1000
0001
1000
0100
0010
0001
1000
0010
0100
0001
0010
0001
1000
0100
0010
,
0001
1000
0001
0010
0100
1000
0001
0100
0001
1000
0010
0100
0001
0010
0001
1000
0100
0010
0001
1000
0001
0010
0100
1000
,
0001
0100
0010
1000
0100
0010
0100
1000
0001
0010
0100
1000
0001
0100
0001
1000
0100
0010
0001
1000
0001
0010
0100
1000
,
0001
0100
0001
1000
0100
0010
0001
1000
0001
0010
0100
1000
0001
0100
0001
1000
0100
0010
0001
1000
0001
0010
0100
1000
,
0001
0100
0001
1000
0100
0010
0001
1000
0100
0010
0001
0010
0200
0000
0000
1300
0000
0000
1000
0000
0000
0200
0000
0000
,
0000
0000
0000
0000
0000
1300
0001
2000
,
0000
0000
0000
0000
0000
3010
0010
0020
,
0000
0000
0000
0000
0000
0130
0100
0200
,
0000
0000
0000
0000
0000
0301
0001
0002
,
0000
0000
0000
0000
0000
0103
0100
0200
,
0000
0000
0000
0000
0000
0000
0000
0000
0340
0030
0010
0000
0010
0000
0020
0000
,
0000
0000
0000
0000
0000
0000
0000
0000
4030
3000
1000
0000
1000
0000
2000
0000
,
0000
0000
0000
0000
0000
0000
0000
0000
3004
0003
0001
0000
0001
0000
0002
0000
,
0000
0000
0000
0000
0000
0000
0000
0000
0403
0300
0100
0000
0100
0000
0200
0000
,
0000
0000
0000
0000
0000
0000
0000
0000
0304
0003
0004
0003
0004
0003
0002
0000
,
0000
0000
0000
0000
0000
0000
0000
0000
4003
3000
4000
3000
4000
3000
2000
0000
,
0000
0000
0000
0000
0000
0000
0000
0000
3040
0030
0010
0000
0010
0000
0020
0000
,
0000
0000
0000
0000
0000
0130
0100
0200
,
0000
0000
0000
0000
0000
0301
0001
0002
,
0000
0000
0000
0000
0000
0013
0010
0020
,
0000
0000
0000
0000
0130
1000
0001
0010
0200
1300
0001
0010
0100
0010
0001
0010
,
0100
1000
0001
0100
0001
1000
0010
0100
0001
0010
0001
1000
0100
0010
0001
1000
,
0001
0010
0100
1000
0001
0100
0001
1000
0010
0100
0001
0010
0001
1000
0100
0010
,
0001
0010
0100
0010
0001
1000
0010
0100
0001
1000
0010
0100
0001
0010
0001
1000
,
0100
0010
0100
1000
0001
0100
0001
1000
0010
0100
0001
0010
0001
1000
0010
0100
,
0001
1000
0100
1000
0001
0010
0100
1000
0010
0100
0001
0010
0001
1000
0010
0100
,
0001
1000
0100
1000
0001
0010
0100
1000
0001
0100
0001
1000
0010
0100
0001
0010
,
0100
1000
0001
0100
0001
1000
0010
0100
0001
0010
0001
1000
0100
0010
0001
1000
,
0001
0000
0000
0010
0000
0000
0100
0000
0000
1000
0000
0000
0010
0000
0000
0100
0000
0000
0001
0000
0000
1000
0000
0000
0100
0000
0010
0000
0001
0000
1000
0000
0010
0000
0100
0000
0001
0000
1000
0000
0100
0000
1000
0000
0010
0000
0100
0000
,
0001
0010
0001
1000
0100
0010
0001
1000
0001
0010
0100
1000
0001
1000
0010
0100
0001
1000
0100
1000
0001
0010
0100
1000
,
0010
0100
0001
1000
0100
1000
0001
0010
0001
1000
0010
0100
0001
0010
0001
1000
0100
0010
0001
1000
0001
0010
0100
1000
,
0001
0100
0001
1000
0010
0100
0001
0010
0001
1000
0010
1000
0100
0010
0001
0100
0001
1000
0100
1000
0001
0010
0100
1000
,
0010
0100
0001
1000
0100
1000
0010
0100
0001
0010
0100
0010
0001
1000
0100
1000
0010
0100
0001
0010
0001
1000
0100
0010
,
0100
1000
0001
0100
0001
1000
0010
0100
0001
0010
0001
1000
0010
1000
0100
0010
0001
1000
0001
0010
0100
1000
0001
0100
,
0001
1000
0010
0100
0001
0010
0001
1000
0100
0010
0001
1000
0010
0100
0001
1000
0100
1000
0001
0010
0100
1000
0010
0100
,
0001
0010
0001
1000
0010
0100
0001
1000
0100
1000
0001
0010
0100
1000
0010
0100
0001
1000
0100
1000
0001
0010
0100
1000
,
0001
0000
0000
0100
0000
0000
0100
0000
0000
1000
0000
0000
0001
0000
0000
0010
0000
0000
0010
0000
0000
0001
0000
0000
0010
0000
0001
0000
1000
0000
0001
0000
0010
0000
0100
0000
1000
0000
0001
0000
0100
0000
0001
0000
1000
0000
0100
0000
,
0010
0001
1000
0001
0010
0100
1000
0010
0100
0001
1000
0100
0010
0001
1000
0001
0010
0100
1000
0001
0100
0001
1000
0100
,
0010
0001
1000
0001
0010
0100
1000
0010
0100
0001
0100
0010
1000
0100
0010
0001
1000
0001
0010
0100
1000
0001
0100
0001
,
1000
0100
0010
0001
1000
0001
0010
0100
1000
0001
0100
0001
1000
0100
0010
0001
1000
0001
0010
0100
1000
0010
0100
0001
,
0010
0001
1000
0100
0010
0001
1000
0001
0010
0100
1000
0001
0100
0001
1000
0100
0010
0001
1000
0010
1000
0100
0010
0001
,
0100
0001
0010
0100
1000
0001
1000
0100
0010
0001
1000
0010
1000
0100
0010
0001
0100
0001
0010
0100
1000
0001
1000
0100
,
0010
0001
1000
0010
1000
0100
0010
0001
0100
0001
0010
0100
1000
0001
1000
0100
0010
0001
1000
0010
1000
0100
0010
0001
,
1000
0001
0010
0100
1000
0001
0100
0001
1000
0100
0010
0001
1000
0001
0010
0100
1000
0001
0100
0001
1000
0100
0010
0001
,
1000
0001
0010
0100
1000
0010
0100
0001
1000
0100
1000
0001
0010
0100
1000
0001
1000
0100
0010
0100
1000
0001
1000
0100
,
0010
0001
1000
0010
1000
0100
0010
0001
1000
0001
0010
0100
1000
0001
0100
0001
1000
0100
0010
0001
1000
0010
1000
0100
,
0010
0001
1000
0001
0010
0100
1000
0001
0100
0001
1000
0100
0010
0001
1000
0001
0010
0100
1000
0001
1000
0100
0010
0001
,
1000
0010
1000
0100
0010
0001
1000
0001
0100
0010
1000
0100
1000
0001
0010
0100
1000
0001
0010
0001
1000
0100
0010
0100
,
1000
0001
0100
0001
1000
0100
0010
0001
1000
0010
1000
0100
0010
0001
1000
0001
0100
0010
1000
0100
1000
0001
0010
0100
,
1000
0001
1000
0100
0010
0001
1000
0010
1000
0100
0010
0001
0100
0001
0010
0100
1000
0001
1000
0100
1000
0010
0100
0001
,
1000
0100
1000
0001
0010
0100
1000
0001
1000
0100
0010
0001
1000
0010
1000
0100
0010
0001
1000
0001
0010
0100
1000
0001
,
0100
0001
1000
0100
0010
0001
1000
0001
0010
0100
1000
0001
0100
0001
1000
0100
0010
0001
1000
0001
0010
0100
1000
0001
,
0100
0000
0001
0000
1000
0000
0100
0000
0010
0000
0001
0000
1000
0000
0001
0000
1000
0000
0100
0000
0000
0010
0000
0000
0001
0000
0000
1000
0000
0000
0010
0000
0000
0100
0000
0000
0001
0000
0000
0010
0000
0000
0100
0000
0000
1000
0000
0000
,
0001
0100
0001
1000
0100
0010
0001
1000
0001
0010
0100
1000
0010
0100
0001
1000
,
0100
1000
0001
0010
0001
1000
0010
0100
0001
0010
0001
1000
0100
0010
0001
1000
,
0001
0010
0100
1000
0010
0100
0001
0100
0010
1000
0100
0010
0001
1000
0001
0010
,
0100
1000
0001
0100
0001
1000
0100
0010
0001
1000
0001
0010
0100
1000
0001
0100
,
0001
0000
0000
1000
0000
0000
0010
0000
0000
0100
0000
0000
0001
0000
0000
0010
0000
0000
0001
0000
0000
1000
0000
0000
0100
0000
0000
0010
0000
0000
0001
0000
1000
0000
0010
0000
1000
0000
0000
0001
0000
0000
0100
0000
0000
0001
0000
0000
,
1000
0010
0100
0001
0010
0100
1000
0001
0100
0001
0010
0001
0100
0001
1000
0100
,
1000
0000
0000
0010
0000
0000
1000
0000
0000
0001
0000
0000
1000
0000
0000
0100
0000
0000
0010
0000
0000
0001
0000
0000
1000
0000
0000
0001
0000
0000
1000
0000
0100
0000
1000
0000
0100
0000
0000
0010
0000
0000
0001
0000
0000
1000
0000
0000
,
0001
0000
1000
0000
0010
0000
0100
0000
0001
0000
0010
0000
0100
0000
1000
0000
0001
0000
0100
0000
0001
0000
1000
0000
0001
0000
0000
1000
0000
0000
0010
0000
0000
0100
0000
0000
0001
0000
0000
0010
0000
0000
0100
0000
0000
1000
0000
0000
,
0001
0100
0001
1000
0100
0010
0001
1000
0010
0100
0001
1000
0100
0010
0001
1000
,
0001
0100
0001
0010
0100
1000
0010
1000
0001
1000
0100
0010
0001
1000
0001
0100
,
0001
0010
0100
0010
0001
1000
0100
1000
0001
0100
0001
0010
0100
1000
0001
0100
,
0001
1000
0100
0010
0001
1000
0010
1000
0001
1000
0100
0010
0001
1000
0001
0100
,
0001
0010
0100
1000
0001
0100
0001
1000
0010
0100
0001
0010
0100
1000
0001
0100
,
0001
1000
0010
1000
0001
0100
0001
0010
2200
0000
0000
0000
0000
3300
0202
0000
,
0000
0000
0000
0303
2002
0000
0000
3003
0022
0033
1000
0000
0200
0000
0000
0000
,
0310
0000
0000
0001
0000
0000
0100
0000
0000
0010
1000
0100
0010
0001
1000
0001
0010
0100
1000
0001
0100
0001
1000
0100
,
0010
0001
1000
0001
0010
0100
1000
0001
0100
0001
1000
0100
0010
0001
1000
0001
0010
0100
1000
0010
0100
0001
1000
0100
,
1000
0001
0010
0100
1000
0001
1000
0100
0010
0001
1000
0010
1000
0100
0010
0001
0100
0001
0010
0100
1000
0001
1000
0100
,
0010
0001
1000
0010
0100
0001
0010
0001
1000
0100
0010
0001
1000
0001
0010
0100
1000
0001
0100
0001
1000
0100
0010
0001
,
1000
0010
1000
0100
1000
0001
0010
0100
1000
0001
0100
0001
0010
0001
1000
0100
0010
0001
1000
0001
0010
0100
1000
0001
,
0100
0001
1000
0100
0010
0001
1000
0010
1000
0100
0010
0001
1000
0001
0010
0100
1000
0001
0100
0001
1000
0100
0010
0001
,
1000
0010
1000
0100
0010
0001
0100
0001
0010
0100
1000
0001
1000
0100
0010
0001
1000
0010
1000
0100
0010
0001
1000
0001
,
0100
0010
1000
0100
0010
0001
1000
0001
0010
0100
1000
0001
0100
0001
1000
0100
0010
0001
1000
0010
1000
0100
0010
0001
,
1000
0001
0010
0100
1000
0001
1000
0100
0010
0001
0100
0001
2000
0000
0000
0000
0000
0000
3001
1000
0010
0100
0001
1000
,
0100
0010
0001
1000
0001
0010
0100
1000
0001
0100
0001
1000
0100
0010
0001
1000
0010
1000
0100
0010
0001
1000
0001
0100
,
0001
0010
0100
1000
0001
1000
0100
1000
0010
0100
0001
0010
0001
1000
0100
0010
0001
1000
0001
0010
0100
1000
0001
0100
,
0001
1000
0100
0010
0001
1000
0001
0010
0100
1000
0001
1000
0100
1000
0001
0100
0001
1000
0010
0100
0001
0010
0001
1000
,
0100
0010
0001
1000
0001
0100
0001
1000
0100
0010
0001
1000
0001
0010
0100
1000
0001
0100
0001
1000
0100
0010
0001
1000
,
0001
0010
0001
1000
0010
0100
0001
0010
0001
1000
0100
0010
0001
1000
0001
0010
0100
1000
0001
0100
0001
1000
0100
0010
,
0001
1000
0001
0010
0100
1000
0001
0100
0001
1000
0100
0010
0001
1000
0001
0010
0100
1000
0010
0100
0001
0010
0001
1000
,
0100
0010
0001
1000
0001
0010
0100
1000
0001
0100
0001
1000
0200
0000
0000
0310
0000
0000
0020
0000
0000
0000
0000
0000
,
0230
2300
3020
0230
0302
0013
0200
1300
,
0001
0200
0320
2030
3200
0310
0001
2000
,
3100
0010
0002
0203
0320
2030
3100
0020
,
0031
1000
0002
0203
0320
1030
0100
0020
,
0031
1000
0002
0023
0230
2300
3002
2003
,
3200
0320
0032
2003
3002
0203
0320
2030
,
3200
0320
0032
2003
3002
0023
0230
2300
,
3002
0203
0302
2003
3200
0320
0032
2003
,
3002
0023
0230
2300
3020
0130
0002
0023
,
0130
2000
3200
0320
0032
0103
0001
0020
,
0130
1000
0002
2003
3020
0130
0001
0020
,
0130
1000
0002
0203
0320
1030
0100
0020
,
0031
1000
0002
0203
0320
2030
3200
0320
,
0032
2003
3002
0023
0230
2300
3002
0203
,
0302
2003
3200
0320
0032
2003
3002
0023
,
0230
2300
3002
0203
0302
2003
3200
0320
,
0032
0000
0000
2003
0000
0000
3002
0000
0000
0203
0000
0000
0310
1000
0100
0010
0001
1000
0001
0010
0100
1000
0001
0100
,
0001
1000
0100
0010
0001
1000
0010
0100
0001
0010
0100
1000
0001
0100
0001
1000
0100
0010
0001
1000
0001
0010
0100
1000
,
0010
0100
0001
1000
0100
1000
0001
0010
0100
1000
0010
0100
0001
1000
0100
1000
0001
0100
0001
0010
0100
1000
0010
0100
,
0001
0010
0001
1000
0100
1000
0010
0100
0001
0010
0100
1000
0001
0100
0001
1000
0100
0010
0001
1000
0001
0010
0100
1000
,
0010
0100
0001
1000
0100
0010
0001
1000
0001
0010
0100
1000
0010
0100
0001
1000
0100
1000
0010
0100
0001
0010
0001
1000
,
0010
0100
0001
0010
0001
1000
0100
0010
0001
1000
0001
0010
0100
1000
0001
0100
0001
1000
0010
0100
0001
1000
0100
1000
,
0001
0010
0100
1000
0010
0100
0001
0010
0001
1000
0010
0100
0001
1000
0100
1000
0001
0010
0100
1000
0010
0100
0001
0010
,
0001
1000
0010
0100
0001
1000
0100
1000
0001
0010
0100
1000
0010
0100
0001
1000
0100
1000
0001
0010
0100
1000
0010
0100
,
0001
1000
0010
0100
0001
1000
0100
0010
0001
1000
0001
0010
0001
1000
0001
0010
0100
1000
0001
0100
0001
0010
0100
1000
,
0001
1000
0100
0010
0001
1000
0010
0100
0001
0010
0001
1000
0100
0010
0001
1000
0001
0010
0100
1000
0001
0100
0001
1000
,
0100
0010
0001
1000
0001
0010
0100
1000
0010
0100
0001
0010
0001
1000
0100
0010
0001
1000
0001
0010
0100
1000
0001
0100
,
0001
1000
0100
0010
0001
1000
0001
0010
0100
1000
0001
0100
0001
1000
0100
0010
0001
1000
0001
0010
0100
1000
0010
1000
,
0100
0010
0001
0100
0001
0010
0100
1000
0001
1000
0100
0010
0001
1000
0001
0010
0100
1000
0001
0100
0001
1000
0100
0010
,
0001
1000
0001
0010
0001
1000
0100
0010
0001
1000
0001
0010
0100
1000
0001
0100
0001
1000
0100
0010
0001
1000
0001
0010
,
0100
1000
0001
0100
0001
1000
0100
0010
0001
1000
0001
0010
0100
1000
0001
0100
0001
1000
0100
0010
0001
1000
0001
0010
,
0001
1000
0100
0010
0001
1000
0001
0010
0100
1000
0001
0100
0001
1000
0100
0010
0001
1000
0010
1000
0100
0010
0001
0100
,
0001
0000
0010
0000
0100
0000
1000
0000
0001
0000
1000
0000
0100
0000
0010
0000
0001
0000
1000
0000
0100
0000
0010
0000
0002
0000
0000
0000
0000
0000
0000
0000
0000
0003
0000
0000
0001
0000
0000
0010
0000
0000
0001
0000
0000
1000
0000
0000
,
0100
0010
0001
1000
0100
0010
0001
1000
0200
0000
0000
0000
0310
0001
1000
0010
,
0100
0001
1000
0010
0100
0001
1000
0010
0200
0000
0000
0000
0301
0010
0100
0010
,
0001
0010
0100
0010
0001
0010
0100
0010
0002
0000
0000
0000
1003
0100
0010
0100
,
1000
0100
0010
0100
1000
0100
0010
0100
2000
0000
0000
0000
3001
0100
0010
0100
,
0001
0100
0010
0100
0001
0100
0010
0100
0002
0000
0000
0000
1003
0010
0100
0010
,
1000
0010
0100
0010
1000
0010
0100
0010
2000
0000
0000
0000
3001
1000
0010
0100
,
0001
1000
0010
0100
0001
1000
0010
0100
0002
0000
0000
0000
0013
0100
1000
0001
,
0010
0100
1000
0001
0010
0100
1000
0001
0020
0000
0000
0000
0130
1000
0010
0100
,
0001
0010
0100
1000
0001
0100
0010
1000
0200
0000
0000
0000
0310
0001
0100
0001
,
0010
0001
0100
0001
0010
0001
0100
0001
0020
0000
0000
0000
0130
1000
0010
1000
,
0100
1000
0010
1000
0100
1000
0010
1000
0200
0000
0000
0000
0310
0001
1000
0100
,
0010
0001
1000
0100
0010
0001
1000
0100
0020
0000
0000
0000
0031
1000
0010
0100
,
0001
1000
0010
0100
0001
1000
0010
0100
0002
0000
0000
0000
0013
0100
1000
0100
,
0010
0100
1000
0100
0010
0100
1000
0100
0020
0000
0000
0000
0031
0100
0010
0100
,
0001
0100
0010
0100
0001
0100
0010
0100
0002
2003
3020
0230
0302
0203
0302
0023
,
0230
2300
3200
0320
0032
2003
3000
0000
0000
0000
0000
0000
0000
0000
0000
0000
;
