#TITLE:Bokura no 16bit Warz;
#SUBTITLE:;
#ARTIST:sasakure.UK;
#TITLETRANSLIT:;
#SUBTITLETRANSLIT:;
#ARTISTTRANSLIT:;
#CREDIT:;
#BANNER:../bn.png;
#BACKGROUND:../veyron.png;
#LYRICSPATH:;
#CDTITLE:;
#MUSIC:Bokura no 16 bit warz.ogg;
#OFFSET:0.000;
#SAMPLESTART:186.000;
#SAMPLELENGTH:17.660;
#SELECTABLE:YES;
#BPMS:0.000=220.000;
#STOPS:;
#BGCHANGES:;
// cache tags:
#FIRSTBEAT:0.000;
#LASTBEAT:941.000;
#SONGFILENAME:Songs/Cirque du Veyron/Zaia - Bokura no 16bit Warz/Bokura No 16 Bit Warz.sm;
#HASMUSIC:1;
#HASBANNER:1;
#MUSICLENGTH:262.094;
// end cache tags

//---------------dance-single - Zaia----------------
#NOTES:
     dance-single:
     Zaia:
     Challenge:
     18:
     1.000,1.000,0.092,0.084,1.000,2698.000,24.000,22.000,0.000,0.000:
1000
0001
0001
1000
0010
0100
0001
1000
,
0000
0010
0000
0100
0001
0001
1000
0100
,
0010
0100
1000
0001
0000
0010
0000
0001
,
0100
0100
0010
1000
0001
1000
0100
0010
,
0000
0001
0000
0010
0100
0100
1000
0010
,
0100
0001
0100
0010
0000
1000
0000
0001
,
0100
0000
0000
0000
0000
0000
0000
0000
0000
0100
0000
0000
0000
0000
0000
0000
0000
0010
0000
0000
1000
0000
0000
0000
,
0000
0001
0000
0010
0001
0000
0000
0001
,
0000
0000
0000
0000
1000
0000
0000
0010
0000
0000
0000
0000
0000
0000
0000
0100
0000
0000
0000
0000
0000
0001
0000
0000
,
1000
0000
0000
0000
0000
0000
0000
0000
0000
1000
0000
0000
0000
0000
0000
0000
0001
0000
0000
0010
0000
0000
0000
0000
,
0000
0000
0001
0000
0000
0000
1000
0000
0010
0000
0100
0001
0100
0000
0001
0000
,
1000
0001
1000
0000
0100
0000
0010
0000
0100
0000
1000
0001
1000
0000
0001
0100
,
0001
0100
0001
1000
0010
0100
0001
1000
,
0010
0100
0010
1000
0001
0010
0100
0010
,
0001
1000
0001
0010
0100
1000
0100
0010
,
0001
0100
0010
1000
0001
1000
0010
0100
,
0010
1000
0001
0010
0001
1000
0010
1000
,
0001
0100
0010
1000
0010
0100
0001
1000
,
1001
0001
0010
0001
1000
0100
0010
0100
,
1000
0001
0010
0001
1000
0010
0100
0001
,
0100
0010
1000
0001
1000
0010
1000
0100
,
0010
0100
1000
0001
0010
0100
0010
0001
,
1000
0001
0010
0100
1000
0001
1000
0000
,
1000
0000
0000
0000
1000
0000
0010
0100
0001
0000
1000
0000
0010
0000
0100
0001
,
1000
0002
0000
1003
0100
1000
0010
1000
,
0001
0100
0001
0010
0001
1000
0000
0001
,
0000
0100
0000
0010
1000
0001
0000
0100
,
0010
1000
0100
0010
0001
2000
0000
3001
,
0000
0100
0000
0010
1000
0010
1000
0001
,
1000
0100
0000
1000
0001
0010
0001
1000
,
0001
0100
0000
0001
0100
0010
0100
0001
,
1000
0100
0010
0100
1000
0000
0001
0000
0100
0000
0010
1000
0010
0000
0100
0000
,
0001
0100
0010
1000
0001
0100
0001
2000
,
0000
3010
0000
1000
0001
1000
0100
0010
,
0100
1000
0001
0020
0000
0130
0000
1000
,
0001
0100
0001
1000
0010
1000
0001
0200
,
0000
0301
0000
0100
0001
0010
0001
1000
,
0001
0000
0010
0000
0100
0000
2000
0000
0000
0000
3001
0000
0000
0000
1000
0010
,
1000
0001
1000
0001
0100
0001
1000
0200
,
0000
1300
0010
0100
0001
0100
0000
0010
,
0000
0100
0000
0010
0100
0001
1000
0010
,
0100
0001
0100
0010
1000
0000
0010
0100
,
0001
1000
0000
0001
0010
0001
0100
0001
,
1000
0100
0000
1000
0010
1000
0001
1000
,
0100
0010
0000
0001
0100
0100
0001
1000
,
0100
0010
0100
0000
1000
0000
0001
0000
0100
0000
0010
0100
0010
0000
0100
0000
,
0001
1000
0100
1000
0001
1000
0100
0020
,
0000
0130
0000
1000
0001
1000
0010
0100
,
0010
1000
0001
0200
0000
0310
0000
0100
,
0001
1000
0100
0010
0100
1000
0001
2000
,
0000
3100
0000
1000
0001
1000
0010
1000
,
0001
0100
0010
1010
0000
0101
0000
1010
,
0000
0000
0101
0000
0000
0000
1001
0000
0000
0000
1000
0000
0001
1000
0001
1000
,
0001
0100
0010
1000
0010
0100
0001
0010
,
0001
0100
0001
1000
0010
1000
0100
1000
,
0001
0010
0100
0010
0001
1000
0010
0100
,
0001
1000
0001
0010
0001
0100
0001
1000
,
0100
0010
0100
1000
0001
1000
0010
1000
,
0100
1000
0001
0010
0100
0010
0001
1000
,
0010
1000
0001
0010
0001
1000
0100
1000
,
0010
1000
0001
0100
0001
1000
0001
0010
,
0100
0000
1000
0000
0010
0000
0100
0000
0001
1000
0010
0100
0001
0000
1000
0000
,
0010
0100
0001
1000
0010
0100
0001
1000
,
0100
0010
0001
1000
0100
0000
0010
0000
0001
0000
1000
0000
0100
0000
0010
0000
,
0001
0000
1000
0000
0001
0000
1000
0000
0001
1000
0001
0010
0001
1000
0001
0010
,
0001
1000
0010
0100
0001
0100
0010
1000
,
0001
0100
0001
0010
0001
1000
0100
0010
,
0100
0000
1000
0000
0001
0000
1000
0000
0010
1000
0010
0100
0010
1000
0010
0100
,
0010
1000
0001
1000
0010
1000
0001
1000
,
0001
0000
0010
0000
0100
0000
1000
0000
0010
0000
0100
0000
0001
0000
1000
0001
,
1000
0010
0100
0001
1000
0010
0100
0001
1000
0000
0010
0000
1000
0000
0010
0000
,
1000
0001
1000
0010
1000
0001
1000
0010
1000
0000
0001
0000
0100
0000
0001
0000
,
1000
0010
0100
0001
1000
0100
0010
0100
,
1000
0010
1000
0001
1000
0010
1000
0010
,
0000
0000
1000
0001
1000
0001
0000
0000
,
0010
0001
0010
0001
0000
0011
0000
1001
,
0000
1010
0000
0110
0000
0101
0000
1010
,
0000
0000
0000
0000
0000
0000
1001
0000
0000
0000
0000
0000
0000
0000
0000
0000
0110
0000
0000
0000
0000
0000
0000
0000
0000
0000
0000
0000
0000
0000
1000
0000
0000
0010
0000
0000
0100
0000
0000
0001
0000
0000
1000
0000
0000
0010
0000
0000
,
0100
0001
1000
0010
0100
0001
1000
0000
0010
0000
1000
0000
0100
0000
1000
0000
,
0001
1000
0010
1000
0100
0010
0011
0000
,
0001
1000
0010
0100
0001
1000
0100
0010
,
0100
1000
1100
0000
0100
1000
0001
0100
,
0010
1000
0100
0010
0110
0000
0100
0010
,
0001
1000
0001
0100
0010
0100
0010
1000
,
1001
0001
0010
0100
0010
0001
1000
0010
,
0100
0001
0010
0001
1000
0010
0100
0001
,
1000
0100
1000
0001
0010
0100
1000
0001
,
1000
0000
0001
0000
1000
0100
1000
0001
1000
0100
1000
0001
1000
0000
0010
0000
,
0100
0000
0001
0000
1000
0000
0010
0000
1000
0000
0001
0010
0100
0000
1000
0000
,
0100
1000
0001
0010
0001
1000
0010
0100
,
0001
0000
1000
0000
0010
0100
0010
1000
0010
0100
0010
1000
0010
0000
0100
0000
,
0001
0000
1000
0000
0100
0000
0010
0000
0001
0000
1000
0010
0100
0000
0010
0000
,
1000
0001
0010
0100
1000
0001
1000
0010
,
0100
0001
0000
0000
1000
0010
0100
0001
,
0000
0000
0000
0000
1000
0010
0100
0001
1000
0010
0100
0001
1000
0001
0100
0010
,
1000
0001
0100
0001
1000
0010
0100
0001
1000
0010
0100
0010
1000
0001
1000
0001
,
0010
0100
1000
0001
0010
0001
1000
0100
1000
0001
1000
0001
0100
0010
1000
0001
,
0100
0010
0100
0001
1000
0010
0100
0010
1000
0001
1000
0001
1000
0100
0010
0001
,
1000
0100
0010
0100
1000
0001
0010
0100
1000
0001
1000
0001
0100
0010
1000
0010
,
0100
0001
1000
0010
0100
0001
0100
0010
1000
0001
0100
0001
1000
0100
0010
0001
,
1000
0001
0010
0100
1000
0001
0010
0001
1000
0100
1000
0001
1000
0010
0100
0001
,
1000
0001
0100
0010
1000
0001
0100
0001
1000
0010
1000
0001
0100
0001
1000
0010
,
0100
0001
1000
0010
1000
0001
0100
0010
1000
0001
0100
0010
1000
0001
0010
0001
,
1000
0100
1000
0001
0010
0001
1000
0100
0010
0001
1000
0001
1000
0010
0100
0010
,
1000
0001
1000
0010
0100
0010
1000
0001
0100
0001
1000
0001
1000
0100
0010
0100
,
1000
0001
0010
0100
1000
0001
1000
0100
0010
0001
1000
0001
1000
0010
0100
0001
,
0100
0010
1000
0001
0100
0010
1000
0001
0100
0001
1000
0001
1000
0100
1000
0001
,
0010
0100
1000
0001
0010
0001
1000
0001
0010
0100
1000
0001
1000
0001
0010
0100
,
0010
0001
1000
0100
0010
0100
1000
0001
0010
0001
1000
0001
0100
0010
1000
0010
,
0100
0001
1000
0100
0010
0001
0010
0001
1000
0001
0100
0010
1000
0001
1000
0001
,
1000
0001
1000
0001
1000
0001
1000
0001
1000
0001
1000
0001
1000
0001
0010
0100
,
1000
0001
0010
0001
1000
0100
0010
0001
1000
0100
0010
0100
1000
0001
1000
0001
,
0100
0010
1000
0001
0100
0001
1000
0010
1000
0001
1000
0001
0010
0100
1000
0001
,
0010
0100
0010
0001
1000
0100
0010
0100
1000
0001
1000
0001
1000
0010
0100
0001
,
1000
0010
0100
0010
1000
0001
0100
0010
1000
0001
1000
0001
0010
0100
1000
0100
,
0010
0001
1000
0100
0010
0001
0010
0100
1000
0001
0010
0001
1000
0010
0100
0001
,
1000
0001
0100
0010
1000
0001
0100
0001
1000
0010
1000
0001
1000
0100
0010
0001
,
1000
0001
0010
0100
1000
0001
0010
0001
1000
0100
1000
0001
0010
0001
1000
0100
,
0010
0001
1000
0100
1000
0001
0010
0100
1000
0001
0010
0100
1000
0001
0100
0001
,
1000
0010
1000
0001
0100
0001
1000
0010
0100
0001
1000
0001
1000
0100
0010
0100
,
1000
0001
1000
0100
0010
0100
1000
0001
0010
0001
1000
0001
1000
0010
0100
0010
,
1000
0001
0100
0010
1000
0001
1000
0010
0100
0001
1000
0001
1000
0100
0010
0001
,
0010
0100
1000
0001
0010
0100
1000
0001
0010
0001
1000
0001
1000
0010
1000
0001
,
0100
0010
1000
0001
0100
0001
1000
0001
0100
0010
1000
0001
1000
0001
0100
0010
,
0100
0001
1000
0010
0100
0010
1000
0001
0100
0001
1000
0001
0010
0100
1000
0100
,
0010
0001
1000
0010
0100
0001
0100
0010
1000
0001
0100
0010
1000
0001
1000
0001
,
1000
0001
1000
0001
1000
0001
1000
0001
1000
0001
1000
0001
1000
0100
1000
0100
,
1000
0001
1000
0010
1000
0001
1000
0100
0010
0001
1000
0001
1000
0100
1000
0100
,
1000
0001
1000
0010
1000
0001
1000
0100
0010
0001
1000
0001
0100
0001
0100
0001
,
1000
0001
0010
0001
1000
0001
0100
0010
1000
0001
1000
0001
0100
0001
0100
0001
,
1000
0001
0010
0001
1000
0001
0100
0010
1000
0001
1000
0001
0100
0010
1000
0010
,
1000
0001
1000
0100
1000
0001
1000
0010
0100
0001
1000
0001
0100
0010
1000
0010
,
0100
0001
1000
0001
1000
0100
0010
0001
0010
0100
1000
0001
0100
0010
1000
0010
,
1000
0001
1000
0100
1000
0001
1000
0010
0100
0001
1000
0001
0010
0001
0010
0001
,
1000
0001
0100
0001
1000
0001
0010
0100
1000
0001
1000
0001
0010
0001
0010
0001
,
1000
0001
0100
0001
1000
0001
0010
0100
1000
0001
1000
0001
0010
0100
1000
0100
,
1000
0001
1000
0010
1000
0001
1000
0100
0010
0001
1000
0001
1000
0100
1000
0100
,
1000
0001
1000
0010
1000
0001
1000
0100
0010
0001
1000
0001
0100
0000
0001
0000
,
0100
0001
0000
0000
1000
0100
1000
0100
,
0000
0000
1000
0001
1000
0001
0100
0010
,
1000
0100
1000
0001
0100
0001
1000
0010
,
0000
0000
0100
0000
0001
0000
1000
0000
0100
0000
1000
0100
1000
0000
0001
0000
,
1000
0010
0100
0001
0100
0010
0000
1000
,
0000
0000
0001
0000
0000
0000
0010
0000
0000
0000
0100
1000
0001
0000
0100
0000
,
0010
0000
0100
0000
0001
0000
1000
0000
0000
0000
0100
0010
0100
0000
1000
0000
,
0010
0000
0100
0000
0001
0000
1000
0000
0000
0000
0010
0100
0001
0000
0010
0000
,
0100
0000
1000
0000
0010
1000
0010
0000
0100
0000
0001
0000
1000
0000
0001
0010
,
0001
0000
1000
0000
0010
0100
0001
0100
0010
1000
0001
1000
0010
0100
0001
1000
,
0001
0010
0100
1000
0100
0010
0001
1000
0001
1000
0100
0010
0001
1000
0001
1000
,
0001
0100
0010
1000
0010
0100
0001
1000
0001
1000
0010
0100
0001
1000
0001
1000
,
0001
0010
0100
1000
0100
0010
0001
1000
0001
1000
0100
0010
0001
1000
0001
1000
,
0001
0100
0010
1000
0010
0100
0001
1000
0001
1000
0010
0100
0001
1000
0001
1000
,
0001
0010
0100
1000
0100
0010
0001
1000
0001
1000
0001
0000
0000
0000
1000
0000
,
0000
0001
0000
1000
0000
0001
0000
1000
,
0001
0010
0110
0100
1000
0001
0100
0010
,
0100
0001
0010
0100
1100
1000
0100
0010
,
0100
1000
0001
0100
0010
0100
0001
0100
,
0101
0001
1000
0010
1000
0001
0010
0100
,
1000
0100
0110
0010
0001
1001
1000
0010
,
1000
0001
1000
0100
0010
0001
1001
1000
,
0010
0100
0010
1000
0100
0010
0001
0100
,
0020
0000
0000
0000
0000
0000
2030
0000
0000
0000
3001
0100
0001
0000
1000
0000
,
0100
0010
0100
0000
1000
0000
0001
0000
0100
0000
0010
0000
1000
0000
0001
0000
,
1000
0010
1000
0001
1000
0010
1000
0001
1000
0000
0100
0000
0010
0000
0001
0000
,
1000
0000
0010
0000
0100
0000
0001
0000
0100
0001
0100
0010
0100
0001
0100
0010
,
0100
0001
0010
0100
1000
0010
0100
0001
,
0010
0100
0010
0001
0010
0100
0010
0001
0010
0000
0100
0000
1000
0000
0010
0000
,
1000
0000
0001
0000
0010
0000
0100
0000
1000
0100
1000
0001
1000
0100
1000
0001
,
1000
0100
1000
0001
1000
0100
0010
0001
,
0000
0000
1000
0100
0010
0001
0000
0000
,
1000
0100
0010
0001
1000
0100
0010
0001
1000
0001
0010
0100
1000
0001
0010
0001
,
1000
0100
0010
0001
1000
0100
0010
0100
1000
0001
1000
0001
0100
0010
1000
0001
,
0100
0001
1000
0010
1000
0001
1000
0001
0010
0100
1000
0001
0010
0100
0010
0001
,
1000
0100
0010
0100
1000
0001
1000
0001
1000
0010
0100
0001
1000
0010
0100
0010
,
1000
0001
0100
0010
1000
0001
1000
0001
0010
0100
1000
0100
0010
0001
1000
0100
,
0010
0001
0010
0100
1000
0001
0010
0001
1000
0010
0100
0001
1000
0001
0100
0010
,
1000
0001
0100
0001
1000
0010
1000
0001
1000
0100
0010
0001
1000
0001
0010
0100
,
1000
0001
0010
0001
1000
0100
1000
0001
0010
0001
1000
0100
0010
0001
1000
0100
,
1000
0001
0010
0100
1000
0001
0010
0100
1000
0001
0100
0001
1000
0010
1000
0001
,
0100
0001
1000
0010
0100
0001
1000
0001
1000
0100
0010
0100
1000
0001
1000
0100
,
0010
0100
1000
0001
0010
0001
1000
0001
1000
0010
0100
0010
1000
0001
0100
0010
,
1000
0001
1000
0010
0100
0001
1000
0001
1000
0100
0010
0001
0010
0100
1000
0001
,
0010
0100
1000
0001
0010
0001
1000
0001
1000
0010
1000
0001
0100
0010
1000
0001
,
0100
0001
1000
0001
0100
0010
1000
0001
1000
0001
0100
0010
0100
0001
1000
0010
,
0100
0010
1000
0001
0100
0001
1000
0001
0010
0100
1000
0100
0010
0001
1000
0010
,
0100
0001
0100
0001
1000
0001
0010
0100
1000
0001
1000
0001
1000
0001
1000
0001
,
1000
0001
1000
0001
1000
0001
1000
0001
1000
0001
0100
0010
1000
0001
0100
0001
,
1000
0010
0100
0001
1000
0010
0100
0010
1000
0001
1000
0001
0010
0100
1000
0001
,
0010
0001
1000
0100
1000
0001
1000
0001
0100
0010
1000
0001
0100
0010
0100
0001
,
1000
0010
0100
0010
1000
0001
1000
0001
1000
0100
0010
0001
1000
0100
0010
0100
,
1000
0001
0010
0100
1000
0001
1000
0001
0100
0010
1000
0010
0100
0001
1000
0010
,
0100
0001
0100
0010
1000
0001
0100
0001
1000
0100
0010
0001
1000
0001
0010
0100
,
1000
0001
0010
0001
1000
0100
1000
0001
1000
0010
0100
0001
1000
0001
0100
0010
,
1000
0001
0100
0001
1000
0010
1000
0001
0100
0001
1000
0010
0100
0001
1000
0010
,
1000
0001
0100
0010
1000
0001
0100
0001
1000
0100
0010
0001
1000
0100
1000
0001
,
0010
0001
1000
0100
0010
0001
1000
0001
1000
0010
0100
0010
1000
0001
1000
0010
,
0100
0010
1000
0001
0100
0001
1000
0001
1000
0100
0010
0100
1000
0001
0010
0100
,
1000
0001
1000
0100
0010
0001
1000
0001
1000
0010
0100
0001
0100
0010
1000
0001
,
0100
0010
1000
0001
0100
0001
1000
0001
1000
0100
1000
0001
0010
0100
1000
0001
,
0010
0001
1000
0001
0010
0100
1000
0001
1000
0001
0010
0100
0010
0001
1000
0100
,
0010
0100
1000
0001
0010
0001
1000
0001
0100
0010
1000
0010
0100
0001
1000
0100
,
0010
0001
0010
0100
1000
0001
0010
0100
1000
0001
1000
0001
1000
0001
1000
0001
,
1000
0001
1000
0001
1000
0001
1000
0001
1000
0010
0100
0001
0100
0010
1000
0001
,
0100
0010
1000
0001
1000
0100
0010
0001
0010
0100
1000
0001
1000
0001
0010
0100
,
1000
0001
1000
0001
1000
0010
0100
0001
0100
0010
1000
0001
1000
0001
0100
0010
,
1000
0001
1000
0001
1000
0100
0010
0001
0010
0100
1000
0001
1000
0001
0010
0100
,
1000
0001
1000
0001
1000
0010
0100
0001
0100
0010
1000
0001
1000
0001
0100
0010
,
1000
0001
1000
0001
1000
0100
0010
0001
0010
0100
1000
0001
1000
0001
0010
0100
,
1000
0001
1000
0001
1000
0010
0100
0001
0100
0010
1000
0001
1000
0001
0100
0010
,
1000
0001
1000
0001
1000
0100
0010
0001
0010
0100
1000
0001
1000
0001
0010
0100
,
1000
0001
1000
0001
1000
0010
0100
0001
0100
0010
1000
0001
1000
0001
0100
0010
,
1000
0001
1000
0001
1000
0100
0010
0001
0010
0100
1000
0001
1000
0001
0010
0100
,
1000
0001
1000
0001
1000
0010
0100
0001
0100
0010
1000
0001
1000
0001
0100
0010
,
1000
0001
1000
0001
1000
0100
0010
0001
0010
0100
1000
0001
1000
0001
0010
0100
,
1000
0001
1000
0001
1000
0010
0100
0001
0100
0010
1000
0001
1000
0001
0100
0010
,
1000
0001
1000
0001
1000
0100
0010
0001
0010
0100
1000
0001
1000
0001
0010
0100
,
1000
0001
1000
0001
1000
0010
0100
0001
0100
0010
1000
0001
1000
0001
0010
0100
,
1000
0100
0010
0001
1000
0001
1000
0001
0100
0010
1000
0001
1000
0010
0100
0001
,
1000
0001
0100
0001
1000
0010
1000
0001
0200
0000
0000
0000
0000
0000
0302
0000
,
0000
2003
3200
0000
,
0320
0000
0032
0000
2003
0000
0000
3020
,
0000
0230
0302
0003
,
1000
0100
0010
0001
0010
0100
1000
0001
0010
0001
1000
0010
0100
0010
1000
0001
,
1000
0100
0010
0001
0010
0100
1000
0001
0100
0010
0100
0001
1000
0010
0100
0001
,
1000
0100
0010
0001
0010
0100
1000
0001
0100
0001
1000
0010
0100
0010
1000
0001
,
1000
0100
0010
0001
0010
0100
1000
0001
0100
0010
1000
0010
0100
0001
1000
0001
,
1000
0100
0010
0001
0010
0100
1000
0001
0100
0001
1000
0010
0100
0010
1000
0001
,
1000
0100
0010
0001
0010
0100
1000
0001
1000
0000
0010
0100
0001
0000
0010
0100
,
1000
0000
0010
0100
0001
0000
0010
0100
1000
0001
0100
0010
1000
0010
0100
0001
,
1000
0001
0010
0100
0010
0001
1000
0100
1000
0001
0100
0010
1000
0010
0100
0001
,
1000
0100
1000
0001
0010
0100
0010
0001
1000
0001
0100
0010
1000
0010
0100
0001
,
1000
0001
0010
0100
0010
0001
1000
0010
0100
0001
0100
0010
1000
0010
0100
0000
,
0000
0000
0000
0000
0001
0100
0010
1000
0010
0100
0001
0000
0000
0000
0000
0000
,
1000
0100
0010
0001
0010
0100
1000
0000
0000
0000
0000
0000
0001
0100
0010
1000
,
0001
1000
0001
0100
0010
1000
0001
1000
0001
0100
0010
1000
0001
1000
0001
0100
,
0010
1000
0010
0100
0001
0000
0000
0000
0000
0000
0000
0000
0000
0000
0000
0000
;
