#TITLE:Arrival;
#SUBTITLE:Halo 4 Original Soundtrack;
#ARTIST:Neil Davidge;
#TITLETRANSLIT:;
#SUBTITLETRANSLIT:;
#ARTISTTRANSLIT:;
#CREDIT:Cescorage & owenviau1;
#BANNER:BN.PNG;
#BACKGROUND:BG.PNG;
#LYRICSPATH:Halo 4 OST - Arrival.lrc;
#CDTITLE:../ov1_title.png;
#MUSIC:Halo 4 OST - Arrival.mp3;
#OFFSET:-0.503;
#SAMPLESTART:139.197;
#SAMPLELENGTH:29.999;
#SELECTABLE:YES;
#DISPLAYBPM:50.000:110.000;
#BPMS:0.000=55.040,5.000=55.039,6.000=55.040,13.000=55.039,14.000=55.040,21.000=55.039,22.000=55.040,28.000=55.039,29.000=55.040,36.000=55.039,37.000=55.040,43.000=55.039,44.000=55.040,47.000=55.039,48.000=55.040,51.000=55.039,52.000=55.040,55.000=55.039,56.000=55.040,59.000=55.039,60.000=55.040,63.000=55.039,64.000=55.040,67.000=55.039,68.000=55.040,71.000=55.039,72.000=55.040,75.000=55.039,76.000=55.040,79.000=55.039,80.000=55.040,83.000=55.039,84.000=55.040,144.000=110.080,176.000=55.040,272.000=50.000;
#STOPS:;
#BGCHANGES:;
// cache tags:
#FIRSTBEAT:0.000;
#LASTBEAT:305.750;
#SONGFILENAME:Songs/owenviau1 Simfiles 5/Arrival - [owenviau1] v1.3/Arrival.sm;
#HASMUSIC:1;
#HASBANNER:1;
#MUSICLENGTH:334.053;
// end cache tags

//---------------dance-single - ----------------
#NOTES:
     dance-single:
     :
     Hard:
     8:
     0.418,0.618,0.844,0.383,0.263,568.000,282.000,128.000,97.000,5.000:

0200
0000
0000
0000
,
0020
0000
0000
0000
0000
0000
0000
0000
0000
0000
0000
0000
0000
0000
0000
0300
,
2000
0000
0000
0000
0000
0000
0000
0000
0000
0000
0000
0000
0000
0000
0000
0030
,
0002
0000
0000
0000
0000
0000
0000
0000
0000
0000
0000
0000
0000
0000
0000
3000
,
0200
0000
0000
0000
0000
0000
0000
0000
0000
0000
0000
0000
0000
0000
0000
0003
,
0020
0000
0000
0000
0000
0000
0000
0000
0000
0000
0000
0000
0000
0000
0000
0300
,
2000
0000
0000
0000
0000
0000
0000
0000
0000
0000
0000
0000
0000
0000
0000
0030
,
0002
0000
0000
0000
0000
0000
0000
0000
0000
0000
0000
0000
0000
0000
0000
3003
,
1001
0001
1000
0001
0100
0001
0100
0001
,
0100
0010
0100
0010
1000
0010
1000
0010
,
1001
0001
1010
0001
0101
1000
0110
0001
,
0110
1000
1001
0100
1010
0001
1100
0010
,
1001
0010
1010
0100
1001
0010
0110
1000
,
1100
0001
0011
0100
0110
1000
1001
0010
,
1100
0001
1010
1000
0101
0001
0110
1000
,
1001
0010
1100
0001
1010
0100
0011
1000
,
0020
0000
0000
0000
0000
0000
0000
0000
0200
0000
0000
0000
0000
0000
0000
0030
,
2000
0000
0000
0300
0002
0000
0000
3000
0020
0000
0000
0003
0200
0000
0000
0030
,
2000
0000
0000
0000
0000
0000
0000
0300
0002
0000
0000
0000
0000
0000
0000
3000
,
0200
0003
0020
0300
2000
0030
0002
3000
0020
0000
0000
0003
2000
0030
0200
3000
,
1301
0100
0011
1000
0101
0010
0110
0001
,
0101
1000
1010
0001
1100
0001
0110
1000
,
0011
0100
1001
0100
1010
0001
1100
0010
,
1001
0100
1001
0010
1100
0001
0011
1000
,
0110
0001
0011
1000
1100
0001
0110
1000
,
0110
0100
1001
0001
0110
1000
0011
0100
,
1100
0010
0011
1000
0110
0001
1010
0100
,
1001
0010
0011
1000
0101
0010
1010
0100
,
1001
0010
1100
0001
0110
1000
0011
0100
,
1001
0010
0110
0001
0011
1000
1100
0010
,
1001
0100
0110
1000
0011
0001
1100
0010
,
1001
1000
0110
0010
0101
1000
1010
0001
,
1100
1100
1100
1100
1100
0000
0000
0000
0110
0000
0000
0000
0001
0000
0000
0000
1001
1001
1001
1001
1001
0000
0000
0000
1010
0000
0000
0000
0001
0000
0000
0000
,
0110
0110
0110
0110
0110
0000
0000
0000
1100
0000
0000
0000
0001
0000
0000
0000
1100
0110
0011
0110
1100
0000
0000
0000
1001
0000
0000
0000
0100
0000
0000
0000
,
1001
0110
1001
0110
1001
0000
0000
0000
0101
0000
0000
0000
0010
0000
0000
0000
1100
1010
0101
1001
1100
0000
0000
0000
1010
0000
0000
0000
0001
0000
0000
0000
,
1100
0101
1010
0110
0011
0000
0000
0000
1001
0000
0000
0000
0100
0000
0000
0000
1001
0101
0110
1010
0110
0000
0000
0000
0101
0000
0000
0000
1000
0000
0000
0000
,
1001
0001
0110
0100
1001
0001
0110
0010
,
1100
0100
1001
1000
0110
0010
0101
0100
,
1001
0001
0110
0100
1010
0010
1001
1000
,
0110
0010
0101
0100
0011
0001
0110
0100
,
1010
0010
1001
0001
0110
0100
0011
0001
,
1100
0100
1010
0010
1001
1000
0011
0001
,
0110
0010
1100
0100
0011
0010
1001
1000
,
0110
0100
0011
0010
1100
1000
0110
0010
,
2001
0000
0000
0000
0020
0000
0000
3000
0200
0000
0000
0030
2000
0000
0000
0300
,
0002
0000
0000
0000
0000
3000
0020
0003
2000
0000
0000
0000
0000
3000
0200
0030
,
0002
0000
0000
0000
0000
0000
0000
0300
0020
0000
0000
0003
2000
0000
0000
0030
,
0002
0000
0000
0000
0000
0000
0000
0000
0000
0000
0000
0000
0000
0000
0000
0000
0000
0000
0000
0000
0000
0000
0000
0000
0000
0000
0000
0000
0000
0000
0000
0000
0000
0000
0000
0000
0000
0000
0000
0000
0000
0000
0000
0000
0000
0000
0000
0000
0000
0000
0000
0000
0000
0000
0000
0000
0000
0000
0000
0000
3000
0000
0000
0000
0000
0000
0000
0000
0000
0000
0000
0000
0200
0000
0000
0000
0000
0000
0000
0000
0000
0000
0000
0000
0000
0000
0000
0000
0000
0000
0000
0000
0000
0000
0000
0000
20M0
00M0
00M0
00M0
00M0
00M0
00M0
00M0
00M0
00M0
00M0
00M0
00M0
00M0
00M0
00M0
00M0
00M0
00M0
00M0
00M0
00M0
00M0
00M0
00M0
00M0
00M0
00M0
00M0
00M0
00M0
00M0
00M0
00M0
00M0
00M0
00M0
00M0
00M0
00M0
00M0
00M0
00M0
00M0
00M0
00M0
00M0
00M0
00M0
00M0
00M0
00M0
00M0
00M0
00M0
00M0
00M0
00M0
00M0
00M0
00M0
00M0
00M0
00M0
00M0
00M0
00M0
00M0
00M0
00M0
00M0
00M0
00M3
00M0
00M0
00M0
00M0
00M0
00M0
00M0
00M0
00M0
00M0
00M0
00M0
00M0
00M0
00M0
00M0
00M0
00M0
00M0
00M0
00M0
00M0
00M0
,
33M1
1000
0001
1000
0001
0100
0001
0100
0002
0000
0000
0000
0000
0000
0000
0000
2000
0000
0000
0000
0000
0000
0003
0000
0020
0000
0000
0000
0000
0000
3000
0000
,
0200
0000
0000
0000
0000
0030
0002
0000
0000
0000
0000
0000
0000
0300
0020
0003
,
0200
0000
0000
0000
0000
0000
0000
0030
0002
0000
0000
0300
2000
0000
0000
0003
,
0002
0000
0000
0000
0000
3000
0020
0000
0000
0000
0000
0000
0000
0000
0000
0000
,
1033
0100
0010
0001
0010
0100
1000
0100
0020
0000
0000
0000
0002
0000
0030
0000
0200
0000
0000
0000
0000
0000
0003
0000
2000
0000
0000
0000
0000
0000
0300
0000
,
0002
0000
0000
0000
0000
3000
0020
0000
0000
0000
0000
0000
0000
0000
0000
0003
,
0200
0000
0000
0030
2000
0300
0200
3000
0020
0000
0000
0300
2000
0000
0000
0030
,
0002
0000
0000
0000
0000
3000
0000
0000
0000
0000
0000
0000
2000
0000
0000
0000
,
3113
1001
1010
0101
1001
1001
0110
0110
,
0011
0011
1100
1100
0110
0011
1100
0110
,
1001
0110
0101
0011
0110
1010
1100
1001
,
0110
0101
1001
0110
1100
1001
0110
0101
,
1001
1001
1001
1001
1001
0000
0000
0000
0110
0000
0000
0000
0001
0000
0000
0000
1010
1010
1010
1010
1010
0000
0000
0000
0101
0000
0000
0000
1000
0000
0000
0000
,
0110
0110
0110
0110
0110
0000
0000
0000
1100
0000
0000
0000
0001
0000
0000
0000
1100
0110
0011
0110
1100
0000
0000
0000
1001
0000
0000
0000
0100
0000
0000
0000
,
1001
0110
1001
0110
1001
0000
0000
0000
0101
0000
0000
0000
0010
0000
0000
0000
1100
1010
0101
1001
1100
0000
0000
0000
1010
0000
0000
0000
0001
0000
0000
0000
,
1100
0101
1010
0110
0011
0000
0000
0000
1001
0000
0000
0000
0100
0000
0000
0000
1001
0101
0110
1010
0110
0000
0000
0000
0101
0000
0000
0000
0010
0000
0000
0000
,
1100
1100
1100
1100
1100
0000
0000
0000
0110
0000
0000
0000
0001
0000
0000
0000
1001
1001
1001
1001
1001
0000
0000
0000
1010
0000
0000
0000
0001
0000
0000
0000
,
0110
0110
0110
0110
0110
0000
0000
0000
1100
0000
0000
0000
0001
0000
0000
0000
1100
0110
0011
0110
1100
0000
0000
0000
1001
0000
0000
0000
0100
0000
0000
0000
,
1001
0110
1001
0110
1001
0000
0000
0000
0101
0000
0000
0000
0010
0000
0000
0000
1100
1010
0101
1001
1100
0000
0000
0000
1010
0000
0000
0000
0001
0000
0000
0000
,
1100
0101
1010
0110
0011
0000
0000
0000
1001
0000
0000
0000
0100
0000
0000
0000
1001
0101
0110
1010
0110
0000
0000
0000
0101
0000
0000
0000
1000
0000
0000
0000
,
2000
0000
0200
3000
0020
0300
0002
0030
2000
0003
0020
3000
0200
0030
0002
0300
,
2000
0003
0200
3000
0002
0300
0020
0003
0200
0030
0002
0300
2000
0003
0020
3000
,
0200
0030
0002
0300
2000
0003
0020
3000
0200
0030
0002
0300
2000
0003
0200
3000
,
0020
0300
0002
0030
0200
0003
0020
0300
2000
0030
0002
3000
0200
0003
0002
0300
,
0020
0003
0200
0030
2000
0300
0020
3000
2000
0030
0200
3000
0020
0300
0002
0030
,
2000
0003
0020
3000
0200
0030
0002
0300
2000
0003
0200
3000
0020
0300
0002
0030
,
2000
0003
0020
3000
2000
0030
0200
3000
0020
0300
0002
0030
0200
0003
2000
0300
,
0200
3000
0002
0300
0020
0003
2000
0030
0020
3000
0200
0030
0002
0300
0020
0003
,
0002
0030
0200
0003
0020
0300
0000
0030
0000
0000
0000
0000
0000
0000
0000
0000
;

//---------------dance-single - ----------------
#NOTES:
     dance-single:
     :
     Challenge:
     12:
     0.788,0.927,1.000,0.332,1.000,1215.000,516.000,111.000,0.000,57.000:


0200
0000
0000
0000
,
0020
0000
0000
0000
0000
0000
0000
0000
0000
0000
0000
0000
0000
0000
0000
0300
,
2000
0000
0000
0000
0000
0000
0000
0000
0000
0000
0000
0000
0000
0000
0000
0030
,
0002
0000
0000
0000
0000
0000
0000
0000
0000
0000
0000
0000
0000
0000
0000
3000
,
0200
0000
0000
0000
0000
0000
0000
0000
0000
0000
0000
0000
0000
0000
0000
0003
,
0020
0000
0000
0000
0000
0000
0000
0000
0000
0000
0000
0000
0000
0000
0000
0300
,
2000
0000
0000
0000
0000
0000
0000
0000
0000
0000
0000
0000
0000
0000
0000
0030
,
0002
0000
0000
0000
0000
0000
0000
0000
0000
0000
0000
0000
0000
0000
0000
3003
,
1001
0001
1000
0001
0100
0001
0100
0001
,
0100
0010
0100
0010
1000
0010
1000
0010
,
1001
0000
0101
0000
0001
0000
1100
0000
1000
0000
0001
0000
1001
0000
0000
0000
0101
0000
1001
0000
0001
0000
1100
0000
0100
0000
0010
0000
0101
0100
0101
0000
,
0110
0000
0100
0000
0010
0000
1100
0000
0100
0000
0010
0000
0110
0000
0000
0000
1010
0000
1100
0000
0010
0000
0011
0000
1000
0000
0100
0000
1010
0010
1010
0000
,
0110
0000
0000
0000
0010
0000
0100
0000
0110
0010
0010
0010
0110
0000
0000
0000
1010
0000
0000
0000
0011
0000
0110
0000
1010
0000
0100
0100
0110
0000
0001
0000
,
1001
0000
0000
0000
0001
0000
0001
0000
1000
1000
1000
1000
1001
0000
0000
0000
0101
0000
0000
0000
0001
0000
0110
0100
0110
0000
0011
0001
0011
0010
0110
0000
,
1100
0000
0101
0000
0010
0000
1000
0000
0100
0100
0100
0100
0110
0000
1010
0000
1100
0000
0101
0000
0010
0000
0010
0010
1010
0000
0100
0100
0110
0100
0100
0000
,
1001
0000
1100
0000
0001
0000
0100
0000
1000
0010
0010
0010
0101
0010
0010
0010
0101
0000
0100
0000
0001
0000
0110
0100
0110
0000
0001
0001
0101
0001
0101
0000
,
0201
0000
0001
0000
1000
0000
0001
0000
1000
0000
0010
1000
1000
0010
0010
0010
1320
0000
0001
0000
1000
0000
0001
0000
0100
0000
0001
0001
1000
1000
1000
1000
,
2031
0000
0000
0000
0000
0000
0001
0001
3012
0000
0010
0010
0100
0100
0100
0100
0213
0000
0000
0000
0000
0000
0010
0010
1320
0000
0100
0100
1000
1000
1000
1000
,
2130
0000
0000
0000
0000
0000
0000
0000
0000
0000
0100
0100
0001
0001
0001
0001
3012
0000
0000
0000
0000
0000
0010
0010
0010
0000
0100
0100
0100
1000
1000
1000
,
1103
0000
0000
0000
0001
0000
0000
0000
1100
0100
0100
0100
0101
0001
0001
0001
0201
0000
0000
0000
0000
0000
0010
0010
1320
0100
0100
0001
0001
0100
0100
0100
,
1130
0000
0000
0000
0110
0000
0011
0000
1100
0000
0010
0010
0110
0100
0100
0100
1010
0000
0000
0000
0011
0000
0110
0000
1010
0000
0010
0010
0110
0100
0100
0100
,
1001
0000
0000
0000
0101
0000
1001
0000
1100
0000
0001
0001
0101
1000
1000
1000
1100
0000
0000
0000
0011
0000
0101
0000
0110
0000
1000
1000
1001
0001
0001
0001
,
0101
0000
0000
0000
0011
0000
1100
0000
0011
0000
1000
1000
1010
0010
0010
0010
0011
0000
0000
0000
0011
0000
0110
0000
1010
0000
0010
0010
0110
0100
0100
0100
,
1001
0000
0000
0000
0101
0100
0110
0000
1100
0000
0110
0000
0101
0100
0100
0100
1100
0000
0000
0000
0101
0001
0101
0000
0110
0000
0011
0001
0011
0010
0010
0010
,
0110
0000
0000
0000
0011
0010
0011
0000
1001
0000
0011
0000
0110
0010
0010
0010
1010
0000
0000
0000
0110
0010
0110
0000
1001
0000
0110
0100
0110
0100
0100
0100
,
1100
0000
0000
0000
0101
0001
0101
0000
1100
0000
0101
0000
0011
0001
0001
0001
0101
0000
0000
0000
0011
0010
0011
0000
1100
0000
0011
0001
1001
0001
0001
0001
,
0101
0000
0000
0000
0110
0100
0110
0000
1100
0000
0110
0000
1010
1000
1000
1000
1001
0000
0000
0000
0110
0100
0110
0000
1100
0000
0110
0010
0110
0010
0010
0010
,
1010
0000
0000
0000
0101
0100
0101
0000
0110
0000
1010
0010
1010
0100
0100
0100
0110
0000
0000
0000
0011
0010
0011
0000
1010
0000
0011
0010
0011
0001
0001
0001
,
0201
0000
0000
0000
0001
0001
0001
0000
0312
0000
0010
0010
0010
1000
1000
1000
2103
0000
0000
0000
0010
0010
0010
0000
0001
0000
0010
0010
0010
0100
0100
0100
,
3210
0000
0000
0000
1000
1000
1000
0000
0302
0000
1000
1000
1000
0010
0010
0010
0123
0000
0000
0000
0001
0001
0001
0000
0100
0000
0001
0001
0001
0100
0100
0100
,
1230
0000
0000
0000
0010
0010
0010
0000
1000
0000
0010
0010
0010
1000
1000
1000
2310
0000
0000
0000
0100
0100
0100
0000
3102
0000
0100
0100
0100
0010
0010
0010
,
1023
0000
0000
0000
0001
0001
0001
0000
1000
0000
0001
0001
0001
0100
0100
0100
0231
0000
0000
0000
0001
0001
0001
0000
1000
0000
0001
0001
0001
0010
0310
0010
,
0110
0110
0110
0110
0110
0000
0000
0000
0100
0000
0000
0000
1010
0000
0000
0000
1010
1010
1010
1010
1010
0000
0100
0000
1100
0000
0100
0000
0101
0000
0100
0000
,
1001
1001
1001
1001
1001
0000
0000
0000
1000
0000
0000
0000
0101
0000
0000
0000
0101
0101
0101
0101
0101
0000
0100
0000
1100
0000
1000
0000
0101
0000
0100
0000
,
0110
0110
0110
0110
0110
0000
0000
0000
0100
0000
0000
0000
1010
0000
0000
0000
1010
1010
1010
1010
1010
0000
1000
0000
1100
0000
0100
0000
0011
0000
0001
0000
,
1001
1001
1001
1001
1001
0000
0000
0000
1000
0000
0100
0000
0101
0000
0001
0000
0101
0101
0101
0101
0101
0000
0100
0000
0110
0000
1000
0000
1001
0000
0100
0000
,
0110
0001
0110
1000
0110
0001
0110
0100
1010
0001
1010
0100
1010
1010
1010
0100
,
1001
0010
1001
0100
1001
0010
1001
1000
0101
0010
0101
1000
0101
0101
0101
1000
,
0110
0001
0110
1000
0110
0001
0110
0100
1010
0001
1010
0100
1010
1010
1010
0100
,
1001
0010
1001
0100
1001
0010
1001
1000
0101
0010
0101
1000
0101
0101
0101
1000
,
0110
0001
0110
1000
0110
0001
0110
0100
1010
0001
1010
0100
1010
1010
1010
0100
,
1001
0010
1001
0100
1001
0010
1001
0010
0101
1000
0101
0010
0101
0101
0101
1000
,
0110
0001
0110
1000
0110
0001
0110
0100
1010
0001
1010
0100
1010
1010
1010
0100
,
1001
0100
1001
0010
1001
0100
1001
0010
0101
1000
0101
0010
0101
0101
0101
0010
,
0202
0000
0020
0303
2000
0030
0002
3000
,
0200
0003
0000
0320
2000
0000
0000
3032
,
0200
0003
0000
0320
2000
0030
0002
3000
,
0020
0000
0003
0000
0000
0000
0200
0000
0002
0000
0000
0000
0000
0000
0000
0333
,
1010
1000
0100
1000
0010
1000
0100
1000
0200
0010
0001
0010
1000
0010
0001
0010
1320
0100
1000
0100
0001
0100
1000
0100
2130
0100
0010
0100
0001
0100
0010
0100
,
3012
1000
0100
1000
0010
1000
0100
1000
0203
0010
1000
0010
0302
1000
0010
1000
0200
0010
1000
0010
1000
0010
1000
0010
1000
0010
1000
0010
1313
1010
1010
1010
,
1002
1000
0100
1000
0010
1000
0100
1000
0203
0010
1000
0010
0001
0010
1000
0010
1302
0010
1000
0010
0100
0010
1100
0010
0203
1000
0010
1000
0001
1000
0010
1000
,
0321
0100
0001
0100
1000
0100
0001
0100
2030
0100
0001
0100
3002
0010
1000
0010
1203
0010
1000
0010
0001
0010
1001
0010
0301
0010
1000
0010
0101
0001
0001
0001
,
0011
0100
0001
0100
2000
0100
0001
3100
0020
0001
1000
0001
0230
0001
1000
0010
0312
0010
1000
0010
0100
0010
1000
0010
0203
0010
1000
0010
0001
0010
1000
0001
,
1320
0001
0100
0001
1000
0001
0100
0001
1000
0001
0100
0001
2130
0100
0010
0100
3102
0100
0010
0100
1000
0100
0010
0100
0010
0100
1000
0100
1000
1000
1000
1000
,
2013
0010
0100
0001
0010
0001
0100
0001
3020
0001
1000
0001
1230
0001
1000
0010
1302
0010
1000
0010
0100
0010
1000
0010
2003
0001
0100
0001
0010
0001
0100
0001
,
0010
0001
0100
0001
0010
0001
0100
0001
0210
0000
0000
0000
0010
0000
0000
0000
0021
0000
0000
0000
0001
0000
0000
0000
0002
0000
0000
0003
3331
0000
0000
0000
,
1001
0000
0001
0000
1000
0110
0101
1001
1100
0000
1010
0101
1000
0011
0110
1100
,
0101
0000
0000
0000
0011
0000
1100
0000
0001
0000
0000
0000
0011
0000
0110
0000
1010
0000
0000
0000
1010
1000
1010
0000
1000
0000
0110
0001
0110
0000
1100
0000
,
1001
0000
0110
0101
1000
0000
0101
0110
1100
0000
0110
1100
0001
0000
0011
1100
,
1010
0000
0000
0000
0101
0000
0011
0000
1000
0000
0000
0000
0101
0000
0110
0000
1010
0000
0000
0000
1100
0000
1010
0000
0001
0000
1001
1001
0110
0000
0110
0000
,
0011
0101
0110
1100
1001
0000
1001
0000
1000
0000
1100
0000
0011
0000
1010
0000
0101
1100
0110
0011
1010
0000
1010
0000
0100
0000
0110
0000
0011
0000
1100
0000
,
0110
0101
1100
1001
1010
0000
1010
0000
0100
0000
0000
0000
1100
0000
0101
0000
1010
0011
0110
1100
0101
0000
0101
0000
0001
0000
0011
0011
0110
1010
1010
0000
,
0101
0110
1100
0011
1001
0000
1001
0000
0010
0000
0011
0000
1001
0000
1010
0000
1100
1010
0101
0011
0110
0000
0110
0000
0100
0000
0000
0000
0101
0000
1100
0000
,
0110
1100
0101
1010
0011
0000
0011
0000
0100
0000
0000
0000
0011
0000
0110
0000
0011
0110
1100
0101
1010
0000
1010
0000
1000
0000
0101
0000
0110
0000
1100
0000
,
1001
1001
1001
1001
1001
0010
0101
1000
0101
0010
1100
0001
0110
0110
0110
1000
,
0110
0110
0110
0110
0110
1000
0101
0010
1010
0100
0011
0010
1100
1100
1100
0010
,
1100
1100
1100
1100
1100
0010
1001
0010
1100
0001
1010
0010
0101
0101
0101
1000
,
0101
0101
0101
0101
0101
0010
1100
0001
1010
0100
0011
0100
1010
1010
1010
0001
,
1010
1010
1010
1010
1010
0100
1001
0100
0011
1000
0110
1000
0011
0011
0011
0100
,
0011
0011
0011
0011
0011
1000
0110
0001
1010
0001
0110
0100
1001
1001
1001
0010
,
1001
1001
1001
1001
1001
0100
0011
1000
0101
0010
1010
0001
0110
0110
0110
1000
,
0110
0110
0110
0110
0110
0001
1010
0100
0011
0100
1001
1001
1001
0010
1001
0010
,
2001
0000
3002
0000
2000
0003
0020
3000
0200
0030
0002
0300
0020
0003
0200
0030
,
2000
0300
0020
3000
0200
0030
0002
0300
0020
0003
0002
0030
0020
0003
0200
0030
,
2000
0000
0302
3000
0200
0003
0020
0300
2000
0030
0200
3000
2000
0300
0200
3000
,
0020
0300
2000
0030
0020
3000
2000
0030
0200
3000
0002
0300
0020
0003
0200
0030
,
2000
0000
0302
3000
0200
0003
0000
0300
0000
0000
0000
0000
0000
0000
0000
0000
;
