#TITLE:Feedback;
#SUBTITLE:;
#ARTIST:Audio Highs;
#TITLETRANSLIT:;
#SUBTITLETRANSLIT:;
#ARTISTTRANSLIT:;
#CREDIT:;
#BANNER:feedback-banner.png;
#BACKGROUND:feedback-bg.png;
#LYRICSPATH:;
#CDTITLE:;
#MUSIC:31.Feedback.mp3;
#OFFSET:-2.140;
#SAMPLESTART:42.859;
#SAMPLELENGTH:12.000;
#SELECTABLE:YES;
#BPMS:0.000=140.000;
#STOPS:;
#BGCHANGES:;
// cache tags:
#FIRSTBEAT:8.000;
#LASTBEAT:262.000;
#SONGFILENAME:Songs/Ace Megapack/Feedback/Feedback.sm;
#HASMUSIC:1;
#HASBANNER:1;
#MUSICLENGTH:120.241;
// end cache tags

//---------------dance-single - ----------------
#NOTES:
     dance-single:
     :
     Hard:
     10:
     0.931,0.844,0.607,0.000,1.000,711.000,73.000,0.000,0.000,0.000:
0000
0000
0000
0000
,
0000
0000
0000
0000
,
1000
0000
0010
0000
0100
0000
0001
0000
0000
0001
0000
1000
0100
0000
0000
0010
,
0001
0000
1000
0000
0010
0000
0000
0000
0100
0000
0010
0000
1000
0000
0100
0000
0010
0000
0001
0000
1000
0000
0010
0000
0100
0000
0001
0000
1000
0010
0100
0001
,
1000
0000
0100
0000
1100
0000
0010
0000
0001
0000
1000
0010
0100
0010
1000
0000
,
0001
0000
1000
0000
1001
0000
0001
0000
0100
0010
1000
0100
0010
0001
1000
0000
,
0010
0000
0100
0000
0110
0000
0100
0000
0001
0000
1000
0100
0010
0001
0100
0000
,
0010
1000
0000
1000
0100
1000
0010
0100
0001
0000
1000
0010
0100
0001
1000
0100
,
0010
0000
0001
0000
0011
0000
0010
0000
0100
0000
1000
0010
0100
0001
1000
0000
,
0100
0000
1000
0000
1001
0000
0001
0000
0100
0010
0100
0001
1000
0100
0010
0000
,
0110
0000
0001
0000
0011
0000
0001
0000
1000
0000
0010
0100
0010
1000
0001
0000
,
1001
0000
0001
1000
0001
0000
1000
0100
1000
0000
0010
1000
0100
0010
0001
1000
,
0010
0000
0100
0010
1000
0000
1010
0000
0100
0000
0001
1000
0100
0010
0001
0000
,
0011
0000
0000
0000
0001
0000
1001
0000
1000
0000
0010
1000
0100
0010
0001
0000
,
0011
0000
0001
0010
0100
0000
0110
0000
0100
0000
1000
0010
0100
0001
0100
0000
,
0101
0000
0000
0000
0010
0000
1010
0000
1000
0000
0100
1000
0010
0100
0001
0000
,
0101
0000
0001
0100
0010
0000
0110
0000
0010
0000
1000
0001
0100
0010
0100
0000
,
0110
0000
0000
0000
0100
0000
0101
0000
0001
0000
1000
0001
0100
0010
1000
0000
,
1010
0000
1000
0010
0100
0000
0110
0000
0100
0000
0001
1000
0001
0100
0001
0000
,
0101
0000
0000
0000
0010
0000
1010
0000
1000
0000
0100
1000
0010
1000
0100
0000
,
1000
0001
0100
0000
0010
1000
0100
0010
0001
1000
0001
0100
0010
1000
0100
0010
,
0001
0100
0000
0000
0010
0000
1000
0000
0100
0000
0000
0000
1100
0000
0000
0000
0010
0000
0000
0000
0001
0000
0010
0000
0100
0000
1000
0000
0010
0000
0000
0000
,
1010
0000
0100
0000
0101
0000
1001
0000
1000
0010
0100
0010
1000
0100
0010
0000
,
0110
0000
0010
0001
0100
0000
0101
0000
0010
0000
1000
0010
0100
0010
1000
0000
,
1010
0000
0100
0000
0101
0000
1001
0000
0001
1000
0100
0010
0100
1000
0010
0000
,
1010
0000
0100
0010
1000
0000
1010
0000
1000
0000
0100
0010
0001
0100
0010
0000
,
0110
0000
0100
0000
0101
0000
1001
0000
1000
0010
0100
0010
1000
0100
0010
0000
,
0011
0000
0001
0010
0100
0000
0110
0000
0100
0000
1000
0001
0100
0001
1000
0000
,
1001
0000
0001
1000
0010
0000
0100
0010
1000
0100
0010
0001
0100
0010
1000
0001
,
1000
0010
0000
0000
0100
0000
0000
0000
0110
0000
0000
0000
0100
0000
0000
0000
0001
0000
0000
0000
1000
0000
0010
0000
1000
0000
0100
0000
1000
0000
0000
0000
,
0010
0000
0100
0000
0101
0000
1010
0000
0010
1000
0000
1000
0100
0010
0001
0000
,
0011
0000
0100
0000
1100
0000
1000
0000
0010
0000
0100
0010
1000
0001
0100
0000
,
0001
0000
0101
0000
0001
0100
0010
0000
0100
0010
0000
0010
1000
0001
0100
0000
,
0101
0000
0010
0000
1010
0000
1000
0000
0100
0000
0010
0100
1000
0001
0100
0000
,
0010
0000
0110
0000
0101
0000
1001
0000
1000
0010
1000
0010
0100
0001
1000
0100
,
0010
0000
0000
0000
0000
0000
0000
0000
0000
0000
0000
0000
0000
0000
0000
0000
0000
0000
0000
0000
0000
0000
0000
0000
0000
0000
0000
0000
0000
0000
0000
0000
0000
0000
0000
0000
0001
0000
0000
0000
0000
0000
0000
0000
0000
0000
0000
0000
0010
0000
0000
0000
0000
0000
0000
0000
0000
0000
0000
0000
0000
0000
0000
0000
0000
0000
0000
0000
0000
0000
0000
0000
0011
0000
0000
0000
0000
0000
0000
0000
0000
0000
0000
0000
0000
0000
0000
0000
0000
0000
0000
0000
0000
0000
0000
0000
0001
0000
0000
0000
0000
0000
0000
0000
0000
0000
0000
0000
0010
0000
0000
0000
0000
0000
0000
0000
0000
0000
0000
0000
0100
0000
0000
0000
0000
0000
0000
0000
0000
0000
0000
0000
0000
0000
0000
0000
0000
0000
0000
0000
0000
0000
0000
0000
1000
0000
0000
0000
0000
0000
0000
0000
0000
0000
0000
0000
0010
0000
0000
0000
0000
0000
0000
0000
0000
0000
0000
0000
0100
0000
0000
0000
0000
0000
0001
0000
0000
0000
0000
0000
0000
0000
0000
0000
1000
0000
0000
0000
0000
0000
0000
0000
,
0100
0000
0000
0000
0010
0000
0010
0000
0001
0000
1000
0000
0010
0100
0001
1000
,
0100
0000
0000
0000
0000
0000
0000
0000
0100
0010
0001
1000
0010
0000
0100
0000
,
0010
1000
0100
0000
0010
0000
0000
0001
0010
0100
1000
0010
0100
0000
0010
0000
,
1000
0001
0100
0000
0010
0000
0000
0100
0010
1000
0100
0010
0001
0000
1000
0000
,
0001
0100
0010
0000
1000
0000
0000
0100
0010
0001
1000
0010
0100
0010
1000
0100
,
0010
0001
0100
0010
0100
0000
0001
0100
0010
1000
0100
0010
0100
0000
1000
0010
,
0100
0001
0100
0000
0010
0100
0000
0100
0010
1000
0100
0010
0001
0000
1000
0001
,
0100
0010
1000
0000
0100
1000
0000
1000
0010
0100
0001
1000
0100
0000
0010
0100
,
1000
0001
1000
0000
0001
1000
0000
1000
0010
0000
0100
0010
1000
0100
1000
0001
,
0100
0010
1000
0100
0010
0001
0100
0010
0100
0000
0000
0000
0000
0000
0000
0000
,
0000
0000
0001
0000
,
0000
0000
1000
0000
,
0000
0000
0000
0000
1100
0010
1100
0010
,
1010
0000
0000
0000
0010
0000
1000
0000
0010
0000
1000
0000
0010
0100
0001
1000
0100
0000
0010
0000
0001
0000
0000
0000
1000
0000
0000
0000
0010
0000
0100
0000
,
0010
1000
0100
0010
0001
1000
0001
0100
0010
1000
0100
0000
0010
0000
0100
0010
,
0001
1000
0001
0100
0010
1000
0100
1000
0010
0100
0001
0000
1000
0000
0001
1000
,
0100
0010
0100
1000
0010
0100
0001
1000
0100
0010
0001
0000
1000
0000
0001
0100
,
0001
0000
0100
0000
0010
0000
1000
0000
0100
0000
0000
0000
0010
0001
1000
0010
0100
0000
0001
0000
1000
0000
0000
0000
0100
0000
0000
0000
0010
0000
0100
0000
,
1000
0010
0100
0001
1000
0001
0100
0010
1000
0001
1000
0000
0100
0000
1000
0010
,
0100
0010
1000
0100
0010
0001
0010
0001
0100
0010
0100
0000
0001
0000
1000
0010
,
1000
0000
0100
0000
0010
0000
0100
0000
1000
0000
0001
0000
1000
0100
0010
0001
1000
0000
0010
0000
1000
0000
0010
0000
0100
0000
0010
0000
0100
0000
0001
0000
,
0100
0001
1000
0100
1000
0000
0000
0000
1100
0000
0100
1000
0010
0000
1010
0000
,
0100
0000
0001
0100
0001
1000
0001
0000
1001
0000
1000
0000
1100
0000
0011
0000
,
0001
0010
0100
1000
0010
0100
0001
0000
0101
0000
0010
0100
0001
0000
0101
0000
,
0010
0000
1000
0010
1000
0100
0010
0000
0110
0000
0010
0000
0011
0000
0101
0000
,
0001
0000
0100
0000
0010
0000
0100
0000
0001
0000
1000
0100
0010
0000
0000
0000
0110
0000
0000
0000
0010
0000
0001
0000
0100
0000
0000
0000
0101
0000
0000
0000
,
0010
0000
1000
0010
0100
0010
0100
0000
0110
0000
0100
0000
0101
0000
1001
0000
,
1000
0010
1000
0100
0010
0001
0100
0000
0101
0000
0010
1000
0001
0000
1001
0000
,
1000
0000
0100
0010
0100
1000
0010
0000
1010
0000
1000
0010
1000
0000
0100
0010
,
0001
0000
1000
0010
0100
0010
1000
0100
0010
0000
0000
0000
0000
0000
0000
0000
;
