#TITLE:Donkey Punch;
#SUBTITLE:;
#ARTIST:Family Farce;
#TITLETRANSLIT:;
#SUBTITLETRANSLIT:;
#ARTISTTRANSLIT:;
#CREDIT:;
#BANNER:Donkey Punch-bn v2.png;
#BACKGROUND:Donkey punch v2.png;
#LYRICSPATH:;
#CDTITLE:cdtitle =).png;
#MUSIC:Donkey Punch by Family Farce.mp3;
#OFFSET:0.330;
#SAMPLESTART:26.899;
#SAMPLELENGTH:11.840;
#SELECTABLE:YES;
#BPMS:0.000=152.000,15.500=607.995,19.500=152.000,147.000=608.005,149.000=151.999,165.000=608.003,166.500=151.998,217.000=608.003,221.000=151.998,226.500=608.003,230.000=151.998;
#STOPS:13.500=0.100
,14.250=0.100
,58.250=0.180
,65.500=0.100
,66.250=0.100
,67.000=0.100
,67.750=0.100
,114.500=0.100
,115.250=0.100
,168.000=0.200
,168.500=0.200
,169.000=0.200
,169.500=0.200
,170.000=0.200
,170.500=0.200
,173.000=0.200
,173.500=0.200
,174.000=0.200
,174.500=0.200
,175.000=0.200
,175.500=0.200
,178.000=0.200
,178.500=0.200
,179.000=0.200
,179.500=0.200
,180.000=0.200
,180.500=0.100
,180.750=0.080
,181.000=0.100
,181.250=0.100
,181.500=0.100
,181.750=0.100
,182.000=0.200
,182.500=0.200
,183.000=0.200
,183.500=0.200
,184.000=0.200
,184.500=0.100
,184.750=0.080
,185.000=0.100
,185.250=0.100
,215.000=0.100
,215.750=0.100
,221.000=0.280
,221.250=0.300
,221.500=0.300
,221.750=0.300
,222.000=0.300
,222.250=0.300
,222.500=0.300
,222.750=0.300
,223.000=0.300
,223.250=0.280
,223.500=0.300
,223.750=0.300
,224.500=0.100
,225.250=0.100
;
#BGCHANGES:;
// cache tags:
#FIRSTBEAT:1.000;
#LASTBEAT:234.250;
#SONGFILENAME:Songs/KBU/Donkey Punch  (~Zero~)/Donkey Punch by Family Farce.sm;
#HASMUSIC:1;
#HASBANNER:1;
#MUSICLENGTH:99.983;
// end cache tags

//---------------dance-single - ----------------
#NOTES:
     dance-single:
     :
     Challenge:
     11:
     1.000,1.000,1.000,0.930,0.910,609.000,314.000,93.000,0.000,0.000:
0000
0000
0000
0000
1001
0000
0100
0010
1001
0000
0100
0010
1001
0000
0100
0010
,
1001
0000
0100
0010
1001
0000
0100
0010
1001
0000
1001
0000
1001
0000
1001
0000
,
1001
0110
1001
0110
1001
0000
0100
0010
1001
0000
0100
0010
1001
0000
0100
0010
,
1001
0000
0100
0010
1001
1001
1001
0110
0110
0110
1001
1001
1001
1001
2002
0000
,
0000
0000
0000
0000
0000
0000
0000
0000
0000
0000
0000
0000
0000
0000
0000
0000
0000
0000
0000
0000
0000
0000
0000
0000
0000
0000
0000
3003
1001
0000
0000
0000
,
0010
0100
0011
0000
1000
0000
0110
0000
0001
0010
1100
0000
0010
0000
1001
0000
,
0010
0100
0011
0000
0100
0000
1001
0000
0010
1000
0110
0000
1000
0000
0101
0000
,
0010
1000
0011
0000
0100
0000
0011
0000
1000
0001
0110
0000
0001
0000
1010
0000
,
0100
0000
0010
0000
1001
0000
0000
0000
0010
0000
0000
0000
1100
0000
0000
0000
0001
0000
1000
0000
0110
0000
0000
0000
0001
0000
0000
0000
2200
3300
0000
0000
,
0001
0100
1001
0000
0010
0000
0101
0000
1000
0100
0011
0000
0100
0000
1001
0000
,
0010
0100
0011
0000
1000
0000
0110
0000
0001
0010
1100
0000
0010
0000
1001
0000
,
0010
0100
0011
0000
1000
0000
0101
0000
0010
0001
1100
0000
0001
0000
1010
0000
,
0100
1000
0011
0000
0100
0000
1001
0000
0100
0010
1100
0000
0010
0000
1001
0000
,
0101
0000
0110
0000
1001
0000
0110
0110
0110
0110
0110
0110
0110
0110
0110
0000
,
0001
0010
1100
0000
0010
0001
0110
0000
2002
3003
0000
0000
1001
0000
0010
0100
,
1001
0000
0010
0001
1100
0000
0001
0010
1001
0000
1001
0000
1001
0000
0100
0001
,
0110
0000
0110
0000
0110
0110
0110
1001
1001
1001
0110
0110
0110
1001
1001
1001
,
0110
0000
0000
0000
0000
0000
0000
0000
1100
0000
0000
0000
0000
0000
0000
0000
0022
0033
0100
0000
0010
0000
0000
0000
0100
0000
0000
0000
0010
0000
0000
0000
1001
0000
0000
0000
0000
0000
0000
0000
0100
0000
0000
0000
0010
0000
0000
0000
1100
0000
0000
0000
0000
0000
0000
0000
0001
0000
0000
0000
0100
0000
0000
0000
,
1001
0000
0010
0100
0011
0000
1000
0001
0110
0000
1000
0001
1100
0000
0010
0100
,
1001
0000
0010
0100
0011
0000
1000
0001
1100
0000
0010
0100
1001
0000
0010
0001
,
1100
0000
0010
1000
0101
0000
0010
0000
0002
0000
0000
0000
0013
0000
0100
0010
,
1001
0000
0000
0000
1001
0000
0000
0000
1001
0000
0000
0000
1001
0100
0010
0100
1001
0000
0000
0000
0100
0000
0010
0000
1100
0000
0000
0000
0010
0000
0000
0000
,
1001
0000
0010
1000
0110
0000
1000
0000
0011
0000
0100
0010
1100
0000
0001
0000
,
1010
0000
0001
1000
0110
0000
1000
0000
0110
0000
0001
0010
1100
0000
0010
0000
,
0101
0000
0000
0000
1000
0000
0001
0000
0110
0000
0000
0000
0010
0000
0000
0000
2002
3003
0000
0000
0010
0000
0100
0000
2002
3003
0000
0000
0010
0000
0000
0000
,
2002
3003
0000
0000
0020
0030
0001
0000
0220
0330
0000
0000
2000
3000
0000
0000
0022
0033
0000
0000
1000
0000
0010
0000
1001
0000
0000
0000
0100
0000
0000
0000
,
0011
0000
1000
0100
1001
0000
0100
0000
0011
0000
0100
0010
1001
0000
0010
0000
,
1100
0000
0000
0000
0001
0000
0010
0000
1100
0000
0000
0000
0001
0000
0000
0000
0110
0000
0000
0000
0002
0003
1000
0000
0011
0000
0000
0000
0200
0300
0000
0000
,
1001
0000
0000
0000
0020
0030
1000
0000
0101
0000
0000
0000
0020
0030
0000
0000
0120
0030
0110
0000
0120
0030
1001
0000
1001
0000
1002
0003
0110
0000
0110
0000
,
0110
0110
0110
0110
0110
0110
0110
0000
0001
1000
0110
0000
0001
1000
0110
0000
,
0001
1000
0110
0000
0001
1000
0110
0000
0001
1000
0110
0000
0001
1000
0110
0000
,
0001
1000
0110
0000
0001
1000
0110
0000
0001
1000
0220
0330
0001
0000
1100
0000
,
0001
1000
0220
0330
1000
0000
0011
0000
0100
1000
0220
0330
1000
0000
0011
0000
,
1000
0001
0220
0330
0001
0000
1001
0000
0100
0010
1001
0000
0100
0010
1001
0000
,
0100
0010
1001
0000
0100
0010
1001
0000
0100
0010
1001
0000
0100
0010
1001
0000
,
0100
0010
1001
0000
0100
0010
1001
0000
0100
0010
2002
3003
0100
0000
0011
0000
,
1000
0000
0010
0000
2002
0000
3003
0000
0100
0000
0000
0000
0011
0000
0000
2000
3000
0200
0300
0000
0011
0000
0000
0000
0022
0000
0000
0000
0000
0000
0000
0000
,
0000
0000
0000
0000
0000
0000
0000
0033
0011
0000
0000
0000
0011
0000
0000
0000
0011
0000
0000
0000
1000
0000
1000
0000
1001
0000
0000
0000
0100
0000
0010
0000
,
1001
0000
0100
0000
0001
0010
0000
0100
1001
0000
0010
0000
1100
0000
0001
1000
,
0110
0000
0001
0000
0100
0010
0000
1000
0011
0000
0100
0000
1000
0000
0001
1000
,
0110
0000
0001
0000
1000
0100
0000
0010
1001
0000
0100
0000
0011
0000
1000
0001
,
1100
0000
0001
0000
0220
0000
0000
0000
0000
0000
0330
1000
0110
0000
0001
0000
,
0110
0110
0110
0110
0110
0110
0110
0001
,
0110
1000
1001
1001
1001
1001
1001
1001
,
1001
0000
0000
0000
0100
0000
0000
0000
1001
0000
0000
0000
0010
0000
0000
0000
0220
0330
0000
0000
0220
0330
0000
0000
0220
0330
0000
0000
0220
0330
0000
0000
,
0220
0330
0000
0000
0220
0330
2020
3030
0202
0303
0220
0330
2200
3300
0022
0033
2002
3003
0000
0000
2002
3003
0000
0000
2002
3003
0000
0000
2002
3003
0000
0000
,
2002
3003
0000
0000
2002
3003
0220
0330
2200
3300
0022
0033
1001
0100
0010
0001
1000
0100
0010
0001
1100
0000
0000
0000
0010
0000
1000
0000
0101
0000
0000
0000
,
0010
1000
0101
0000
0010
1000
0101
0000
0010
1000
0101
0000
0010
1000
0101
0000
,
0101
0000
0101
0000
0101
0000
0101
1010
0101
1010
0101
0000
0100
0001
1010
0000
,
0100
0001
1010
0000
0100
0001
1010
0000
0100
0001
1010
0000
0100
0001
1010
0000
,
1010
0000
1010
0000
1010
0000
1010
0101
1010
0101
1010
0000
0010
0100
1001
0000
,
0010
0100
1001
0000
0010
0100
1001
0000
0010
0100
1001
0000
0010
0100
1001
0000
,
1001
0000
1001
0000
1001
0000
1001
0110
1001
0110
1001
0000
0001
0010
1100
0000
,
0001
0010
1100
0000
0001
0010
1100
0000
0001
0010
1100
1100
1100
0011
0011
0011
,
1100
1100
1100
1100
2200
0000
0000
0000
0000
0000
0000
0000
0000
0000
0000
0000
,
0000
0000
0000
0000
0000
0000
0000
3300
1100
0000
0110
0000
0011
0000
1001
0000
0110
0000
1010
0000
0110
0000
1001
0000
0101
0000
0110
0000
1001
0000
1100
0000
,
1001
0000
1001
0000
1001
0000
0110
0000
0110
0000
0110
0000
1001
0100
0010
1000
0001
0100
0010
1000
0002
0000
0000
0000
0000
0000
0000
0000
0000
0000
0000
0000
,
0000
0000
0000
0000
0000
0000
0000
0000
0003
0000
2000
3000
0000
0000
0000
0120
,
0000
0000
0000
0000
0000
0000
0000
0000
0000
0000
0000
0000
0000
0000
0030
0200
0300
0020
0030
0000
0000
0000
0000
0000
0000
0000
0000
0000
0000
0000
0000
0000
;
