#TITLE:Superluminal;
#SUBTITLE:cibersammy steps;
#ARTIST:S2TB Recording;
#TITLETRANSLIT:;
#SUBTITLETRANSLIT:;
#ARTISTTRANSLIT:;
#CREDIT:;
#BANNER:sl-bn.png;
#BACKGROUND:sl-bg.png;
#LYRICSPATH:;
#CDTITLE:cibersammy.png;
#MUSIC:S2TB Recording - Superluminal.mp3;
#OFFSET:-0.140;
#SAMPLESTART:29.999;
#SAMPLELENGTH:12.000;
#SELECTABLE:YES;
#BPMS:0.000=180.000;
#STOPS:;
#BGCHANGES:;
// cache tags:
#FIRSTBEAT:14.000;
#LASTBEAT:463.000;
#SONGFILENAME:Songs/Definitive Keyboard Megapack/Superluminal[cibersammy]/superluminal.sm;
#HASMUSIC:1;
#HASBANNER:1;
#MUSICLENGTH:157.184;
// end cache tags

//---------------dance-single - ----------------
#NOTES:
     dance-single:
     :
     Hard:
     12:
     1.000,1.000,0.725,0.375,1.000,1423.000,114.000,59.000,0.000,0.000:
0000
0000
0000
0000
,
0000
0000
0000
0000
,
0000
0000
0000
0000
,
0000
0000
1000
0001
,
1000
0000
0001
0000
0002
1003
2000
3001
,
0002
1003
2000
3001
0010
0000
0100
0000
,
0010
0000
0100
0000
0020
0130
0200
0310
,
0020
0000
0130
0000
0020
0000
0130
0000
1000
0001
1000
0001
1000
0010
0100
0010
,
1000
0010
0100
0001
1000
0100
0010
0001
1000
0010
1000
0010
1000
0100
1000
0100
,
0010
0100
0010
0100
1000
0100
1000
0100
0010
0001
0010
0100
1000
0100
0010
0001
,
0010
0100
1000
0010
0100
0001
1000
0010
0100
0000
0000
1010
0000
0000
1010
0000
,
0000
0000
1001
0000
1001
0000
0000
0000
0001
0010
0100
1000
0001
0100
0010
1000
,
0001
0100
0001
1000
0100
1000
0010
0100
0001
0010
0001
0100
0001
0010
0001
0100
,
0010
1000
0100
0010
0001
0010
0001
0100
0001
1000
0010
0100
0010
0100
0001
0010
,
0100
1000
0100
1000
0100
0010
0001
1000
0001
0010
0100
1000
0001
0010
0100
1000
,
0100
0010
0100
0010
0100
0010
0001
1000
0001
1000
0100
1000
0100
0010
0100
0010
,
0001
0100
0010
1000
0100
0010
0001
0010
0001
0010
0100
1000
0100
1000
0100
0010
,
0001
1000
0010
1000
0010
0100
0001
0100
0001
1000
0001
0010
0100
0010
0100
0010
,
0001
0010
0100
1000
0001
0010
0100
1000
0100
1000
0100
1000
0100
1000
0100
1000
,
0100
1000
0100
1000
0100
1000
0100
0010
0001
1000
0100
0010
0001
0100
0001
0010
,
0001
0100
0010
1000
0001
0100
0010
1000
0001
0100
0010
1000
0010
0100
0001
1000
,
0001
0010
0100
0010
0100
1000
0001
0100
0010
1000
0001
0100
0001
1000
0100
1000
,
0001
0010
0001
0010
0001
0100
0010
0100
0010
1000
0001
0100
0010
1000
0001
0010
,
0100
1000
0001
0100
0010
1000
0010
0100
0001
0100
0010
1000
0001
1000
0100
0010
,
0001
0010
0001
0010
0100
1000
0100
0010
0001
0010
0001
1000
0001
1000
0100
0010
,
0001
1000
0100
0010
0001
0100
0010
1000
0100
1000
0001
0010
0001
1000
0010
1000
,
0010
0100
0001
0100
0001
0010
0100
1000
0010
1000
0100
0010
0001
0010
0100
1000
,
0100
1000
0010
0100
0001
0010
0100
1000
0100
0010
0100
1000
0001
0100
0001
1000
,
0001
0010
0001
1000
0001
0100
0001
0010
0001
1000
0001
0100
0001
0010
0100
1000
,
0001
1000
0010
1000
0100
1000
0001
1000
0010
1000
0100
1000
0010
1000
0001
1000
,
0100
1000
0100
1000
0001
1000
0010
1000
0010
1000
0100
1000
0100
0010
0001
0010
,
0100
1000
0100
1000
0001
0010
0001
0100
0010
0100
0001
0100
0010
1000
0010
0100
,
0010
1000
0010
0100
0001
0100
0010
1000
0100
0010
0100
1000
0100
0010
0001
0010
,
0100
0010
0001
0010
0100
1000
0100
0010
0100
1000
0100
0010
0001
0010
0100
0010
,
0001
1000
0001
1000
0100
0010
0001
0010
0100
0010
0001
1000
0100
0010
0001
1000
,
0100
1000
0100
0010
0001
0010
0001
0010
0001
0010
0100
1000
0100
1000
0100
0010
,
0100
0010
0001
1000
0001
0100
0010
1000
0001
0010
0100
1000
0001
0010
0001
1000
,
0100
1000
0100
0010
0100
0010
0100
0010
0001
0100
0010
1000
0001
0100
0010
1000
,
0001
0010
0100
0010
0001
0100
0010
0100
0001
0010
0100
1000
0001
1000
0100
0010
,
0001
1000
0100
0010
0001
1000
0100
0010
0001
1000
0100
0010
0001
1000
0001
0010
,
0001
0010
0100
1000
0100
0010
0001
0010
0001
1000
0100
1000
0100
0010
0100
0010
,
0001
0100
0010
0100
0001
0010
0001
0100
0010
1000
0001
0100
0010
1000
0001
0010
,
0100
1000
0001
0100
0001
1000
0010
1000
0100
0010
0100
1000
0100
0010
0001
0010
,
0100
1000
0010
0100
0001
0010
0100
0010
0001
0010
0001
1000
0100
1000
0010
1000
,
0010
0100
0001
0100
0001
0010
0100
1000
0010
1000
0100
0010
0001
0100
0001
0010
,
0001
1000
0010
1000
0100
0010
0100
0010
0100
0010
0001
1000
0100
0010
0001
0100
,
0010
1000
0001
0100
0010
1000
0001
1000
0001
1000
0010
0100
0001
1000
0001
0010
,
0001
1000
0010
1000
0100
1000
0010
0100
0010
1000
0010
1000
0001
0010
0001
0010
,
0001
1000
0100
0010
0100
0010
0100
0010
0001
0100
0001
1000
0010
0100
0010
0100
,
0010
0100
0001
1000
0010
1000
0001
0010
0100
1000
0001
1000
0100
1000
0100
0010
,
0100
0010
0001
0010
0100
0010
0001
1000
0100
0010
0001
0100
0001
1000
0001
0100
,
0001
0000
0000
0010
0000
0000
0001
0000
0000
0100
0000
0000
0010
0000
0100
0000
0010
0000
0100
0000
0010
0000
0100
0000
1001
0000
0000
0000
0000
0000
0000
0000
0000
0000
0000
0000
1001
0000
0000
0000
0000
0000
0000
0000
0000
0000
0000
0000
,
0000
0110
1001
0000
0101
0000
0101
0000
,
0000
1010
0101
0000
0110
0000
0110
0000
,
0000
1001
0110
0000
1100
0000
1100
0011
,
0000
0011
1100
0000
0011
0000
0011
0000
,
0000
1010
0011
0000
1010
0000
1010
0000
,
0000
0101
1010
0000
1010
0000
1100
0000
,
0000
0110
1001
0000
1010
0000
1010
0110
,
0000
0110
0101
0000
0101
0000
0101
0000
,
0000
1100
0011
0000
1001
0000
0011
0000
,
0000
0101
1001
0000
0101
0000
1001
0000
,
0000
0101
0011
0000
0101
0000
1001
0101
,
0000
0101
1001
0000
1001
0000
1100
0000
,
0000
0101
1001
0000
0011
0000
0011
0000
,
0000
0101
0011
0011
0011
0000
0101
0000
,
0011
0000
0101
0011
0011
0011
0000
1010
,
0000
0000
0011
0000
2002
0000
0000
3003
0000
1000
0001
0100
0001
1000
0100
0010
,
0001
1000
0001
0100
0010
1000
0010
0100
0001
0100
0010
1000
0100
1000
0010
0100
,
0001
0100
0001
1000
0100
1000
0100
0010
0100
1000
0001
0100
0001
0010
0001
1000
,
0100
0010
0001
0100
0010
1000
0010
1000
0010
0100
0001
1000
0100
0010
0001
0010
,
0100
1000
0010
0100
0001
1000
0001
0100
0010
0100
0010
0100
0001
0010
0100
1000
,
0010
0100
0010
1000
0100
1000
0010
0100
0010
1000
0100
1000
0010
0100
0001
0010
,
0001
0100
0010
0100
0001
1000
0001
0100
0010
0100
0010
0100
0001
0100
0001
0010
,
0100
1000
0100
0010
0001
1000
0010
0100
0001
1000
0010
0100
0001
0010
0001
1000
,
0001
0100
0001
0010
0001
0010
0001
0200
0301
0010
0100
0010
0100
1000
0100
0010
,
0001
0100
0001
1000
0100
1000
0100
0010
0100
1000
0010
1000
0010
0100
0010
1000
,
0100
0010
0001
0010
0100
1000
0100
1000
0001
0010
0100
1000
0001
1000
0001
0010
,
0100
1000
0010
1000
0100
0010
0100
0010
0001
1000
0100
0010
0001
0010
0100
0010
,
0100
0010
0001
0010
0001
0100
0001
1000
0001
0000
2002
0000
3003
0000
2002
0000
,
3003
0000
0000
0000
2002
0000
0000
0000
0000
3003
0000
0000
2002
0000
0000
0000
0000
3003
0000
0000
2002
0000
0000
0000
0000
3003
0000
0000
2002
0000
0000
0000
,
0000
3003
0000
0000
2002
0000
0000
0000
0000
3003
0000
0000
2002
0000
0000
0000
0000
3003
0100
0000
0010
0000
0100
0000
0010
0000
0100
0000
0010
0000
0100
0000
,
0010
0100
0010
0100
0010
0100
0010
0100
0220
0000
0000
0330
2002
0000
0000
0000
,
0000
0000
0000
0000
0000
0000
0000
3003
0001
1000
0001
1000
0001
1000
0001
1000
,
0000
0001
0010
0001
0010
0001
0010
0001
0000
1000
0100
1000
0100
1000
0100
1000
,
0100
0000
0100
0010
0100
0010
0100
0010
0001
1000
0001
1000
0001
0100
0001
0100
,
0001
0100
0001
1000
0010
1000
0010
1000
0022
0000
0000
0000
0000
0000
0000
0000
,
0000
0000
0000
0000
0033
0000
0000
0000
0001
0010
0100
1000
0100
1000
0010
0100
,
0010
1000
0001
1000
0010
1000
0001
0010
0001
0010
0100
1000
0100
0010
0001
1000
,
0001
1000
0100
0010
0100
0010
0100
1000
0001
0010
0100
1000
0001
0100
0010
1000
,
0001
0100
0010
1000
0001
1000
0010
0100
0001
1000
0010
0100
0010
0100
0001
0100
,
0001
0010
0001
1000
0100
0010
0100
1000
0001
0010
0100
0010
0001
1000
0001
1000
,
0010
0100
0010
0100
0001
0010
0001
1000
0010
1000
0010
1000
0100
1000
0001
0100
,
0001
1000
0010
1000
0001
0100
0010
0100
0010
1000
0100
0010
0001
0010
0001
0010
,
0100
1000
0001
0010
0001
0010
0100
1000
0100
0010
0001
0100
0001
0010
0100
0010
,
0001
0100
0010
0000
2020
0000
0000
0000
3030
1000
0100
0010
0001
0010
0100
1000
,
0100
1000
0010
0100
0010
1000
0001
1000
0100
0010
0001
1000
0001
0100
0001
0010
,
0100
0010
0100
1000
0010
1000
0010
0100
0010
1000
0100
0010
0100
1000
0010
1000
,
0010
0100
0001
0010
0100
1000
0001
0100
0001
0010
0001
0010
0100
1000
0001
0100
,
0001
1000
0001
0100
0001
1000
0001
0100
0010
0000
1001
0000
1010
0000
0011
0000
,
0100
0101
1100
0110
1010
0101
1100
0110
,
0011
0000
1001
0000
1010
0000
1001
0000
0100
0010
0100
0010
0100
0001
0100
0001
,
0100
0001
0100
0001
0100
0001
0100
0010
2002
0000
3003
0000
0022
0000
0033
0000
,
2200
0000
3300
0000
0220
0000
0330
0000
1001
0000
0001
0010
0100
1000
0001
0010
,
0100
1000
0100
0010
0001
1000
0100
0010
0001
1000
0001
0000
0220
0330
0010
1000
,
0010
0100
0001
0100
2002
3003
0100
0010
0202
0303
0000
1000
0001
0100
0010
1000
,
0022
0033
1000
0100
0010
0001
0010
0100
2002
0000
0000
0000
0000
0000
0000
0000
,
0000
0000
0000
0000
3003
0000
0000
0000
0001
0010
0100
1000
0001
0100
0010
1000
,
0001
0010
0100
1000
0001
0100
0010
1000
0001
0010
0001
0010
0001
0100
0001
0100
,
0001
0100
0010
0100
0001
0010
0001
0010
0100
1000
0100
1000
0001
0100
0010
0100
,
0001
0010
0001
0010
0100
1000
0100
1000
0010
0100
0001
0010
0100
1000
0010
0100
,
0010
1000
0010
0100
0010
1000
0010
0100
0001
0010
0100
0010
0100
0010
0100
0010
,
0100
1000
0001
1000
0001
1000
0001
1000
0001
1000
0100
0010
0100
0010
0100
0010
,
0100
0000
0010
0000
0001
0000
0100
0000
0001
0000
0100
0000
0001
0000
0100
0000
0001
0000
0000
0000
0200
0000
0000
0000
0000
0300
0000
0000
0020
0000
0000
0000
,
0000
0030
0000
0000
2000
0000
0000
0000
0000
3000
0000
0000
0002
0000
0000
0000
1003
0000
0000
0000
0000
0000
0000
0000
1001
0000
0000
0000
0000
0000
0000
0000
,
0101
1100
2002
3003
;

//---------------dance-single - Blank----------------
#NOTES:
     dance-single:
     Blank:
     Easy:
     6:
     0.353,0.367,0.013,0.000,0.000,386.000,2.000,0.000,0.000,0.000:
0000
0000
0000
0000
,
0000
0000
0000
0000
,
0000
0000
0000
0000
,
0000
0000
0001
1000
,
0001
0010
0100
1000
,
0010
1000
0100
0010
,
0001
0100
0010
1000
,
0100
0010
0001
0100
,
0010
1000
0100
0010
,
0001
1000
0010
0100
,
0001
1000
0001
1000
,
0100
0001
0010
1000
,
0100
1000
0001
0100
,
0010
1000
0100
0010
,
0001
1000
0100
0010
,
0001
1000
0100
1000
,
0100
0001
1000
0100
,
0001
0010
0100
1000
,
0001
0100
0010
0001
,
0100
0010
1100
0001
,
0010
0100
1000
0001
,
0100
0001
1000
0010
,
0100
0010
0100
0010
,
1000
0100
0010
0001
,
0100
0010
1000
0100
,
0010
0001
1000
0100
,
0010
0001
1000
0100
,
0010
0001
0100
0001
,
1000
0100
0010
1000
,
0100
0010
0001
1000
,
0001
1000
0001
0100
,
0010
0001
0100
0010
,
1000
0001
1000
0010
,
0100
1000
0001
0010
,
0100
1000
0001
0010
,
0100
1000
0001
0010
,
0100
1000
0001
0100
,
0010
1000
0001
0010
,
0100
1000
0001
0100
,
0010
1000
0100
0010
,
0001
1000
0010
0100
,
0001
1000
0100
0010
,
0001
0100
0010
0100
,
0001
0100
0001
0100
,
0001
1000
0100
1000
,
0100
1000
0100
1000
,
0010
1000
0010
1000
,
0010
0100
0001
0010
,
0001
0100
0010
1000
,
0100
0010
1000
0001
,
1000
0001
0010
0100
,
1000
0001
0100
0000
,
0000
0000
1000
0000
,
0000
0000
0001
0000
,
0000
0000
0010
0000
,
0000
0000
0100
0000
,
0000
0000
0001
0000
,
0000
0000
0010
0000
,
0000
0000
1000
0000
,
0000
0000
0100
0000
,
0000
0000
0001
0000
,
0000
0000
0100
0000
,
0000
0000
1000
0000
,
0000
0000
0010
0000
,
0000
0000
0100
0000
,
0000
0000
0001
0000
,
0000
0000
1000
0000
,
0000
0000
0001
1000
,
0010
0100
0001
1000
,
0001
0010
0100
1000
,
0010
0100
0001
0010
,
0100
1000
0010
0100
,
0001
1000
0100
1000
,
0010
1000
0001
0010
,
0100
0010
1000
0100
,
1000
0001
1000
0100
,
0010
0001
0100
0010
,
1000
0100
0010
0001
,
0010
0001
1000
0010
,
1000
0100
0010
0001
,
1000
0001
1000
0001
,
0010
0100
1000
0001
,
0010
0001
0010
0100
,
1000
0010
0100
0010
,
0100
0010
0100
0001
,
0100
0001
0010
1000
,
0010
1000
0100
0010
,
0001
1000
0001
0100
,
0010
0001
0100
0010
,
1000
0100
0010
0001
,
0100
1000
0010
0100
,
0001
1000
0100
0010
,
0001
1000
0100
1000
,
0001
0010
0001
0010
,
0001
0100
0010
0001
,
1000
0001
1000
0100
,
0010
0001
1000
0010
,
0100
0001
0010
0100
,
1000
0010
0100
0001
,
1000
0001
0010
0100
,
1000
0010
0100
0001
,
1000
0001
0010
0100
,
0010
0001
0100
0010
,
1000
0100
0010
0000
,
0000
0000
0000
0000
,
0000
0000
0000
0000
,
0000
0000
0000
0000
,
0000
0000
1000
0001
,
0010
0100
0010
1000
,
0001
0100
0010
1000
,
0100
0010
0001
0100
,
0010
1000
0100
0010
,
0001
0100
1000
0100
,
0010
0001
0010
0100
,
1000
0001
0010
0100
,
1000
0100
1001
0000
;

//---------------dance-single - Blank----------------
#NOTES:
     dance-single:
     Blank:
     Medium:
     9:
     0.722,0.661,0.019,0.000,0.000,791.000,3.000,0.000,0.000,0.000:

0000
0000
0000
0000
,
0000
0000
0000
0000
,
0000
0000
0000
0000
,
0000
0000
0000
0000
0000
1000
0100
0010
,
0001
1000
0100
0010
0001
0100
0010
1000
,
0100
0010
0001
0100
0010
1000
0100
0010
,
0001
0100
0010
1000
0100
0010
0001
0010
,
0001
1000
0100
1000
0100
0010
0001
0100
,
0010
1000
0100
0010
0001
0100
0010
1000
,
0100
1000
0001
0010
0100
1000
0010
0100
,
0001
0010
0100
1000
0001
0000
1000
0100
,
0000
0010
0001
0000
1000
0100
0010
0001
,
0100
0010
1000
0100
0010
0001
0100
0010
,
1000
0100
0010
0001
0100
0010
1000
0100
,
0010
0001
0100
0001
0100
0010
1000
0100
,
0010
0001
0100
0010
1000
0100
0010
0001
,
0010
0100
1000
0100
1000
0100
0010
0001
,
0010
0001
0100
0010
0100
0010
0100
0010
,
1000
0001
0100
0001
0100
0001
0010
0100
,
1000
0010
0100
0001
1000
0100
0010
0001
,
0100
0010
1000
0100
0010
0001
0100
0010
,
1000
0100
0010
0001
0100
0010
1000
0100
,
0010
0001
0010
0100
1000
0100
1000
0100
,
0010
0001
0010
0100
1000
0100
0010
0001
,
1000
0100
0010
0001
1000
0100
0010
0001
,
1000
0100
0010
0100
0010
1000
0100
0010
,
0100
1000
0001
0010
0100
1000
0100
0010
,
1000
0100
0010
1001
0000
0100
0010
0001
,
0100
0010
1000
0100
0010
0001
1000
0100
,
0010
0100
1000
0100
0010
0001
0100
0010
,
0100
0001
0100
0010
0100
0010
1000
0010
,
0100
0010
1000
0001
0010
0100
0010
0001
,
0010
0100
0010
0001
1000
0100
0010
0001
,
1000
0100
0010
0001
1000
0100
0010
0001
,
1000
0010
0100
0001
1000
0100
0010
0001
,
1000
0100
1000
0001
0010
0100
1000
0001
,
0010
0100
1000
0100
1000
0001
0010
0100
,
1000
0001
0010
0100
1000
0001
0010
0001
,
1000
0100
0001
1000
0100
0010
0100
1000
,
0010
0100
1000
0001
0100
0010
1000
0001
,
0010
0100
1000
0001
0100
0010
1000
0001
,
0010
0100
1000
0001
1000
0010
0100
1000
,
0100
1000
0100
0010
0001
1000
0010
0100
,
0001
1000
0100
0010
0001
1000
0010
0100
,
0001
1000
0001
0010
0100
1000
0001
0010
,
0100
1000
0001
1000
0010
1000
0100
0010
,
0001
1000
0100
0010
0001
0100
0001
0100
,
0001
1000
0100
1000
0100
0010
0100
0010
,
0001
0100
0010
1000
0100
0010
0001
0100
,
0001
0100
0010
0001
1000
0010
0100
0001
,
1000
0100
0010
0001
0100
0010
1000
0100
,
0010
0001
0100
0010
1000
0000
0000
0000
,
0000
0000
0001
0000
,
0000
0000
0000
0000
0100
0000
1000
0001
,
0000
0010
0100
0000
0100
0000
0010
1000
,
0000
0100
0010
0000
0001
0000
1000
0100
,
0000
0010
0001
0000
0100
0000
0010
1000
,
0000
0100
0010
0000
0001
0000
0100
0010
,
0000
1000
0100
0000
0010
0000
0001
0100
,
0000
0010
1000
0000
0100
0000
0010
0001
,
0000
0100
0010
0000
1000
0000
0100
0010
,
0000
0001
0100
0000
0010
0000
1000
0100
,
0000
0010
0001
0000
0100
0000
0010
1000
,
0000
0100
0010
0000
0001
0000
0100
0010
,
0000
1000
0100
0000
0100
0000
0010
0001
,
0000
0100
0010
0000
1000
0000
0100
1000
,
0000
0100
0010
0000
0001
0000
0100
0000
,
0010
1000
0000
0100
0010
0001
0100
0010
,
1000
0100
0010
0001
0100
0001
0010
0100
,
0010
1000
0100
0010
0001
0100
0001
1000
,
0100
0010
0001
0100
0010
1000
0100
0010
,
0100
1000
0100
0010
0001
0100
0010
0100
,
0001
0100
0010
0100
0010
0100
0010
0001
,
0010
0100
1000
0001
0010
0100
1000
0010
,
0100
0001
1000
0100
0010
0001
1000
0100
,
0010
0001
1000
0100
0010
0001
0100
0010
,
1000
0100
0010
0001
1000
0100
0010
0100
,
1000
0100
1000
0100
1000
0100
0010
0001
,
0010
0001
0010
0001
0010
0001
0100
0010
,
0100
0010
0100
0010
0100
0010
1000
0100
,
0010
0001
0010
0100
1000
0100
0010
0001
,
1000
0100
0010
0001
0100
0001
1000
0010
,
0100
0010
0100
0010
0100
0010
0100
0010
,
1000
0001
1000
0100
0010
0001
1000
0100
,
1000
0100
0010
0001
1000
0100
0010
0001
,
1000
0100
0010
0001
1000
0100
0010
0001
,
0100
0010
1000
0100
0010
0100
1000
0100
,
0010
0000
0000
0000
0000
0100
1000
0010
,
0001
1000
0100
0010
0001
0100
0010
1000
,
0001
0010
0100
1000
0001
0100
0010
1000
,
0001
0010
0100
1000
0001
0100
0010
1000
,
0001
0010
0100
1000
0001
1000
0010
0100
,
0001
1000
0100
0010
0001
1000
0010
0100
,
0001
1000
0100
0010
0001
0100
0010
1000
,
0100
0010
0001
0100
0010
1000
0100
0001
,
0010
0100
1000
0001
0010
0100
1000
0001
,
0100
0001
0100
0001
0100
0010
0001
0010
,
0100
1000
0100
0010
0001
1000
0010
0100
,
1000
0100
0001
0100
0001
0010
0100
1000
,
0100
0010
0101
0010
0100
1000
0010
0100
,
0001
1000
0100
0001
0100
1000
0100
0001
,
0010
0100
0010
0001
0010
1000
0010
0001
,
1000
0001
0010
1000
0010
0001
0010
1000
,
0010
0001
0010
1000
0010
0000
0000
0000
,
1000
0000
0000
0000
0000
0100
0000
0000
,
0000
0001
0000
0000
0000
0010
0000
0000
,
0000
0010
0000
0000
0000
0100
0000
0000
,
0000
1000
0000
0000
0000
0100
0000
0001
,
0010
0100
1000
0100
,
0010
0001
1000
0010
,
0100
0001
1000
0100
,
0100
0000
0010
0000
1000
0000
0001
1000
,
0001
1000
0010
0001
0010
0100
1000
0001
,
0010
0100
1000
0001
0010
0100
1000
0001
,
0100
0010
1000
0100
0010
0001
1000
0100
,
0010
0001
1000
0100
0011
0000
0000
0000
;
