#TITLE:BUTTERFLY (Upswing Mix);
#SUBTITLE:-MIDI-;
#ARTIST:Unknown artist;
#TITLETRANSLIT:;
#SUBTITLETRANSLIT:;
#ARTISTTRANSLIT:;
#CREDIT:;
#BANNER:Butterfly-bn.png;
#BACKGROUND:Butterfly-bg.png;
#LYRICSPATH:;
#CDTITLE:./CDTITLES/DANCE MANIA SPEED 2.PNG;
#MUSIC:Butterfly upswing mix midi.mp3;
#OFFSET:-0.135;
#SAMPLESTART:5.730;
#SAMPLELENGTH:12.000;
#SELECTABLE:YES;
#BPMS:0.000=170.020,94.000=173.000,95.000=170.000,104.000=168.000,105.000=170.000,128.000=172.000,130.000=170.000,136.500=166.000,138.000=170.000,180.000=171.000,182.000=170.000;
#STOPS:;
#BGCHANGES:;
// cache tags:
#FIRSTBEAT:16.000;
#LASTBEAT:244.000;
#SONGFILENAME:Songs/mongol/Butterfly UPM/BUTTERFLY (UPSWING MIX).sm;
#HASMUSIC:1;
#HASBANNER:1;
#MUSICLENGTH:87.335;
// end cache tags

//---------------dance-double - ----------------
#NOTES:
     dance-double:
     :
     Easy:
     4:
     0.409,0.384,0.389,0.000,0.000,216.000,34.000,0.000,0.000,0.000:
00000000
00000000
00000000
00000000
,
00000000
00000000
00000000
00000000
,
00000000
00000000
00000000
00000000
,
00000000
00000000
00000000
00000000
,
00010000
10000000
01000000
01100000
,
00001000
00010000
00001000
00011000
,
00000010
00001000
00010000
00000100
,
00010000
00001000
00010000
00011000
,
00100000
01000000
10000000
01100000
,
01000000
00001000
00010000
00011000
,
00000010
00000100
00001000
00000100
,
00010000
00000100
00010000
00011000
,
00000001
00000100
00001000
00000100
,
00010000
00100000
10000000
01000000
,
00100000
00010000
01000000
00001000
,
00010000
00001000
00010000
00011000
,
00100000
00010000
01000000
00001000
,
00000010
00000001
00000100
00000000
,
00001000
00010000
01000000
10000000
,
00100000
01000000
00010000
00011000
,
00000000
00000000
00000000
00000000
,
00100000
00000000
10000000
10010000
,
00001000
00000000
00010000
00011000
,
00000010
00000001
00000001
00000100
,
00000010
00010000
00001000
00011000
,
00100000
00000000
10000000
10010000
,
00001000
00000000
00010000
00011000
,
00001000
00000010
00000010
00001000
,
00000100
00010000
00001000
00011000
,
00010000
01000000
00100000
10010000
,
00010000
01000000
00010000
00011000
,
00000010
00000010
00001000
00001000
,
00000001
00000010
00000100
00011000
,
00010000
01000000
00100000
10010000
,
00010000
01000000
00010000
00011000
,
00000010
00000010
00001000
00001000
,
00000001
00000010
00000100
00011000
,
00100000
01000000
10000000
00010000
,
01000000
00001000
00000010
00000001
,
00000100
00000010
00001000
00000100
,
00010000
00001000
00010000
00011000
,
00000010
00000100
00000001
00001000
,
00000100
00010000
00100000
10000000
,
01000000
00100000
00010000
01000000
,
00001000
00010000
00001000
00011000
,
00100000
00000000
10000000
10010000
,
00100000
00000000
00001000
00011000
,
00000010
00000100
00000100
00000001
,
00000010
00000100
00001000
00011000
,
00100000
00000000
10000000
10010000
,
00100000
00000000
00001000
00011000
,
00000010
00001000
00001000
00000100
,
00000010
00000001
00000100
00011000
,
00010000
01000000
00100000
10010000
,
00010000
01000000
00001000
00011000
,
00000010
00000010
00001000
00001000
,
00000001
00000010
00000100
00011000
,
00010000
01000000
00100000
10010000
,
00010000
01000000
00001000
00011000
,
00000010
00001000
00000100
00000010
,
00000001
00000010
00000100
00011000
,
00000010
00000000
00000000
00000000
;

//---------------dance-double - ----------------
#NOTES:
     dance-double:
     :
     Medium:
     7:
     0.483,0.489,0.115,0.000,0.000,285.000,10.000,0.000,0.000,0.000:
00000000
00000000
00000000
00000000
,
00000000
00000000
00000000
00000000
,
00000000
00000000
00000000
00000000
,
00000000
00000000
00000000
00000000
,
00001000
00000000
00010000
00000000
00001000
00010000
01000000
00000000
,
00010000
00000000
00001000
00000000
00010000
00001000
00000100
00000000
,
00010000
00001000
00000100
00000000
00001000
00000100
00000010
00000000
,
00001000
00000001
00000010
00000100
00001000
00000000
00011000
00000000
,
00010000
00000000
00001000
00000000
00010000
00001000
00000100
00000000
,
00001000
00000000
00010000
00000000
00001000
00010000
01000000
00000000
,
00001000
00010000
01000000
00000000
00010000
01000000
00100000
00000000
,
00010000
10000000
00100000
01000000
00010000
00000000
00011000
00000000
,
00010000
00010000
00010000
00000000
,
00001000
00001000
00001000
00000000
,
00010000
00001000
00000100
00001000
00010000
00001000
00000100
00000000
,
00001000
00000001
00000100
00000000
,
00000100
00000100
00000100
00000000
,
00010000
00010000
00010000
00000000
,
00001000
00010000
01000000
00010000
00001000
00010000
01000000
00000000
,
00010000
10000000
01000000
00000000
,
00000000
00000000
00000000
00000000
,
00010000
00000000
10000000
00000000
00100000
01000000
01000000
00000000
,
00001000
00000000
00010000
00000000
00000100
00010000
00010000
00000000
,
00010000
00000100
00000010
00000000
00000001
00000100
00000010
00000000
,
00010000
00001000
00000100
00001000
00010000
00000000
00011000
00000000
,
00010000
00000000
10000000
00000000
00100000
01000000
01000000
00000000
,
00001000
00000000
00010000
00000000
00000100
00010000
00010000
00000000
,
00010000
00000100
00000010
00000000
00000001
00000100
00000010
00000000
,
00010000
00001000
00000100
00001000
00010000
00000000
00011000
00000000
,
00010000
00000000
00001000
00000000
00010000
00001000
00000100
00000000
,
00001000
00000000
00010000
00000000
00001000
00010000
01000000
00000000
,
00001000
00010000
01000000
00000000
00010000
01000000
00100000
00000000
,
00010000
10000000
00100000
01000000
00010000
00000000
00011000
00000000
,
00001000
00000000
00010000
00000000
00001000
00010000
01000000
00000000
,
00010000
00000000
00001000
00000000
00010000
00001000
00000100
00000000
,
00010000
00001000
00000100
00000000
00001000
00000100
00000010
00000000
,
00001000
00000001
00000010
00000100
00001000
00000000
00011000
00000000
,
00010000
00010000
00010000
00000000
,
00001000
00001000
00001000
00000000
,
00010000
00001000
00000100
00001000
00010000
00001000
00000100
00000000
,
00001000
00000001
00000100
00000000
,
00000100
00000100
00000100
00000000
,
00010000
00010000
00010000
00000000
,
00001000
00010000
01000000
00010000
00001000
00010000
01000000
00000000
,
00010000
10000000
01000000
00000000
,
00010000
00000000
10000000
00000000
00100000
01000000
01000000
00000000
,
00001000
00000000
00010000
00000000
00000100
00010000
00010000
00000000
,
00010000
00001000
00000100
00000000
00001000
00000100
00000010
00000000
,
00001000
00000001
00000010
00000100
00001000
00000000
00011000
00000000
,
00010000
00000000
10000000
00000000
00100000
01000000
01000000
00000000
,
00001000
00000000
00010000
00000000
00000100
00010000
00010000
00000000
,
00001000
00010000
01000000
00000000
00010000
01000000
00100000
00000000
,
00010000
10000000
00100000
01000000
00010000
00000000
00011000
00000000
,
00001000
00000000
01000000
00000000
00001000
00010000
01000000
00000000
,
00010000
00000000
00000100
00000000
00010000
00001000
00000100
00000000
,
00010000
00001000
00000100
00000000
00001000
00000100
00000010
00000000
,
00001000
00000001
00000010
00000100
00000010
00000000
00011000
00000000
,
00010000
00000000
00000100
00000000
00010000
00001000
00000100
00000000
,
00001000
00000000
01000000
00000000
00001000
00010000
01000000
00000000
,
00001000
00010000
01000000
00000000
00010000
01000000
00100000
00000000
,
00010000
10000000
00100000
01000000
00100000
00000000
00011000
00000000
,
00000100
00000000
00000000
00000000
;

//---------------dance-double - ----------------
#NOTES:
     dance-double:
     :
     Hard:
     8:
     0.574,0.524,0.321,0.000,0.000,323.000,28.000,0.000,0.000,0.000:
00000000
00000000
00000000
00000000
,
00000000
00000000
00000000
00000000
,
00000000
00000000
00000000
00000000
,
00000000
00000000
00000000
00000000
,
10000000
01000000
00010000
00001000
01000000
00000000
00010000
00001000
,
00000100
00000001
00000010
00000100
00001000
00000000
00001001
00000000
,
00000010
00000000
00000010
00000100
00000001
00000000
00000001
00000100
,
00001000
00010000
01000000
10000000
00010000
00000000
10010000
00000000
,
10000000
01000000
00010000
00001000
01000000
00000000
00010000
00001000
,
00000100
00000001
00000010
00000100
00001000
00000000
00001001
00000000
,
00000010
00000000
00000010
00000100
00000001
00000000
00000001
00000100
,
00001000
00010000
01000000
10000000
00010000
00000000
10010000
00000000
,
00100000
00000000
00100000
00000000
,
00010000
00000000
01000000
01000000
,
00100000
10000000
01000000
00010000
00001000
00000100
00000001
00000010
,
00000001
00000100
00000010
00001000
00000001
00000000
00000000
00000000
,
00000010
00000000
00000010
00000000
,
00001000
00000000
00000100
00000100
,
00000010
00000001
00000100
00001000
00010000
01000000
10000000
00100000
,
10000000
00010000
01000000
00100000
10000000
00000000
00000000
00000000
,
00000000
00000000
00000000
00000000
00000000
00000000
00001000
00010000
,
00001000
00100000
01000000
10010000
,
00100000
00010000
00000100
00000001
00001000
00000000
00001001
00000000
,
00010000
00001000
00000100
00000001
00001000
00000100
00000001
00000000
,
00000100
00001000
00000001
00001000
00000100
00000000
00001001
00000000
,
00000010
00000100
00010000
00100000
10000000
00000000
10010000
00000000
,
00001000
00010000
01000000
10000000
00010000
00000000
10010000
00000000
,
00100000
01000000
00010000
00001000
00000010
00001000
00000001
00000000
,
00000001
00000100
00000010
00001000
00000001
00000000
00001001
00000000
,
00000001
00000100
00001000
00010000
00000100
00000000
00001000
00010000
,
01000000
10000000
00100000
01000000
00010000
00000000
10010000
00000000
,
00100000
00000000
00100000
01000000
10000000
00000000
10000000
01000000
,
00010000
00001000
00000100
00000001
00001000
00000000
00001001
00000000
,
00000001
00000100
00001000
00010000
00000100
00000000
00001000
00010000
,
01000000
10000000
00100000
01000000
00010000
00000000
10010000
00000000
,
00100000
00000000
00100000
01000000
10000000
00000000
10000000
01000000
,
00010000
00001000
00000100
00000001
00001000
00000000
00001001
00000000
,
00000010
00000000
00000010
00000000
,
00000001
00000000
00001001
00001001
,
00000010
00000001
00000100
00001000
00010000
01000000
10000000
00100000
,
10000000
01000000
00100000
00010000
10000000
00000000
00000000
00000000
,
00100000
00000000
00100000
00000000
,
00010000
00000000
10010000
10010000
,
00100000
10000000
01000000
00010000
00001000
00000100
00000001
00000010
,
00000001
00001000
00000100
00000010
00000001
00000000
00000000
00000000
,
00000001
00000100
00001000
00010000
01000000
00000000
10010000
00000000
,
10000000
01000000
00010000
00001000
00000100
00000000
00001001
00000000
,
00000001
00001000
00000001
00000100
00000010
00000100
00000001
00000000
,
00000010
00000100
00001000
00010000
01000000
00000000
10010000
00000000
,
10000000
01000000
00010000
00001000
00000100
00000000
00001001
00000000
,
00000001
00000100
00001000
00010000
01000000
00000000
10010000
00000000
,
10000000
00010000
10000000
01000000
00100000
01000000
10000000
00000000
,
00100000
01000000
00010000
00001000
00000100
00000000
00001001
00000000
,
00000001
00000100
00001000
00010000
00000100
00000000
00010000
00001000
,
00010000
01000000
10000000
00010000
01000000
00000000
10010000
00000000
,
00100000
00000000
00100000
01000000
10000000
00000000
10000000
01000000
,
00010000
00001000
00000100
00000001
00001000
00000000
00001001
00000000
,
00000001
00000100
00001000
00010000
00000100
00000000
00010000
00001000
,
00010000
01000000
10000000
00010000
01000000
00000000
10010000
00000000
,
00100000
00000000
00100000
01000000
10000000
00000000
10000000
01000000
,
00010000
00001000
00000100
00000001
00001000
00000000
00001001
00000000
,
00000010
00000000
00000000
00000000
;

//---------------dance-double - ----------------
#NOTES:
     dance-double:
     :
     Challenge:
     9:
     0.726,0.873,0.435,0.000,0.275,406.000,38.000,0.000,0.000,0.000:
00000000
00000000
00000000
00000000
,
00000000
00000000
00000000
00000000
,
00000000
00000000
00000000
00000000
,
00000000
00000000
00000000
00000000
,
10000000
00100000
00100000
01000000
00001000
00000000
00011000
00000000
,
00000010
00000100
00000100
00000001
00001000
00000000
00010010
00000000
,
00001000
01000000
00001000
00100000
00010000
00000000
10010000
00000000
,
01000000
00010000
01000000
00001000
00010000
00000000
00010010
00000000
,
00000100
00000010
00000010
00000001
00001000
00000000
00010100
00000000
,
00100000
01000000
01000000
10000000
00010000
00000000
00101000
00000000
,
00010000
00000100
00010000
00000010
00001000
00000000
00001001
00000000
,
00000100
00001000
00000100
00010000
00001000
00000000
00101000
00000000
,
01000000
00000000
10000000
01000000
10000000
00000000
01000000
10000000
01000000
00000000
10000000
01000000
10000000
00000000
01000000
10000000
,
00100000
00000000
10000000
00100000
10000000
00000000
00100000
10000000
00100000
00000000
10000000
00100000
10000000
00000000
00100000
10000000
,
00010000
00000000
10000000
00010000
10000000
00000000
00010000
10000000
00010000
00000000
10000000
00010000
10000000
00000000
00010000
10000000
,
00100000
01000000
00001000
00011000
,
00000010
00000000
00001000
00000010
00001000
00000000
00000010
00001000
00000010
00000000
00001000
00000010
00001000
00000000
00000010
00001000
,
00000001
00000000
00001000
00000001
00001000
00000000
00000001
00001000
00000001
00000000
00001000
00000001
00001000
00000000
00000001
00001000
,
00000100
00000000
00010000
00000100
00010000
00000000
00000100
00010000
00000100
00000000
00010000
00000100
00010000
00000000
00000100
00010000
,
00001000
00000000
00010000
01000000
10000000
00000000
10010000
00000000
,
10010000
00000000
00000000
00000000
00000000
00000000
00001000
00000001
,
00000100
00000000
00000010
00000000
00010000
00001000
01000000
00010000
,
10000000
00000000
00100000
00000000
01000000
00001000
00010000
00000100
,
00000010
00000010
00000010
00000001
00001000
00000000
00010100
00000000
,
01000000
01000000
01000000
00100000
00010000
00000000
10010000
00000000
,
00100000
00000000
01000000
00000000
00001000
00010000
00000010
00001000
,
00000001
00000000
00000100
00000000
00000010
00010000
00001000
00100000
,
01000000
01000000
01000000
10000000
00010000
00000000
00101000
00000000
,
00000010
00000010
00000010
00000100
00001000
00000000
00001001
00000000
,
00000001
00000010
00000010
00000100
00010000
00000000
00011000
00000000
,
00100000
01000000
01000000
10000000
00010000
00000000
00101000
00000000
,
00010000
00000100
00010000
00000010
00001000
00000000
00001001
00000000
,
00000100
00001000
00000100
00010000
00001000
00000000
00101000
00000000
,
01000000
00100000
00100000
10000000
00010000
00000000
01001000
00000000
,
00000010
00000100
00000100
00000001
00001000
00000000
00010010
00000000
,
00001000
01000000
00001000
00100000
00010000
00000000
10010000
00000000
,
01000000
00010000
01000000
00001000
00010000
00000000
00010010
00000000
,
00000100
00000000
00000001
00000100
00000001
00000000
00000100
00000001
00000100
00000000
00000001
00000100
00000001
00000000
00000100
00000001
,
00000010
00000000
00000001
00000010
00000001
00000000
00000010
00000001
00000010
00000000
00000001
00000010
00000001
00000000
00000010
00000001
,
00001000
00000000
00000001
00001000
00000001
00000000
00001000
00000001
00001000
00000000
00000001
00001000
00000001
00000000
00001000
00000001
,
00000010
00000100
00010000
00011000
,
00100000
00000000
00010000
00100000
00010000
00000000
00100000
00010000
00100000
00000000
00010000
00100000
00010000
00000000
00100000
00010000
,
10000000
00000000
00010000
10000000
00010000
00000000
10000000
00010000
10000000
00000000
00010000
10000000
00010000
00000000
10000000
00010000
,
01000000
00000000
00001000
01000000
00001000
00000000
01000000
00001000
01000000
00000000
00001000
01000000
00001000
00000000
01000000
00001000
,
00010000
00000000
00001000
00000100
00000001
00000000
00001001
00000000
,
00000100
00000000
00000010
00000000
00010000
00001000
01000000
00010000
,
10000000
00000000
00100000
00000000
01000000
00001000
00010000
00000100
,
00000010
00000010
00000010
00000001
00001000
00000000
00010100
00000000
,
01000000
01000000
01000000
00100000
00010000
00000000
10010000
00000000
,
00100000
00000000
01000000
00000000
00001000
00010000
00000010
00001000
,
00000001
00000000
00000100
00000000
00000010
00010000
00001000
00100000
,
01000000
01000000
01000000
10000000
00010000
00000000
00101000
00000000
,
00000010
00000010
00000010
00000100
00001000
00000000
00001001
00000000
,
00000001
00000100
00000100
00000010
00010000
00000000
00011000
00000000
,
01000000
00100000
00100000
10000000
00010000
00000000
01001000
00000000
,
00010000
00000010
00010000
00000100
00001000
00000000
00001001
00000000
,
00000010
00001000
00000010
00010000
00001000
00000000
01001000
00000000
,
00100000
01000000
01000000
10000000
00010000
00000000
00101000
00000000
,
00000100
00000010
00000010
00000001
00001000
00000000
00010100
00000000
,
00001000
00100000
00001000
01000000
00010000
00000000
10010000
00000000
,
00100000
00010000
00100000
00001000
00010000
00000000
00010100
00000000
,
00010010
00000000
00000000
00000000
;

//---------------dance-couple - ----------------
#NOTES:
     dance-couple:
     :
     Medium:
     6:
     0.867,1.000,1.000,0.000,0.000,328.000,161.000,0.000,0.000,25.000:
00000000
00000000
00000000
00000000
,
00000000
00000000
00000000
00000000
,
00000000
00000000
00000000
00000000
,
00000000
00000000
00000000
00000000
,
10001000
00001000
00000001
00000100
10001000
00000000
00000010
00000001
,
10001000
00000100
00000010
00000001
10001000
00000000
00001001
00000000
,
00010010
00000000
00000010
00000100
00011000
00000000
00000010
00001000
,
00010001
00000010
00000100
00001000
00010001
00000000
00001001
00000000
,
10000001
10000000
00010000
01000000
10000001
00000000
00100000
00010000
,
10000001
01000000
00100000
00010000
10000001
00000000
10010000
00000000
,
00101000
00000000
00100000
01000000
10001000
00000000
00100000
10000000
,
00011000
00100000
01000000
10000000
00011000
00000000
10010000
00000000
,
10000000
10000000
11000000
11000000
,
00000001
00000001
00000101
00000101
,
10011001
10011001
10011001
10011001
,
10001000
00010001
01000100
00100010
10001000
00000000
10011001
00000000
,
00001000
00001000
00001100
00001100
,
00010000
00010000
01010000
01010000
,
00001001
10010000
00001001
10010000
,
10001000
00010001
01000100
00100010
10001000
00000000
10011001
00000000
,
00000000
00000000
00000000
00000000
,
10000000
00000000
00010000
00000000
10000000
01000001
01000001
00000000
,
00100000
00000000
10000000
00000000
00010000
01000001
01000001
00000000
,
00100000
10000000
00010001
01000000
00100000
10000000
00010001
00000000
,
10000000
01000000
00100001
00010000
10000000
00000001
10010001
00000000
,
00001000
00000000
00000001
00000000
00001000
10000100
10000100
00000000
,
00000010
00000000
00001000
00000000
00000001
10000100
10000100
00000000
,
00000010
00001000
10000001
00000100
00000010
00001000
10000001
00000000
,
00001000
00000100
10000010
00000001
00001000
10000000
10001001
00000000
,
10000000
10000000
00010001
01000000
10000000
00000000
00100001
00010000
,
10000000
01000000
00100001
00010000
10000000
00000001
10010001
00000000
,
00100000
00000000
00100001
01000000
10010000
00000000
01000001
10000000
,
00010000
00100000
01000001
10000000
00010000
00000001
10010001
00000000
,
00001000
00001000
10000001
00000100
00001000
00000000
10000010
00000001
,
00001000
00000100
10000010
00000001
00001000
10000000
10001001
00000000
,
00000010
00000000
10000010
00000100
00001001
00000000
10000100
00001000
,
00000001
00000010
10000100
00001000
00000001
10000000
10001001
00000000
,
10000000
10000000
00001100
00001100
,
00000001
00000001
01010000
01010000
,
00001001
01010000
00001100
10010000
,
10001000
00010001
01000100
00100010
10001000
00000000
10011001
00000000
,
00010000
00001000
01011100
01011100
,
00000001
10000000
11000101
11000101
,
10010000
00001001
01100110
01100110
,
00000000
00000000
00000000
00111100
,
00010000
10000000
00100001
01000000
00010000
01000001
01000001
00000000
,
00100000
10000000
00010001
01000000
10000000
01000001
01000001
00000000
,
00100000
00010000
10000001
01000000
00010000
10000000
00010001
00000000
,
00010000
01000000
00100001
10000000
00010000
01000001
01000001
00000000
,
00001000
00000001
10000010
00000100
00001000
10000100
10000100
00000000
,
00000010
00000001
10001000
00000100
00000001
10000100
10000100
00000000
,
00000010
00001000
10000001
00000100
00001000
00000001
10001000
00000000
,
00001000
00000100
10000010
00000001
00001000
10000100
10000100
00000000
,
00010000
00010000
10000001
01000000
00010000
00000000
00100001
10000000
,
00010000
01000000
00100001
10000000
00010000
00000000
10010001
00000000
,
00001000
00001000
10000001
00000100
00001000
00000000
10000010
00000001
,
00001000
00000100
10000010
00000001
00001000
00000000
10001001
00000000
,
10000001
10000001
00011000
01000100
10000001
00000000
00100010
00011000
,
10000001
01000100
00100010
00011000
10000001
00000000
10011001
00000000
,
00100010
00000000
00100010
01000100
10011000
00000001
01000100
10000001
,
00011000
00100010
01000100
10000001
00011000
00000000
10011001
00000000
,
00100010
00000000
00000000
00000000
;

//---------------dance-solo - ----------------
#NOTES:
     dance-solo:
     :
     Easy:
     4:
     0.357,0.384,0.321,0.000,0.000,190.000,28.000,0.000,0.000,0.000:
000000
000000
000000
000000
,
000000
000000
000000
000000
,
000000
000000
000000
000000
,
000000
000000
000000
000000
,
000000
000000
000010
100010
,
001000
000000
001000
100001
,
000100
100000
000001
001000
,
000100
000000
001000
100001
,
000000
000000
010000
010001
,
000100
000000
000100
100001
,
001000
000001
100000
000100
,
001000
000000
000100
100001
,
001000
000000
001000
000000
,
000001
000000
000001
000000
,
100000
000000
100000
000000
,
000100
000000
000100
100001
,
001000
000000
001000
000000
,
000010
000000
000010
000000
,
100000
000001
100000
000001
,
100000
000100
001000
000001
,
000000
000000
000000
000000
,
000000
000010
100000
100000
,
010000
000000
000001
000001
,
000100
001000
001000
100000
,
000010
000010
000010
000001
,
100000
000000
000001
100001
,
000100
000000
001000
100001
,
000100
001000
010000
000001
,
001000
000100
100000
000010
,
001000
000100
001000
100001
,
000010
001000
000010
100001
,
010000
010000
000001
000001
,
000100
001000
000001
100001
,
000010
000010
001000
001100
,
100000
000001
010000
100001
,
001000
001000
000100
000100
,
000001
001000
000100
100000
,
000100
000000
000100
000000
,
100000
000000
100000
000000
,
000001
001000
000100
100000
,
000010
001000
000100
001100
,
100000
000000
100000
000000
,
000001
000000
000001
000000
,
000100
000001
100000
001000
,
000001
000100
100000
100001
,
001000
000000
001000
100001
,
000001
000000
010000
010010
,
000100
001000
001000
000001
,
100000
000100
001000
100001
,
000001
000000
010000
010010
,
000100
000000
001000
001100
,
100000
000001
001000
000100
,
010000
000001
001000
100001
,
001000
000010
001000
001100
,
100000
000001
001000
100001
,
000010
000010
100000
000010
,
001000
000001
010000
010010
,
100000
000001
001000
001100
,
000010
001000
000001
100001
,
010000
001000
000100
100000
,
000001
001000
100000
100001
,
000100
000000
000000
000000
;

//---------------dance-solo - ----------------
#NOTES:
     dance-solo:
     :
     Medium:
     6:
     0.468,0.489,0.172,0.000,0.000,271.000,15.000,0.000,0.000,0.000:
000000
000000
000000
000000
,
000000
000000
000000
000000
,
000000
000000
000000
000000
,
000000
000000
000000
000000
,
000010
000000
100000
000000
000001
001000
000100
000000
,
100000
000000
000001
000000
010000
000001
010000
000000
,
000100
001000
000100
000000
100000
100000
000010
000000
,
000010
100000
001000
100000
001000
000000
001100
000000
,
000001
000000
100000
000000
000100
001000
100000
000000
,
000001
000000
001000
000000
001000
000100
100000
000000
,
000001
001000
000100
000000
000100
100000
000001
000000
,
001000
000010
001000
000010
100000
000000
000001
000000
,
010000
000000
010000
000000
,
000010
000000
000010
000000
,
100000
011000
100000
010001
,
100000
001000
000100
000001
100000
000000
000000
000000
,
000010
000000
000010
000000
,
010000
000000
010000
000000
,
000001
001010
000001
100010
,
001000
000100
100000
000001
001000
000000
000000
000000
,
000000
000000
000000
000000
,
000001
000000
100000
000000
001000
010000
001000
000000
,
000010
000000
000010
000000
100000
000001
001000
000000
,
000001
000000
010000
000000
000100
100000
001000
000000
,
000001
000010
000001
000100
000010
000000
000010
000000
,
001000
000000
000001
000000
100000
001000
000001
000000
,
000100
000000
001000
000000
000010
001000
000100
000000
,
100000
000000
000001
000000
010000
000001
001000
000000
,
000010
001000
000001
001000
000100
000000
000100
000000
,
000001
000000
100000
000000
000100
001000
000010
000000
,
000010
000000
100000
000000
000001
001000
000100
000000
,
001000
000010
001000
000000
000001
001000
100000
000000
,
000010
001000
000010
100000
000001
000000
001100
000000
,
000001
000000
100000
000000
000100
001000
000001
000000
,
001000
000000
000100
000000
100000
000001
100000
000000
,
000100
010000
000001
000000
100000
000010
001000
000000
,
000100
100000
001000
100000
001000
000000
000001
000000
,
000100
000000
000100
000000
,
100000
000000
100000
000000
,
000100
010100
000100
000110
,
000010
000100
000001
100000
001000
000000
000000
000000
,
010000
000000
010000
000000
,
000001
000000
000001
000000
,
000001
010001
100000
100010
,
000100
000001
100000
001000
000001
000000
000000
000000
,
000001
000000
100000
000000
000100
001000
000010
000000
,
001000
000000
000001
000000
100000
001000
000001
000000
,
000100
001000
000100
000000
000001
001000
100000
000000
,
000010
001000
000100
001000
000100
000000
100001
000000
,
000100
000000
001000
000000
000001
001000
100000
000000
,
000010
000000
001000
000000
000001
100000
000100
000000
,
001000
000001
100000
000000
100000
001000
010000
000000
,
000001
001000
000010
001000
000010
000000
100001
000000
,
000001
000000
100000
000000
000100
001000
000100
000000
,
000001
000000
100000
000000
000100
001000
100001
000000
,
001000
010000
001000
000000
000100
000010
000100
000000
,
100000
000001
001000
000100
001000
000000
100001
000000
,
000100
000000
001000
000000
000010
001000
000001
000000
,
100000
000000
000100
000000
001000
000001
001000
000000
,
000100
100000
000001
000000
000100
001000
100000
000000
,
000001
100000
001000
000100
001000
000000
100001
000000
,
000100
000000
000000
000000
;

//---------------dance-solo - ----------------
#NOTES:
     dance-solo:
     :
     Hard:
     8:
     0.622,0.559,0.698,0.000,0.000,319.000,61.000,0.000,0.000,0.000:
000000
000000
000000
000000
,
000000
000000
000000
000000
,
000000
000000
000000
000000
,
000000
000000
000000
000000
,
100000
000010
100000
001000
000100
000000
000100
000001
,
100000
001000
000100
000001
010000
000000
010001
000000
,
000100
000000
000100
001000
000001
000000
100000
000100
,
001000
000010
001000
000010
100000
000000
100001
000000
,
001000
001000
000100
100000
000001
000000
100000
000010
,
001000
000001
010000
000100
100000
000000
100001
000000
,
000100
000000
000100
001000
000001
000000
100000
000001
,
100000
000100
001000
000001
100000
000000
100001
000000
,
010000
010000
011000
011000
,
000010
000010
001010
001010
,
100001
100001
100001
100001
,
100000
000100
001000
000001
100000
000000
100001
000000
,
100000
100000
110000
110000
,
000001
000001
000011
000011
,
100001
100001
100001
100001
,
100000
000001
001000
000100
100000
000000
100001
000000
,
000000
000000
000000
000000
000000
000000
000100
001000
,
000001
100000
000100
001100
,
000010
000001
100000
010000
100000
000000
100001
000000
,
000100
001000
000010
001000
010000
000001
100000
000000
,
000001
000100
001000
100000
000001
000000
100001
000000
,
000100
000010
001000
000100
001000
000000
100001
000000
,
000100
000010
100000
010000
000100
000000
001100
000000
,
000001
100000
000100
001000
000010
100000
000001
000000
,
000001
001000
000100
100000
000001
000000
100001
000000
,
001000
001000
000100
100000
000001
000000
001000
000100
,
100000
000001
001000
000100
010000
000000
010001
000000
,
000100
000000
000100
001000
000010
000000
001000
000100
,
100000
001000
000100
000001
100000
000000
100001
000000
,
000100
000100
100000
000001
001000
000000
100001
000000
,
010000
000010
100000
100001
,
000100
000000
000100
001000
000001
000000
001000
000010
,
100000
000010
010000
000001
001000
000000
001100
000000
,
000001
000001
000011
000011
,
100000
100000
110000
110000
,
100001
100001
100001
100001
,
001000
000100
100000
000001
001000
000000
001100
000000
,
000001
000001
010001
010001
,
100000
100000
100010
100010
,
100001
100001
100001
100001
,
010000
000001
100000
000010
001000
000000
000000
000000
,
000001
100000
000001
001000
000100
000000
100001
000000
,
001000
000100
100000
000001
001000
000000
100001
000000
,
000100
001000
000010
100000
000001
100000
000001
000000
,
001000
000100
001000
000100
100000
000000
100001
000000
,
000100
001000
000010
001000
000001
000000
100001
000000
,
000100
010000
000001
001000
000010
000000
100010
000000
,
000100
100000
000010
010000
000001
001000
001000
000000
,
000010
001000
000001
001000
000100
000000
001100
000000
,
100000
100000
000001
001000
000100
000000
000100
100000
,
000001
001000
000100
010000
000010
000000
100001
000000
,
000100
000000
000100
001000
000010
000000
000010
100000
,
000001
000100
001000
100000
000001
000000
010001
000000
,
000100
000100
001000
000001
100000
000000
000100
001000
,
000010
001000
000010
100000
000001
000000
100001
000000
,
000100
000000
000100
001000
001010
000000
100000
000010
,
001000
000001
010000
000001
100000
000000
100001
000000
,
010000
000000
000000
000000
;

//---------------dance-single - ----------------
#NOTES:
     dance-single:
     :
     Beginner:
     3:
     0.232,0.279,0.126,0.000,0.000,131.000,11.000,0.000,0.000,0.000:
0000
0000
0000
0000
,
0000
0000
0000
0000
,
0000
0000
0000
0000
,
0000
0000
0000
0000
,
1000
1000
1000
0000
,
0100
0000
0100
0000
,
0001
0001
0001
0000
,
0010
0000
0010
0000
,
1000
1000
1000
0000
,
0100
0000
1000
0000
,
0010
0010
0010
0000
,
0100
0000
0010
0000
,
1001
0000
0000
0000
,
1001
0000
0000
0000
,
1001
0000
0000
0000
,
0100
0100
0100
0000
,
0110
0000
0000
0000
,
0110
0000
0000
0000
,
0110
0000
0000
0000
,
0010
0010
0010
0000
,
0100
0000
0000
0001
,
0001
0000
0010
0000
,
0100
0000
1000
0000
,
0001
0001
0001
0000
,
0100
0100
0100
0000
,
0010
0000
1000
0000
,
0001
0000
1000
0000
,
0100
0100
0100
0000
,
0010
0000
0001
0000
,
1000
1000
1000
0000
,
0001
0000
0100
0000
,
0001
0001
0001
0000
,
1000
0000
0100
0000
,
0010
0010
0010
0000
,
0001
0001
0001
0000
,
0100
0000
0001
0000
,
1000
1000
1000
0000
,
0100
0000
0100
0000
,
0010
0000
0010
0000
,
0001
0000
0001
0000
,
1000
0000
1000
0000
,
0001
0000
0001
0000
,
0010
0000
0010
0000
,
0100
0000
0100
0000
,
1000
0000
1000
0000
,
0100
0000
0000
0010
,
0010
0000
0000
0001
,
0001
0000
0110
0000
,
1001
0000
0100
0000
,
1000
0000
0000
0010
,
0010
0000
0000
0100
,
0100
0000
1000
0000
,
1001
0000
0110
0000
,
1000
1000
1000
0000
,
0100
0100
0100
0000
,
0010
0010
0010
0000
,
0001
0001
0001
0000
,
0001
0001
0001
0000
,
0100
0100
0100
0000
,
0010
0010
0010
0000
,
1000
1000
1000
0000
,
1001
0000
0000
0000
;

//---------------dance-single - ----------------
#NOTES:
     dance-single:
     :
     Easy:
     5:
     0.370,0.454,0.275,0.000,0.000,202.000,24.000,0.000,0.000,0.000:
0000
0000
0000
0000
,
0000
0000
0000
0000
,
0000
0000
0000
0000
,
0000
0000
0000
0000
,
1000
0100
0010
0001
,
0010
0100
1001
0000
,
0001
0100
1000
1000
,
1000
0100
0001
0000
,
0001
0100
0010
1000
,
0010
0100
1001
0000
,
1000
0100
0001
0001
,
0001
0100
1000
0000
,
0001
0011
0001
0011
,
0010
0011
0010
0011
,
1000
0001
1000
0001
,
1000
0110
0100
0000
,
1000
1010
1000
1010
,
0010
1010
0010
1010
,
1000
0001
1000
0001
,
1000
0110
0010
0000
,
1001
0000
0000
0100
,
0100
0010
0001
0000
,
0100
0010
1000
0000
,
0001
1000
0100
0010
,
0001
1000
0001
0000
,
0010
0001
0100
0000
,
0010
1000
0100
0000
,
0010
0010
0001
0001
,
1000
1000
0100
0000
,
0010
1000
0001
0000
,
0100
0001
1000
0000
,
0010
0010
0100
0100
,
0001
0001
1000
0000
,
0001
0100
1000
0000
,
0010
0100
0010
0000
,
1000
0100
0001
0010
,
0100
0100
1000
0001
,
1000
1010
0010
1010
,
1000
1010
0010
1010
,
0001
0100
0001
0100
,
0010
0110
0100
0000
,
0001
0101
0100
0101
,
0001
0101
0100
0101
,
1000
0010
1000
0010
,
0100
0110
0010
0000
,
1000
0001
1000
0000
,
0010
0001
0100
0000
,
0010
1000
0100
1000
,
0001
0010
0001
0000
,
0100
0001
1000
0000
,
0100
1000
0001
0000
,
0010
0001
0100
0001
,
0010
1000
0100
0000
,
0001
1000
0001
0010
,
1000
0001
1000
0100
,
1000
0001
1000
0010
,
0001
1000
0001
0100
,
0001
1000
0010
0100
,
0001
1000
0100
0001
,
0010
0100
0010
0001
,
1000
0100
1000
0110
,
0100
0000
0000
0000
;

//---------------dance-single - ----------------
#NOTES:
     dance-single:
     :
     Medium:
     7:
     0.545,0.559,0.424,0.000,0.000,296.000,37.000,0.000,0.000,0.000:
0000
0000
0000
0000
,
0000
0000
0000
0000
,
0000
0000
0000
0000
,
0000
0000
0000
0000
,
1000
0000
0001
0100
0001
0000
0010
0000
,
0100
0000
1000
0001
0001
0000
0000
0000
,
1000
0000
1000
0100
1000
0000
0010
0100
,
0010
1000
0101
0000
,
0010
0000
0001
1000
0100
0000
0010
0000
,
0100
1010
0101
0000
,
0010
0000
0001
1000
0100
0000
1000
0001
,
0100
0010
0110
0000
1010
0000
1001
0000
,
0110
1000
0001
1000
,
0001
0100
0001
0100
,
0010
1000
0010
1000
,
1001
0011
0110
0000
,
1000
0100
0010
0010
,
0010
0001
0100
0010
,
0010
1000
0001
1000
,
0100
0001
0110
1000
,
0001
0000
0000
0000
0000
0000
0010
0001
,
0100
0000
0001
1000
0010
0000
0100
0000
,
0001
0000
1000
0100
1000
0000
1000
0000
,
0010
0000
0010
0001
0100
0001
1000
0000
,
0010
0100
0010
0000
0110
0000
1000
0001
,
0010
0000
1000
0000
0010
0000
0100
0010
,
0001
1000
0001
0000
0110
0000
1000
0000
,
0001
0000
0010
0001
0100
0001
0010
0000
,
0100
1000
0001
1000
0100
0000
0110
0000
,
0001
0100
1000
0100
0001
0000
0010
0100
,
0010
1000
0100
0010
0001
0000
1100
0000
,
0101
0000
0010
0100
0010
0000
0100
0001
,
0100
0001
0100
0001
0100
0000
1010
0000
,
0001
1000
0010
1000
0100
0000
0010
0001
,
0100
0001
1000
0010
0001
0000
0101
0000
,
1100
0000
0010
0001
1000
0000
1000
0001
,
0010
0100
0010
0001
0100
0000
0101
0000
,
1100
0100
0100
0100
,
0011
0010
0010
0010
,
1001
1001
1001
1001
,
0001
0100
0010
1000
0010
0000
0000
0000
,
0101
0100
0100
0100
,
1010
0010
0010
0010
,
1001
1001
1001
1001
,
1000
0100
0010
0001
0010
0000
0000
0000
,
0001
0100
0001
0100
0001
0000
0010
0000
,
1000
0100
1000
0100
1000
0000
0010
0000
,
0100
0000
0010
0100
0010
0000
0010
1000
,
0001
1000
0001
1000
0100
0000
0010
0000
,
0001
0010
0100
0010
0100
0000
1000
0000
,
0001
1000
0010
0100
0010
0000
0010
0000
,
1000
0000
0001
0100
0001
0000
0001
0000
,
1000
0010
0100
0010
1000
0000
1100
0000
,
0101
0000
0010
0001
1000
0000
0100
0010
,
0001
0010
0100
0010
0001
0000
1000
0000
,
0001
0000
1000
0100
1000
0000
0001
0010
,
0100
1000
0100
0010
0001
0000
1100
0000
,
0001
0100
0010
0100
0010
0000
1000
0100
,
1000
0100
0010
0100
0010
0000
0001
0000
,
1000
0000
0001
0010
0001
0000
1000
0010
,
1000
0100
0010
0001
1000
0000
0110
0000
,
1001
0000
0000
0000
;

//---------------dance-single - ----------------
#NOTES:
     dance-single:
     :
     Challenge:
     10:
     1.000,1.000,0.618,0.000,1.000,612.000,54.000,0.000,0.000,0.000:
0000
0000
0000
0000
,
0000
0000
0000
0000
,
0000
0000
0000
0000
,
0000
0000
0000
0000
,
1000
0000
0000
0100
0001
0000
0100
0000
0010
0000
0000
0000
1000
0000
0010
0000
,
0001
0000
0100
0000
0010
0000
1000
0000
0101
0000
0000
0000
0010
0000
0100
0010
,
0001
0000
1000
0100
1000
0000
1000
0100
,
1000
0010
0100
0001
1010
0000
0101
0000
,
0001
0000
0000
0100
1000
0000
0010
0000
0100
0000
0000
0000
0001
0000
1000
0000
,
0010
0000
0100
0000
0001
0000
1000
0000
0100
0000
0001
0000
0110
0000
0100
0010
,
1000
0000
0001
0100
1000
0000
1000
0100
,
0001
0010
0100
1000
0010
0000
0110
0000
,
0010
0000
1000
0100
1000
0001
0010
0100
1000
0010
0100
0010
0100
0001
1000
0001
,
0010
0000
0001
0100
0001
1000
0010
0100
0001
0010
0100
0010
0100
1000
0001
1000
,
0010
0000
0100
0010
0100
1000
0100
0001
0010
0100
0010
1000
0010
0001
0100
0010
,
1000
0000
1010
0000
0010
0000
0101
0000
0100
0000
0001
1000
0001
0000
0001
1000
,
0001
0000
0100
1000
0100
0010
1000
0001
0100
0010
1000
0100
0010
0100
0001
1000
,
0010
0000
0100
0001
0100
0010
0001
0100
1000
0100
0010
1000
0010
1000
0001
0100
,
0001
0000
0010
1000
0010
0001
0100
0010
1000
0100
0010
0001
0100
0010
1000
0001
,
1000
0000
0110
0000
0001
0000
0110
0000
1000
0100
1000
0100
0010
0001
0010
0001
,
0010
0000
0000
0000
0000
0000
1000
0001
,
0100
0000
0001
1000
0001
0000
0100
0000
0010
0000
1000
0000
0001
0000
0100
0000
,
0001
0000
1000
0100
1000
0000
0010
0000
0100
0000
0100
0000
0100
0000
0001
0010
,
0100
0000
0010
0000
0001
0000
1000
0001
0100
0000
1000
0000
0001
0000
0100
1000
,
0100
0000
0010
0000
0001
0000
0100
0000
0001
0010
0100
0000
1010
0000
0001
0000
,
0010
0000
0001
0100
0001
0000
1000
0000
0010
0000
0100
0010
1000
0000
0100
0010
,
0001
0000
1000
0000
0100
0000
0010
0000
1000
0000
1000
0100
0001
0000
0100
1000
,
0010
0000
0100
0000
0001
0000
1000
0001
0100
0001
1000
0010
0100
0010
1000
0000
,
0100
0010
0001
0010
0100
1000
0001
1000
0100
1000
0010
0100
0001
0010
0001
0010
,
0001
0000
0100
0010
0100
0000
0010
0000
1000
0000
0001
0000
1000
0000
0100
0010
,
0100
0000
0010
0000
0001
0000
0100
0000
0001
0000
1000
0000
1010
0000
1000
0001
,
1000
0000
0100
0000
0010
0000
0001
1000
0001
0000
0100
0000
0010
0000
1000
0100
,
1000
0100
1000
0000
0001
0100
0001
0000
0010
0100
0010
0000
1001
0000
0100
0000
,
0100
0000
0010
0001
1000
0000
0010
1000
0010
0000
0100
0000
0001
0000
1000
0000
,
0001
0000
0010
0100
0010
0000
0001
0000
0100
0000
1000
0000
0110
0000
1000
0001
,
0100
0000
0010
0000
1000
0000
0001
1000
0100
0000
0010
0000
0100
0000
0001
1000
,
0010
1000
0001
0000
1000
0001
0010
0000
0001
1000
0010
0000
0110
1000
0001
0000
,
0010
0000
0001
0100
0001
1000
0010
0100
0010
1000
0100
0001
0100
1000
0010
0100
,
0001
0000
1000
0010
0100
0001
1000
0001
0100
0010
0001
1000
0100
0010
0100
0001
,
1000
0000
0100
0010
0001
1000
0001
0010
1000
0001
0100
1000
0010
0100
0001
0010
,
0001
0101
0100
0101
0110
0000
1010
0000
,
1001
0000
1000
0100
0010
0001
1000
0010
0001
0010
0100
0001
0100
1000
0100
0001
,
0010
0000
0100
1000
0100
0001
0100
1000
0010
0100
0010
1000
0100
0010
0100
0010
,
0001
0000
1000
0001
0100
0010
0100
0001
0010
0001
0100
1000
0100
0010
1000
0100
,
0010
1010
1000
1010
0110
0000
0101
0000
,
1001
0000
0010
0001
0100
0000
0110
0000
1010
0000
1000
0000
0001
0000
1000
0000
,
0110
0000
0010
0001
1000
0000
1010
0000
0110
0000
1000
0000
1001
0000
0100
0010
,
0110
0010
0101
0110
1010
1000
1100
0010
,
0011
0000
1100
0000
0011
0000
1100
0000
1001
0000
0010
0001
1000
0000
0010
0001
,
1000
0000
0100
0010
0100
0000
1100
0000
0101
0000
0010
0000
1001
0000
0100
0000
,
1001
0000
0010
1000
0100
0000
0011
0000
1001
0000
0100
0000
1010
0000
0100
0010
,
1100
0010
0101
0110
0011
0100
1100
0010
,
1001
0010
0001
1000
0001
0100
1000
0100
0010
1000
0010
1000
0001
1000
0100
0001
,
0100
0000
0010
0001
1000
0000
0001
0000
0100
0000
0001
0000
1000
0000
0010
1000
,
0100
0000
0010
0000
1000
0000
0100
0000
0001
0000
0100
0000
0010
0000
0001
1000
,
0001
0000
0010
0000
0001
0000
0100
0001
1000
0000
0010
0000
0100
0000
0010
1000
,
0100
0010
0001
0000
0100
0010
1000
0000
0100
0010
0001
0000
0100
0010
1000
0000
,
0001
0000
0010
0001
1000
0000
0100
0000
1000
0000
0010
0000
0100
0000
0010
1000
,
0100
0010
0001
0000
1000
0100
1000
0000
0010
0100
0001
0000
0010
0100
0010
0001
,
1000
0000
0001
0000
0100
0000
0001
1000
0010
0000
0100
0000
0010
0000
1000
0100
,
0010
0001
0010
0100
1000
0100
1000
0001
1000
0001
1000
0010
0100
0010
0100
0010
,
1001
0000
0000
0000
;

//---------------dance-single - ----------------
#NOTES:
     dance-single:
     :
     Hard:
     9:
     0.685,0.768,0.492,0.000,0.046,376.000,43.000,0.000,0.000,0.000:
0000
0000
0000
0000
,
0000
0000
0000
0000
,
0000
0000
0000
0000
,
0000
0000
0000
0000
,
1000
0100
0010
0001
0010
0000
1000
0001
,
1000
0100
1000
0010
1010
0000
0110
0000
,
0101
0000
0010
0001
0100
0000
0010
1000
,
0100
0010
0001
1000
1100
0000
0011
0000
,
1000
0001
0100
0001
1000
0000
0010
1000
,
0100
0010
0001
1000
1100
0000
0110
0000
,
0011
0000
1000
0001
0100
0000
0010
1000
,
0100
0010
0001
1000
0110
0000
0011
0000
,
1001
0010
0001
0100
0001
0010
0001
0100
,
1001
0010
1000
0100
1000
0010
1000
0100
,
1000
0001
0100
0001
1000
0100
1000
0001
,
0100
0010
1000
0001
1000
0000
0000
0000
,
1001
0010
0001
1000
0001
0100
0001
1000
,
1001
0010
1000
0001
1000
0100
1000
0001
,
1000
0100
1000
0001
0100
0001
1000
0100
,
1000
0100
0010
0001
0100
0000
0000
0000
,
0110
0000
0000
0000
0000
0000
1000
0100
,
0010
0000
0000
0001
1000
0000
0001
0000
1000
0000
0000
0000
0010
0000
0000
0000
,
0100
0000
0000
0001
0010
0000
0001
0000
0100
0000
0010
0000
0100
0000
0000
0000
,
0001
0000
0001
1000
0010
1000
0100
0000
,
0100
0010
0100
0010
0100
0000
0110
0000
,
1000
0000
0000
0001
1000
0000
0010
0000
1000
0000
0000
0000
0100
0000
0010
0000
,
0001
0000
0000
1000
0001
0000
0100
0000
0010
0000
1000
0000
0100
0000
0000
0000
,
1000
0000
1000
0100
1000
0010
0100
0000
,
0100
0010
0100
0010
0100
0000
0110
0000
,
1000
0001
0010
0100
1000
0000
1000
0100
,
0010
0100
1000
0001
0100
0000
0100
0000
,
0100
0000
0100
0010
1000
0000
1000
0100
,
0010
0001
0100
0001
0010
0000
0010
0000
,
0010
0001
0100
0001
1000
0000
1000
0010
,
0100
0010
1000
0100
0010
0001
0100
0000
,
0100
0000
0100
0010
0001
0000
0001
1000
,
0100
0001
0010
0100
1000
0000
0110
0000
,
1001
0010
0001
0100
1001
0010
1000
0100
,
1001
0010
0001
1000
1100
0010
1000
0001
,
0101
0010
0100
1000
1100
0010
0100
0001
,
0101
1001
0110
0000
,
1010
0001
0100
0010
1010
1000
0100
0010
,
0011
1000
0100
0010
0011
0001
0100
0010
,
1010
1000
0001
0100
0110
0001
1000
0100
,
0110
1001
0110
0000
,
1000
0000
0000
0001
1000
0000
0100
0000
0010
0000
0001
0000
0010
0000
0001
0000
,
0100
0000
0000
0001
1000
0000
0010
0000
0001
0000
0100
0000
0001
0000
0010
0000
,
0100
0000
0100
0001
1000
0010
0010
0000
,
1000
0001
1000
0100
1000
0000
0010
0001
,
0100
0000
0000
0001
1000
0000
0010
0000
0100
0000
0000
0000
0010
0000
1000
0000
,
0100
0000
0000
0010
0001
0000
1000
0000
0100
0000
1000
0000
0010
0000
0000
0000
,
1001
0000
0010
0001
0100
0001
0010
0000
,
0010
1000
0100
1000
0010
0100
0110
0000
,
1000
0100
1000
0100
0100
0000
0010
0001
,
1000
0001
0100
0100
0100
0000
0001
0000
,
1000
0000
0010
0010
0010
0000
1000
0100
,
0010
0001
0010
0001
0100
0000
1001
0000
,
0001
0100
0010
1000
1000
0000
0100
0010
,
0001
1000
0001
0001
0001
0000
0100
0000
,
1010
0000
1000
0100
0011
0000
1000
0001
,
0110
1000
0001
0100
0010
1000
0100
0010
,
1001
0000
0000
0000
;
