#TITLE:Hanging On;
#SUBTITLE:(Original Mix);
#ARTIST:Blake Reary;
#TITLETRANSLIT:;
#SUBTITLETRANSLIT:;
#ARTISTTRANSLIT:;
#CREDIT:Blake R. for the song, Morphius for the Fruity Loops that came with the song, I Love You!;
#BANNER:sadrodd.png;
#BACKGROUND:sadrodd2.png;
#LYRICSPATH:;
#CDTITLE:;
#MUSIC:Hanging_On.ogg;
#OFFSET:0.040;
#SAMPLESTART:75.620;
#SAMPLELENGTH:15.000;
#SELECTABLE:YES;
#DISPLAYBPM:260.000;
#BPMS:0.000=130.000,4.000=100000.000,8.000=130.000,104.000=260.000,363.500=840.000,367.000=260.000,369.000=840.000,371.000=260.000,372.000=840.000,373.000=840.000,376.000=260.000,377.500=840.000,378.000=260.000,379.500=840.000,380.000=260.000,381.500=840.000,382.000=260.000,383.000=840.000,386.000=260.000,387.000=840.000,390.000=260.000,392.000=840.000,399.000=260.000,401.500=840.000,402.000=260.000,405.000=840.000,416.000=260.000,418.000=840.000,420.000=260.000;
#STOPS:363.500=0.140
,364.500=0.080
,365.000=0.240
,365.500=0.080
,366.000=0.080
,366.500=0.040
,366.750=0.040
,369.000=0.080
,369.500=0.040
,369.750=0.040
,370.000=0.040
,370.250=0.040
,370.500=0.040
,370.750=0.040
,372.000=0.080
,372.500=0.080
,373.000=0.080
,373.500=0.080
,374.000=0.080
,374.500=0.080
,375.000=0.080
,375.500=0.080
,377.500=0.080
,379.500=0.080
,381.500=0.080
,383.000=0.080
,383.500=0.080
,384.000=0.080
,384.500=0.080
,385.000=0.080
,385.500=0.080
,387.000=0.040
,387.250=0.040
,387.500=0.040
,387.750=0.040
,388.000=0.040
,388.250=0.040
,388.500=0.040
,388.750=0.040
,389.000=0.040
,389.250=0.040
,389.500=0.040
,392.000=0.080
,392.500=0.080
,393.000=0.080
,393.500=0.080
,394.000=0.080
,394.500=0.080
,395.000=0.080
,395.500=0.080
,396.000=0.080
,396.500=0.080
,397.000=0.080
,397.500=0.080
,398.000=0.080
,398.500=0.080
,401.500=0.040
,401.750=0.040
,405.000=0.080
,405.500=0.080
,406.000=0.080
,406.500=0.080
,407.000=0.080
,407.500=0.080
,408.000=0.040
,408.250=0.040
,408.500=0.040
,408.750=0.040
,409.000=0.080
,409.500=0.080
,410.000=0.080
,410.500=0.080
,411.000=0.080
,411.500=0.080
,412.000=0.040
,412.250=0.040
,412.500=0.040
,412.750=0.040
,413.000=0.080
,413.500=0.080
,414.000=0.080
,414.500=0.080
,415.000=0.080
,415.500=0.080
,418.000=0.040
,418.250=0.040
,418.500=0.040
,418.750=0.040
,419.000=0.040
,419.250=0.040
,419.500=0.040
,419.750=0.040
;
#BGCHANGES:;
// cache tags:
#FIRSTBEAT:4.000;
#LASTBEAT:472.500;
#SONGFILENAME:Songs/Rodd's Revival/Hanging On (Original Mix)(Rodd Steps)/Hanging On (Original Mix).sm;
#HASMUSIC:1;
#HASBANNER:1;
#MUSICLENGTH:134.093;
// end cache tags

//---------------dance-single - RODD Steps----------------
#NOTES:
     dance-single:
     RODD Steps:
     Challenge:
     11:
     0.854,1.000,0.000,0.149,0.138,782.000,0.000,20.000,16.000,0.000:

0000
0000
0000
0000
,
MMMM
M000
000M
0M00
00M0
M000
0000
MMMM
,
1000
0001
0100
0010
1000
0100
0010
0001
,
0100
0010
0100
0001
1000
0100
0010
0100
,
1000
0001
0100
0010
1000
0001
0100
0010
,
0100
0001
1000
0100
0010
0100
1000
0001
,
0100
0010
1000
0001
0100
0010
0100
0001
,
1000
0100
1000
0001
0100
0010
1000
0100
,
0001
0100
0010
0001
0100
1000
0100
0010
,
1000
0100
0010
0001
0010
1000
0010
0001
,
0100
1000
0100
0010
1000
0100
0010
0001
,
0100
0000
0010
0000
0100
0000
0001
0000
1000
0000
0100
0000
0010
0100
0010
0000
,
0001
0100
0010
1000
0100
1000
0010
0100
,
0001
0000
0010
0000
0001
0000
0100
0000
0010
0000
1000
0000
0100
0010
0001
0000
,
0100
0010
0100
0001
1000
0100
0010
0100
,
1000
0001
0100
0010
0100
0001
1000
0100
,
0010
0001
0100
0010
0100
0001
1000
0100
,
1000
0000
0001
0000
0100
0000
0010
0000
1000
0100
0010
0000
0001
0000
0100
0000
,
0010
0000
1000
0001
0100
0000
0010
1000
0001
0000
0100
0001
0100
0000
0010
1000
,
0010
0000
1000
0100
1000
0000
0001
0100
0010
0100
0010
0000
0010
0000
1000
0000
,
0100
0000
0010
0001
0100
0000
0010
1000
0100
0000
0010
0100
0010
0000
0001
0100
,
0001
0000
0100
0010
0100
0000
0010
1000
0100
0000
0010
0001
0100
0001
0100
0000
,
0020
0000
0000
2030
0000
0000
3200
0000
,
0320
0000
0000
0032
0000
0203
0000
0000
,
0320
0000
0000
2030
0000
3000
0200
0000
,
0000
0320
0000
0000
0031
0000
0100
0010
,
1000
0100
0010
0001
0100
0000
0010
0100
,
0001
0000
0001
1000
0100
0010
0001
0010
,
0100
0000
1000
0000
0001
0100
0000
0010
,
0000
1000
0000
0100
0010
0001
0100
0010
,
0100
0000
0001
0000
1000
0100
0000
0010
,
0000
0001
0000
0100
0001
0100
0010
1000
,
0010
0000
1000
0000
0100
0010
0000
0001
,
0000
0100
0000
0010
1000
0100
0010
0001
,
1000
0100
0010
0000
0001
0100
0000
0010
,
0000
0100
0000
0001
1000
0100
0010
0001
,
0010
0100
1000
0000
0001
0100
0000
0010
,
0000
1000
0000
0100
0010
0100
0010
0001
,
0100
0000
0010
0000
1000
0100
0000
0010
,
0000
0100
0000
1000
0001
0100
0010
1000
,
0001
0100
0010
0000
1000
0100
0000
0010
,
0000
0001
0000
0100
0001
0100
0010
1000
,
0010
1000
0100
0010
0001
0010
0100
1000
,
0001
0100
0010
1000
0100
0010
0001
0010
,
0100
1000
0001
0100
0010
0100
0001
0100
,
0010
0100
0001
1000
0100
1000
0010
0100
,
0001
0010
0001
0100
0010
1000
0100
0010
,
0100
1000
0001
0100
0010
1000
0100
0010
,
0001
0010
0100
1000
0001
0100
0010
0100
,
0001
1000
0001
0100
0010
0000
1000
0000
,
0100
0000
0010
0000
0001
0100
0000
0010
,
0000
0100
0000
0001
1000
0001
1000
0100
,
0010
0001
0100
0000
0010
1000
0000
0100
,
0000
0010
0000
0100
0010
0001
0100
0010
,
1000
0100
0010
0000
0001
0100
0000
0010
,
0000
0100
0000
0001
1000
0100
0010
0001
,
0010
0100
1000
0000
0001
0100
0000
0010
,
0000
1000
0000
0100
1000
0100
0010
0100
,
0010
0000
0001
0000
0100
0000
0010
1000
,
0000
0100
0000
0010
0001
0000
0100
0000
,
0010
0000
0100
0000
0001
0000
1000
0100
,
0000
0010
0000
0001
0100
0000
0010
0000
,
0100
0000
0001
0000
1000
0000
0100
0010
,
0000
0100
0000
0010
0001
0000
0100
0000
,
0010
0000
1000
0000
0100
0000
0010
0100
,
0000
1000
0000
0001
0100
0000
0010
0000
,
0100
0001
1000
0100
0010
0000
0001
0100
,
0000
0010
0000
0100
0001
0000
1000
0000
,
0100
0010
0001
0010
0001
0000
0100
0010
,
0000
1000
0000
0100
0010
0000
0100
0000
,
1000
0001
1000
0001
1000
0000
0001
0100
,
0000
0010
0000
0100
0001
0000
1000
0000
,
0100
0010
0001
0010
0100
0000
1000
0001
,
0000
0100
0000
0010
0100
0000
0001
0000
,
1000
0100
0010
0001
0010
0100
1000
0001
,
0000
0100
0000
0010
1000
0100
0010
0001
,
0010
0100
1000
0001
0100
0010
0100
0001
,
0000
1000
0000
0100
0010
0000
0100
0000
,
1000
0001
0100
0010
1000
0001
0100
0010
,
0000
0100
0000
0001
1000
0000
0100
0000
,
0020
0000
0000
0000
,
0000
0000
0000
0000
0032
0000
0000
0003
,
0100
0010
1000
0001
0100
0010
1000
0100
,
0010
0001
0010
0100
1000
0001
0100
0010
,
1000
0100
1000
0001
0100
0010
0100
0001
,
1000
0100
1000
0010
0100
0001
0010
0001
,
0100
0010
1000
0100
0010
0001
1000
0100
,
0010
0001
0010
0100
1000
0001
0010
0100
,
2000
0000
0000
0000
,
3001
0100
0001
0100
0001
0100
0001
0100
,
0001
0000
0100
0010
1000
0000
0100
M020
,
0M30
0000
M001
0000
0100
0000
0010
0000
1000
0000
0100
0010
0100
0000
0000
0000
,
0010
0000
0000
0000
0001
0000
0100
0001
0100
0001
0100
0001
0100
0000
0000
0000
,
0010
1000
0100
0010
0001
0100
0010
0100
,
0001
1000
0001
1000
0100
0010
0001
0100
,
0010
0100
0001
1000
0100
0010
0001
0100
,
0001
0000
0100
0000
0001
0000
0100
0000
0010
0000
1000
0000
0100
0010
0100
0010
,
0100
0010
0100
0010
0100
0010
0100
0000
0010
0000
0001
0000
0100
0000
0010
0000
,
1000
0100
0010
0001
0100
0010
1000
0001
,
1000
0100
0010
0001
1000
0001
0100
0020
,
0000
0000
0000
0000
0000
0000
1030
0100
1000
0000
0200
0000
0000
0000
0000
0000
,
0000
0000
0310
0001
0100
0010
1000
0100
,
1000
0100
1000
0100
1000
0000
0100
0000
0010
0000
0001
0000
0100
0000
0010
0000
,
1000
0010
1000
0010
1000
0000
0100
0000
1000
0000
0001
0000
0100
0000
0010
0000
,
2000
3100
0020
0000
,
0031
0100
0010
1000
0100
0010
0100
1000
,
0001
0100
0001
0000
0100
0000
0010
0100
0010
0000
1000
0000
0100
1000
0100
0000
,
0010
0100
0010
0100
0010
0000
0001
0000
0100
0000
0010
0000
0100
0000
0001
0000
,
2000
0000
0000
0000
,
3000
0000
0000
0000
0000
0000
0000
0100
,
0010
0001
0010
0100
1000
0001
0100
0010
,
1000
0001
0100
0010
0100
0001
1000
0100
,
0010
0100
1000
0001
0100
0010
0100
0001
,
1000
0100
1000
0010
1000
0100
1000
0010
,
0100
0001
0010
0001
0100
0001
0010
0001
,
1000
0100
0010
0001
1000
0100
0010
0001
,
0010
0100
1000
0001
0010
0100
1000
0001
,
0100
0010
0100
0001
1000
0100
0010
0002
,
0000
0003
0000
0000
0000
0000
0000
0000
;
