#TITLE:Orchestral;
#SUBTITLE:;
#ARTIST:Igor Khoroshev;
#TITLETRANSLIT:;
#SUBTITLETRANSLIT:;
#ARTISTTRANSLIT:;
#CREDIT:;
#BANNER:Orchestral_BN.PNG;
#BACKGROUND:Orchestral_BG.PNG;
#LYRICSPATH:;
#CDTITLE:cdtitle.gif;
#MUSIC:Orchestral.mp3;
#OFFSET:-1.374;
#SAMPLESTART:10.900;
#SAMPLELENGTH:16.000;
#SELECTABLE:YES;
#DISPLAYBPM:148.000;
#BPMS:0.000=148.000,164.000=140.000,216.000=70.000;
#STOPS:;
#BGCHANGES:;
// cache tags:
#FIRSTBEAT:0.000;
#LASTBEAT:218.625;
#SONGFILENAME:Songs/IzzySM Keyboard Mega Pack/Orchestral/Orchestral.sm;
#HASMUSIC:1;
#HASBANNER:1;
#MUSICLENGTH:120.064;
// end cache tags

//---------------dance-single - ----------------
#NOTES:
     dance-single:
     :
     Challenge:
     13:
     0.880,1.000,1.000,0.341,0.779,548.000,133.000,41.000,0.000,10.000:  // measure 1
1001
0000
0000
0110
1001
0000
0000
1100
,  // measure 2
0011
0000
1000
0100
0010
0001
1000
0100
0010
0001
0100
0010
1000
0001
0100
0010
,  // measure 3
1001
0000
0000
0110
0101
0000
0000
1010
,  // measure 4
0110
0000
1000
0010
0100
0001
1000
0100
0001
0100
1000
0010
0100
0010
1000
0001
,  // measure 5
1001
0000
0000
1010
0101
0000
0000
0101
,  // measure 6
0110
0000
1000
0100
1000
0100
0010
0001
0010
0001
0100
0010
0001
0010
0001
0010
,  // measure 7
0001
0010
0100
0010
0100
0010
1000
0001
0010
0100
1000
0001
0010
0100
1000
0001
,  // measure 8
0010
0110
1000
0010
1000
0010
1000
0010
1000
0010
1000
0010
1000
0010
1000
0010
,  // measure 9
1000
0000
0100
0010
0110
0000
0100
0000
1001
0010
0001
0010
0001
0000
1000
0000
,  // measure 10
0100
0010
0001
1000
0100
0010
0001
0000
1000
0000
0110
0000
0011
0000
1000
0000
,  // measure 11
0100
0000
0000
0000
0100
0000
0010
0000
0001
0000
0000
0000
1000
0000
0000
0010
0001
0010
0001
0010
0000
0000
0000
0000
0100
0000
0000
0000
1001
0000
0000
0000
,  // measure 12
0100
0010
0100
0010
0100
0010
0100
0010
0100
0000
1001
0000
0110
0000
0110
0000
,  // measure 13
1001
0000
1000
0100
1000
0000
0010
0000
0100
0010
0100
0000
0100
0000
1001
0000
,  // measure 14
1000
0100
0010
0001
1000
0100
0010
0001
0100
0010
1000
0000
1001
0000
1001
0000
,  // measure 15
0110
0000
1000
0100
0001
0000
0010
0000
0100
0010
0100
0010
0100
0000
1000
0000
,  // measure 16
0110
0001
0110
1000
0110
0001
0110
1000
0110
0000
1001
0000
1100
0000
0011
0000
,  // measure 17
1100
0000
0011
0110
1100
0000
0011
0000
0110
0000
1100
0000
1001
0000
0000
0000
,  // measure 18
1100
0000
0101
0010
0101
0000
1000
0000
1001
0000
1001
0000
1001
0000
0000
0000
,  // measure 19
1000
0001
1000
0001
1000
0000
0110
0000
1001
0000
0110
0000
1001
0000
0000
0000
,  // measure 20
1000
0100
0010
0100
1000
0000
0001
0000
1000
0000
0100
0000
0010
0000
0000
0000
,  // measure 21
1001
0100
0010
0100
0010
0000
1000
0000
0001
0000
0100
0000
0010
0000
0000
0000
,  // measure 22
0101
0010
1000
0100
0010
0000
1000
0000
1001
0000
0001
0000
1001
0000
0000
0000
,  // measure 23
0110
0110
1000
0100
0010
0000
0001
0000
0101
0000
0110
0000
1010
0000
0110
0000
,  // measure 24
0220
0330
2002
3003
0220
0330
0000
0000
,  // measure 25
2100
0100
0000
0001
0001
0001
0100
3100
,  // measure 26
0102
0100
0000
1000
1000
1000
0010
0013
,  // measure 27
2001
0001
0000
0100
0010
0001
3100
0001
,  // measure 28
2010
0100
0010
0001
0010
0100
0010
3001
,  // measure 29
2020
3030
0202
0000
0303
0000
2002
3003
,  // measure 30
0220
0330
2002
3003
0220
0000
0000
0000
,  // measure 31
2330
3000
0020
0030
0002
0003
0200
0300
,  // measure 32
0220
0330
2002
0000
0000
3003
1000
1000
,  // measure 33
0200
0000
0010
0001
0010
0000
1000
0000
,  // measure 34
0001
0000
2000
0000
0000
0000
0000
3300
,  // measure 35
0000
0000
1000
0010
1000
0000
0010
0000
,  // measure 36
0100
0002
0000
0000
,  // measure 37
0003
0000
1000
0100
1000
0000
0010
0000
,  // measure 38
0200
0000
0010
0000
0010
0000
0010
0300
,  // measure 39
1000
0001
1000
0001
1000
0001
1000
0001
1000
0001
1000
0001
1000
0001
1000
0001
,  // measure 40
0001
0001
0001
0001
2001
0001
3001
0001
0201
0001
0301
0001
0021
0001
0031
0000
,  // measure 41
0010
0001
1000
0100
0010
0001
1000
0100
0010
0001
1000
0010
0100
0001
1000
0010
,  // measure 42
0100
0001
1000
0100
1000
0100
0010
0001
0010
0001
1000
0001
1000
0001
1000
0001
,  // measure 43
1001
0100
0010
0100
0010
0100
0010
0100
0001
1000
0001
1000
0001
1000
0001
1000
,  // measure 44
0001
1000
0110
0000
1000
0100
0010
0001
1000
0100
0010
0001
1000
0100
1000
0010
,  // measure 45
1000
0001
0010
0001
0010
0100
0010
1000
0010
0100
0001
1000
0010
0100
0001
1000
,  // measure 46
0010
0100
0001
1000
0010
0100
0001
1000
0010
0100
0010
0100
0010
0100
0010
0100
,  // measure 47
0010
0100
0010
0000
1001
0100
0010
0100
1001
0010
0100
0010
1001
0100
0010
0100
,  // measure 48
1001
0010
0100
0010
1001
0000
1000
0100
0010
0100
1001
0010
0100
0010
0100
0010
,  // measure 49
0001
0010
0100
1000
0001
1000
0001
0010
0100
0010
0100
1000
0100
1000
0100
0001
,  // measure 50
0010
0001
0010
0001
0010
0001
0010
0001
1001
0100
1001
0010
1001
0100
1001
0010
,  // measure 51
0110
1000
0110
0001
0110
1000
0110
0001
1010
0100
0101
0010
1010
0100
0101
0010
,  // measure 52
1001
0100
0101
0010
1010
0100
0101
0010
1100
0011
1100
0011
0110
1001
0110
1001
,  // measure 53
1111
0000
0000
0110
1111
0000
0000
0110
,  // measure 54
1111
1001
1111
1001
1111
1001
1111
1001
,  // measure 55
1111
0000
0000
0000
0110
0000
0000
0000
1001
0000
0000
0000
0110
0000
0000
0000
1111
2222
0000
0000
0000
3333
0000
0000
0000
0000
0000
0000
0000
0000
0000
0000
;
