#TITLE:breakin' down baby;
#SUBTITLE:;
#ARTIST:P*Light;
#TITLETRANSLIT:;
#SUBTITLETRANSLIT:;
#ARTISTTRANSLIT:;
#CREDIT:owenviau1;
#BANNER:../Banner.png;
#BACKGROUND:../BG.png;
#LYRICSPATH:;
#CDTITLE:../CDTitleBRAEDEN.png;
#MUSIC:PLight - breakin' down baby.ogg;
#OFFSET:-0.539;
#SAMPLESTART:136.068;
#SAMPLELENGTH:29.999;
#SELECTABLE:YES;
#BPMS:0.000=170.000;
#STOPS:;
#BGCHANGES:;
// cache tags:
#FIRSTBEAT:1.000;
#LASTBEAT:711.500;
#SONGFILENAME:Songs/Index Tesseract/breakin' down baby  - [Braeden]/breakin' down baby.sm;
#HASMUSIC:1;
#HASBANNER:1;
#MUSICLENGTH:256.574;
// end cache tags

//---------------dance-single - ----------------
#NOTES:
     dance-single:
     :
     Challenge:
     14:
     1.000,1.000,0.401,0.253,1.000,1748.000,103.000,65.000,44.000,0.000:

0000
M0MM
M0MM
MMM0
,
0MMM
MM0M
MMM0
M0MM
,
1000
0100
0010
0100
1000
0100
0010
0100
,
1000
0000
0001
0000
0010
0000
0001
0000
0100
0000
0010
1000
0010
0000
0100
0000
,
0001
0100
0010
1000
0001
0010
0100
1000
,
0001
0000
0100
0000
0010
0000
1000
0000
0100
0000
0010
0100
0010
0000
0100
0000
,
1000
0001
0100
0010
1000
0100
0010
0100
,
1000
0000
0001
0000
0100
0000
0010
0000
1000
0000
0100
0010
0100
0000
0000
0000
,
2001
3002
0203
0320
0230
0302
0203
0320
,
2030
3200
0320
0230
2300
3002
0203
0320
,
2030
3200
0320
0230
2300
3002
0203
0320
,
0230
0000
0302
0000
2003
0000
3200
0000
0320
0000
0031
0100
0020
0000
0130
0000
,
1010
0000
0100
0000
0001
0000
0100
0010
1010
0000
0100
0000
0001
0000
0100
0010
,
1010
0000
0100
0001
1000
0000
0010
0100
0010
0000
1000
0100
1000
0000
0001
0100
,
0001
0100
0010
1000
0100
0010
0100
1000
0001
0100
0010
1000
0100
0010
0100
1000
,
0001
0000
0000
0000
,
1000
0100
1100
1000
0001
0100
0110
0010
,
1000
0000
0001
0000
1001
0000
1000
0000
0010
0000
0100
0001
1000
0000
0010
0000
,
0100
0001
0110
1000
0010
0100
0011
1000
,
0010
0000
0100
0000
0011
0000
1000
0000
0010
0000
0100
0001
1000
0000
0010
0000
,
0100
0001
1010
0100
0001
1000
0101
0010
,
1000
0000
0001
0000
1010
0000
0100
0000
0001
0000
1000
0010
0100
0000
0001
0000
,
1000
0100
0110
0001
0100
0010
1010
0100
,
0001
0000
0100
0000
1010
0000
0100
0000
0001
0000
0100
0010
1000
0000
0001
0000
,
1001
0000
0010
0100
0001
0000
0100
0000
0010
0000
1000
0000
1001
0000
0100
0000
,
0010
0000
0100
0000
0011
0000
1000
0000
0010
0000
0100
0010
1000
0000
0001
0000
,
0100
0010
1010
0100
0001
0100
0101
0010
,
1000
0000
0100
0000
1100
0000
1000
0000
0001
0000
1000
0001
0100
0000
0010
0000
,
1000
0000
1000
0000
1000
0000
0010
0100
0010
0000
0010
0000
0010
0000
0100
0001
,
0100
0000
0010
1000
0010
0000
0100
0001
0100
0000
0001
1000
0010
0000
0100
0001
,
1000
0010
0100
0001
1000
0100
0010
0100
1000
0001
0100
0010
1000
0100
0010
0100
,
1000
0010
0010
0010
,
2002
3003
0000
0000
2002
3003
0000
0000
0011
0000
0000
0110
0000
0000
1100
0000
,
1001
0000
0M00
0000
,
2002
3003
0000
0000
2002
3003
0000
0000
0011
0000
0000
0110
0000
0000
1100
0000
,
1001
0M00
00M0
0M00
,
1001
0000
0000
0000
0110
0000
0000
0000
0011
0000
0000
1001
0000
0000
0110
0000
,
1001
M000
M000
0000
,
1001
0000
0000
0000
0110
0000
0000
0000
0011
0000
0000
1001
0000
0000
0110
0000
,
1001
1000
1001
1010
,
0001
0100
0001
1000
0100
0010
0100
1000
0001
0010
0100
1000
0001
0100
0010
1000
,
0001
0100
0010
1000
0001
0010
0100
1000
0001
0100
0010
0100
0001
0010
0001
1000
,
0100
0010
0100
1000
0001
0010
0100
1000
0001
0100
0010
0100
0001
0010
0001
1000
,
0100
0010
0100
1000
0001
0100
0010
1000
0001
0010
0100
1000
0001
0100
0010
1000
,
0001
0010
0001
0010
0100
1000
0100
1000
0001
0100
0001
0100
0010
1000
0100
0010
,
0001
1000
0001
1000
0010
0100
0001
1000
0100
0010
0100
0010
0001
1000
0100
0010
,
0001
1000
0100
1000
0001
1000
0100
1000
0001
0100
0010
1000
0100
0010
0100
1000
,
0001
0000
0000
0000
1000
0100
0010
0000
0001
0010
0100
1000
0010
0000
0000
0000
,
1000
0000
0100
0010
0100
0000
1000
0001
0100
0000
0010
1000
0000
1000
0010
0000
,
0200
0000
0300
0000
0101
0000
0000
0000
0010
0000
1000
0001
0100
0000
0010
0000
,
1000
0000
0001
0100
0020
0000
1030
0100
0020
0000
0031
0100
0000
0100
0010
0000
,
1010
0000
1000
0001
0010
0000
0100
1000
0020
0030
0000
0000
2002
3003
0000
0000
,
0110
0000
0010
0001
0100
0000
0010
1000
0010
0000
0100
0001
0000
0001
0100
0000
,
0010
0000
1000
0100
0020
0000
0031
0100
0010
0000
1000
0100
0010
0000
0001
0000
,
1000
0000
0010
0100
0002
0000
1003
0010
0200
0000
0301
1000
0010
0100
0001
0000
,
1001
0100
0020
0130
,
2100
0000
0000
0000
3002
0000
0000
0000
2003
0000
0000
0010
0000
0000
0001
0000
,
3001
0110
1001
0101
,
0020
0000
0000
0000
2030
0000
0000
0000
3002
0000
0000
0010
0000
0000
1000
0000
,
0013
0000
1000
0001
0100
0000
0010
1000
0001
0000
0100
0010
1000
0000
0001
0100
,
0010
0000
0000
0000
1010
0000
0000
0000
2000
0000
0000
0010
0000
0000
0001
0000
,
3001
1001
0011
1010
,
1000
0000
0100
0010
0100
0000
1000
0001
0100
0000
0010
1000
0001
0100
0010
1000
,
0100
0010
0001
0100
,
1001
0000
0010
0100
0000
0010
0100
0010
0100
0010
0000
0100
,
0010
0000
0100
1000
0000
0001
0100
0000
0010
1000
0000
0100
,
0010
0000
0001
0010
0000
0100
1000
0001
0100
0010
0000
1000
,
0010
0000
1000
0100
0000
0010
0001
0000
0100
0010
0000
1000
,
0100
0000
0010
0100
0000
1000
0010
0100
0001
0010
0000
0100
,
1000
0000
0001
0010
0000
0100
1000
0000
0001
0100
0000
0010
,
1000
0000
0100
0010
0000
0001
0100
0010
1000
0001
0000
0100
,
0010
1000
0001
0010
0100
1000
0010
0100
0001
1000
0100
0010
,
0100
0000
0000
0000
0110
0000
0010
0000
0100
0000
0010
0000
0100
0000
0010
0100
,
0010
0000
0100
0001
0100
0000
0010
1000
0010
0000
0100
0001
0100
0000
0001
0010
,
0001
0000
1000
0000
1001
0000
0010
0100
0010
0000
1000
0100
1000
0000
0001
0100
,
0010
0000
1000
0000
1010
0000
0100
0001
0100
0000
0010
0000
1100
0000
0010
0000
,
1001
0000
0100
0000
0010
0000
1000
0100
0010
0000
0100
0000
0010
0000
0001
0100
,
0010
0000
1000
0001
1000
0000
0010
0100
0010
0000
1000
0100
1000
0000
0001
0100
,
0010
1000
0100
0010
0100
1000
0001
0010
0100
1000
0001
0100
0010
0100
0001
1000
,
0010
0000
0000
0000
0000
0000
0100
0000
0000
0000
0000
0000
0001
0000
0000
0000
0000
0000
1000
0100
0010
0001
1000
0001
,
1000
0000
0001
0000
1000
0000
0010
0100
0000
0001
0100
0000
0010
1000
0001
1000
,
0100
0000
0010
0000
0001
0000
0100
0010
0000
1000
0100
1000
0000
0010
0100
0010
,
1000
0000
0010
0000
0100
0000
0001
0100
0000
0010
0000
1000
0001
1000
0100
0000
,
0010
0000
0100
1000
0000
0010
0100
0000
0001
0010
0100
1000
0001
0100
0010
1000
,
0001
0000
1000
0000
0100
0000
0010
0100
0000
1000
0001
0000
1000
0010
0100
0001
,
0100
0000
0010
0000
1000
0000
0100
0010
0000
0100
1000
0001
0000
0100
0010
1000
,
0001
0000
0100
0000
0010
0000
1000
0100
0000
0010
0000
0001
0100
0010
1000
0000
,
0001
0000
0100
0010
0000
1000
0100
0000
0010
0001
0100
0010
1000
0001
0010
0100
,
1000
0000
0001
0000
1001
0000
1000
0010
0000
0100
0001
0000
0010
1000
0100
0010
,
0100
0000
0010
0000
0110
0000
1000
0100
0000
0010
0001
1000
0000
0010
0100
0001
,
1000
0000
0010
0000
0100
0000
0001
0100
0000
0010
0000
1000
0001
0100
0010
0000
,
0100
0000
0001
0100
0000
0010
1000
0000
0100
0010
0100
1000
0001
0100
0010
1000
,
0001
0000
0010
0000
0100
0000
1000
0001
0000
0001
0100
0000
0010
1000
0100
1000
,
0010
0000
0100
0000
0001
0000
0100
0010
0000
0100
0010
0100
0000
0010
0100
0010
,
0100
0000
0010
1000
0001
1000
0100
0010
0100
1000
0001
0010
0100
1000
0001
0100
,
0010
1000
0100
0010
0100
1000
0001
0010
0100
1000
0001
0100
0010
0000
0000
0000
,
1000
0000
0001
0000
0100
0000
0001
0010
0100
1000
0100
0010
0001
0010
0100
0000
,
1000
0000
0010
0000
1000
0000
0010
0100
0001
0100
0010
1000
0100
0010
0100
0000
,
1000
0000
0001
0100
0010
0000
1000
0100
0010
0100
1000
0001
0100
0010
1000
0000
,
0001
0000
1000
0010
0100
0000
0001
0100
0010
1000
0100
0010
0100
1000
0001
0100
,
0001
0000
1000
0010
0100
0000
0001
0100
0010
0000
1000
0100
0010
0100
1000
0001
,
0100
0000
0010
1000
0010
0000
0100
0001
0100
0010
1000
0100
0010
0100
1000
0000
,
0001
0000
0100
0010
0100
0000
0001
0100
0010
1000
0100
0010
0100
1000
0001
0100
,
0010
0000
1000
0100
0010
0100
1000
0000
0001
0100
0010
1000
0100
0010
0100
0010
,
0001
0000
1000
0010
1000
0000
0001
0100
0010
1000
0100
0010
0100
1000
0001
0000
,
0100
0000
0010
1000
0001
0000
0100
0010
0000
1000
0100
0000
0010
0001
0100
0010
,
1000
0000
0001
0100
0010
0000
1000
0100
0000
0010
0001
0100
0010
1000
0100
0000
,
0100
0000
1000
0001
1000
0000
0010
0100
0010
0000
1000
0100
0010
0100
1000
0001
,
0100
0000
0100
0000
0100
0000
0010
1000
0010
0000
0100
0000
0001
0000
0100
0010
,
1000
0000
0001
0100
0010
0000
1000
0100
0010
0000
0100
1000
0001
0000
0100
0000
,
0010
1000
0001
0010
0001
1000
0100
1000
0001
0100
0001
1000
0010
0100
0001
1000
,
0010
0000
0100
0001
0000
0100
0010
0000
1000
0100
0010
0100
1000
0000
0010
0000
,
1000
0100
0010
0100
1000
0001
0100
0010
1000
0100
0010
0100
1000
0001
0010
0100
,
1000
0001
0100
0010
1000
0100
0010
0001
0000
0100
0010
0100
0000
0001
0010
0100
,
1000
0001
0100
0010
1000
0100
1000
0001
0010
0100
1000
0001
0100
0010
0100
0001
,
1000
0100
0010
0100
1000
0001
0100
0010
1000
0100
0010
0100
1000
0001
0100
0010
,
1000
0000
0100
0000
1000
0000
0001
0100
0000
0010
1000
0100
0000
1000
0001
0100
,
0001
0000
0100
0000
0010
0000
1000
0100
0000
0010
0001
0100
0010
1000
0001
0010
,
0100
0000
0010
0001
1000
0000
0010
0000
0010
0000
1000
0100
1000
0000
0001
0000
,
0001
0000
1000
0010
1000
0000
0001
0100
0010
0000
1000
0100
0010
0100
1000
0000
,
0001
0000
0100
0000
0010
0000
1000
0100
0010
0100
1000
0001
0100
0010
1000
0100
,
0010
0000
0001
1000
0010
0000
0100
0001
1000
0100
0010
0100
1000
0001
0100
0010
,
1000
0000
0001
0000
0100
0000
0010
1000
0000
0100
0010
0100
1000
0001
0100
0010
,
1000
0000
0001
0100
0001
0000
1000
0010
1000
0000
0001
0100
0010
0000
1000
0000
,
1001
0010
0010
0000
1001
0100
0100
0000
,
0011
0100
1001
0100
0101
0000
0010
0010
,
1010
0000
0100
0000
0101
0000
0010
0000
0001
1000
0001
1000
0001
0010
0001
0010
,
0001
0000
0000
0000
,
1001
0000
0000
0000
1001
0000
0000
0000
0101
0000
0000
0110
0000
0000
1010
0000
,
1001
0000
0000
0000
0000
0000
0000
0000
000M
M000
000M
M000
000M
0000
0000
0000
,
1000
0100
1000
0100
1000
0010
0100
0001
1000
0000
0000
0010
0000
0000
0100
0000
,
0001
1000
0100
0010
0100
1000
0001
0100
0010
0000
1000
0001
1000
0000
0010
0100
,
0001
1000
0100
1000
0001
0010
0100
1000
0001
0000
0000
0100
0000
0000
0010
0000
,
1000
0001
0100
0010
1000
0100
0010
0100
1000
0000
0001
0100
0010
0000
1000
0001
,
0100
0000
0010
1000
0001
0000
0100
0010
1000
0000
0000
0100
0000
0000
1000
0000
,
0001
0000
1000
0010
1000
0000
0001
0100
0001
0000
1000
0010
1000
0000
0001
0100
,
0010
0000
1000
0001
1000
0000
0100
0000
0010
0000
0000
0010
0000
0000
0010
0000
,
1001
0100
0010
1000
,
1000
0100
0010
0001
0010
0100
1000
0001
0100
0010
0100
0001
1000
0100
0010
0100
,
1000
0001
0010
0100
1000
0001
0100
0010
0100
0001
1000
0100
0010
0100
1000
0001
,
0100
0010
1000
0001
0010
0100
1000
0001
0100
0010
0100
0001
0010
0001
1000
0100
,
0010
0100
1000
0001
0010
0100
1000
0001
0100
0010
0100
0001
1000
0100
0010
0100
,
1000
0010
1000
0100
1000
0010
1000
0001
0100
0010
1000
0001
0100
0001
1000
0001
,
0010
0001
0010
0001
1000
0010
1000
0001
0010
0001
1000
0100
1000
0001
0100
0010
,
1000
0001
0100
0010
1000
0100
0010
0100
1000
0001
0010
0100
1000
0001
0100
0010
,
0200
0320
1030
0000
,
0001
0100
0110
1000
0001
0100
1010
0100
,
0001
0010
1010
0100
0001
0100
1010
0100
,
0001
1000
1010
0100
0001
0100
0010
1000
,
0100
1000
001M
0100
0010
1000
010M
0010
,
0100
1000
0M01
0010
0001
1000
00M1
1000
,
0100
0010
M001
0010
0100
1000
0M10
1000
,
0001
0100
00M1
1000
0100
1000
0M01
0010
,
0100
0010
M100
0010
0001
1000
010M
1000
,
0001
1000
0M01
0010
0001
1000
00M1
1000
,
0100
0010
0001
1000
0010
0100
0001
0010
,
0100
1000
0001
0100
0010
1000
0100
0010
,
0100
1000
0001
0010
0100
1000
0001
0100
,
0010
0000
0010
0000
0010
0000
1000
0001
0100
0000
0010
0000
0010
0000
1000
0001
,
1000
0000
0001
0100
0001
0000
1000
0010
1000
0000
0001
0000
0100
0000
0010
1000
,
0001
0100
0010
1000
0001
0010
0100
1000
0001
0100
0010
0100
0001
1000
0100
0010
,
0100
0000
0000
0000
1000
0001
0100
0000
0010
1000
0001
0100
0010
0000
1000
0000
,
1001
0010
0100
0001
1010
0100
0001
0010
,
1010
0000
1000
0000
0100
0000
0010
0000
1001
0000
0100
0010
0100
0000
0010
0000
,
1000
0100
0011
0100
1000
0001
1001
0100
,
0010
1000
1100
0010
0001
0100
0100
0010
,
1000
0100
1001
0010
0100
0001
0011
0100
,
1000
0100
0011
1000
0010
0100
0100
0010
,
1000
0100
1100
0100
0010
1000
1001
0100
,
0010
1000
1010
0100
0001
0100
0101
0001
,
1001
0010
0200
1300
0001
0100
0020
1030
,
0100
0010
0002
0013
0001
0100
0020
1030
,
0100
0010
0200
1300
0001
0100
0020
1030
,
0100
0010
0200
1300
0001
0100
0010
1000
,
0100
0010
0100
2000
3001
0010
0100
1000
,
0001
0100
0010
1000
0100
0010
0100
1000
,
0001
0010
0100
1000
0001
0100
0010
1000
,
0001
0010
0001
1000
0010
0100
0001
1000
;
