#TITLE:Conflict;
#SUBTITLE:;
#ARTIST:Cranky ft. Siromaru;
#TITLETRANSLIT:;
#SUBTITLETRANSLIT:;
#ARTISTTRANSLIT:;
#CREDIT:Freyja, Sudzi, Prolix;
#BANNER:ConflictBN.png;
#BACKGROUND:ConflictBG.png;
#LYRICSPATH:;
#CDTITLE:;
#MUSIC:Conflict.ogg;
#OFFSET:-0.866;
#SAMPLESTART:12.918;
#SAMPLELENGTH:24.000;
#SELECTABLE:YES;
#DISPLAYBPM:80.000:160.000;
#BPMS:0.000=160.000,15.000=242.915,16.000=160.000,102.000=242.915,102.500=160.000,103.000=242.915,103.500=160.000,110.000=242.915,110.500=160.000,111.000=242.915,112.000=160.000,118.000=242.915,118.500=160.000,124.000=320.000,124.375=64.000,124.500=279.070,125.500=320.000,125.875=64.000,126.000=279.070,127.000=242.915,128.000=160.000,134.000=242.915,134.500=160.000,142.000=242.915,142.500=160.000,150.000=242.915,150.500=160.000,160.000=80.000,176.000=160.000,230.000=480.000,230.375=53.333,230.500=242.915,231.500=160.000,232.000=242.915,234.500=160.000,235.000=320.000,235.375=64.000,235.500=242.915,236.000=160.000,262.000=242.915,263.250=160.000,264.000=242.915,264.750=160.000,270.000=242.915,271.000=160.000,277.000=242.915,278.000=160.000,284.000=242.915,286.000=160.000,287.000=242.915,288.000=160.000;
#STOPS:15.000=0.032
,15.250=0.032
,15.500=0.032
,15.750=0.032
,102.000=0.032
,102.250=0.032
,103.000=0.032
,103.250=0.032
,110.000=0.032
,110.250=0.032
,111.000=0.032
,111.250=0.032
,111.500=0.032
,111.750=0.032
,118.000=0.032
,118.250=0.032
,124.500=0.080
,125.000=0.080
,126.000=0.080
,126.500=0.080
,127.000=0.032
,127.250=0.032
,127.500=0.032
,127.750=0.032
,134.000=0.032
,134.250=0.032
,142.000=0.032
,142.250=0.032
,150.000=0.032
,150.250=0.032
,230.500=0.032
,230.750=0.032
,231.000=0.032
,231.250=0.032
,232.000=0.032
,232.250=0.032
,232.500=0.064
,233.000=0.064
,233.500=0.064
,234.000=0.032
,234.250=0.032
,235.500=0.032
,235.750=0.032
,262.000=0.064
,262.500=0.032
,262.750=0.032
,263.000=0.032
,264.000=0.032
,264.250=0.032
,264.500=0.032
,270.000=0.032
,270.250=0.032
,270.500=0.032
,270.750=0.032
,277.000=0.032
,277.250=0.032
,277.500=0.032
,277.750=0.032
,284.000=0.032
,284.250=0.032
,284.500=0.032
,284.750=0.032
,285.000=0.016
,285.125=0.016
,285.250=0.016
,285.375=0.016
,285.500=0.016
,285.625=0.016
,285.750=0.016
,285.875=0.016
,287.000=0.032
,287.250=0.032
,287.500=0.032
,287.750=0.032
;
#BGCHANGES:;
// cache tags:
#FIRSTBEAT:0.000;
#LASTBEAT:370.000;
#SONGFILENAME:Songs/Index Tournament 1/Conflict/Conflict.sm;
#HASMUSIC:1;
#HASBANNER:1;
#MUSICLENGTH:151.456;
// end cache tags

//---------------dance-single - Freyja 16/19----------------
#NOTES:
     dance-single:
     Freyja 16/19:
     Challenge:
     12:
     1.000,1.000,0.152,0.647,1.000,991.000,23.000,98.000,81.000,0.000:

1000
0100
0010
0100
0010
0001
0100
0010
,
0100
0010
1000
0100
1000
0100
0010
0100
,
1000
0010
0100
0001
0010
0100
0010
0001
,
1000
0000
0100
0000
1000
0000
0100
0000
0010
0000
0001
0000
1000
0010
0100
0001
,
0010
0001
0100
0010
1000
0001
0100
0010
,
1000
0100
0010
0100
0010
0001
0100
0010
,
1000
0100
1000
0001
1000
0001
0010
0100
,
1000
0010
1000
0000
0001
1000
0001
0000
1000
0010
1000
0000
0001
0010
0001
1000
,
0001
0100
0001
0010
0100
1000
0100
0010
0001
1000
0001
0100
0010
1000
0100
1000
,
0001
0100
0001
0010
0100
1000
0100
1000
0001
0100
0010
1000
0001
0010
0100
1000
,
0001
1000
0010
0100
0001
0010
0100
1000
0100
1000
0010
0100
0001
1000
0100
1000
,
0010
0100
0001
0100
0010
1000
0001
0010
0001
0100
0010
1000
0001
1000
0001
0010
,
0100
1000
0100
0010
0001
1000
0001
0010
0100
1000
0001
1000
0001
0100
0010
1000
,
0001
0010
0100
1000
0010
1000
0001
0100
0001
1000
0010
0100
0001
1000
0100
1000
,
0010
0100
0001
0100
0001
1000
0100
0010
0100
1000
0100
0010
0001
0100
0010
1000
,
0100
1000
0010
0100
0001
1000
0001
0010
0100
0010
0001
1000
0001
1000
0100
0010
,
0001
0010
0100
1000
0010
0100
0001
0010
0001
1000
0001
0010
0100
1000
0100
1000
,
0010
1000
0100
0010
0001
0010
0100
1000
0100
1000
0010
0100
0001
1000
0010
1000
,
0100
0010
0001
0010
0001
0100
0001
0010
0100
1000
0010
0100
0001
1000
0001
1000
,
0100
1000
0010
0100
0001
0010
0100
1000
0100
0010
0100
1000
0001
0100
0010
1000
,
0010
0100
0001
1000
0100
0010
0001
1000
0010
0100
0001
0010
0100
1000
0010
0100
,
0010
1000
0001
0100
0010
1000
0100
0010
0001
0010
0100
1000
0010
1000
0010
0100
,
0001
1000
0100
1000
0010
0100
0010
1000
0100
1000
0010
1000
0100
0010
0100
0010
,
0001
1000
0100
0010
0001
1000
0001
0010
0100
0010
0001
0100
0010
0000
0000
0000
,
2000
0000
0000
3001
0010
0000
20M0
0000
0000
3001
0010
0000
20M0
0000
0000
3001
,
0010
0000
20M0
0000
0000
3001
0010
0000
10M0
0001
1000
0000
0010
1000
0010
0000
,
2000
0000
0000
3001
0100
0000
2M00
0000
0000
3001
0100
0000
2M00
0000
0000
3001
,
0100
0000
2M00
0000
0000
3001
0100
0000
1M00
0010
1000
0000
0001
1000
0001
1000
,
0002
0000
0000
1003
0010
0000
00M2
0000
0000
1003
0010
0000
00M2
0000
0000
1003
,
0010
0000
00M2
0000
0000
1003
0010
0000
00M1
1000
0001
0000
1000
0000
0100
0000
,
2000
0000
0000
3001
0010
0000
20M0
0000
0000
3001
0010
0000
20M0
0000
0000
3001
,
0020
0030
0001
0000
0010
0000
0004
0003
1000
0000
0010
0000
0100
0001
0100
0001
,
2000
0000
0000
3001
0100
0000
2M00
0000
0000
3001
0100
0000
2M00
0000
0000
3001
,
0100
0000
2M00
0000
0000
3001
0100
0000
1M00
0001
1000
0000
0010
0000
1000
0100
,
2000
0000
0000
3001
0010
0000
20M0
0000
0000
3001
0010
0000
20M0
0000
0000
3001
,
0010
0000
20M0
0000
0000
3001
0010
0000
10M0
0001
1000
0000
0001
0000
0100
0000
,
0002
0000
0000
1003
0100
0000
0M02
0000
0000
1003
0010
0000
00M2
0000
0000
1003
,
0010
0000
00M2
0000
0000
1003
0010
0000
00M1
0100
0001
0000
1000
0000
0100
0000
,
2000
0000
0000
3001
0010
0000
20M0
0000
0000
3001
0010
0000
10M0
0000
0010
0000
,
1000
0000
0000
0100
0000
0000
0010
0000
0000
0100
0000
0000
1000
0000
0001
0000
,
200M
00M0
0M00
00M0
0002
3000
0000
0000
0200
0003
0000
0000
0020
0300
0000
0000
,
0200
0000
0000
0000
0030
0000
0000
0000
0000
0000
0000
0000
0000
0000
0000
0000
2000
0000
0000
0000
0300
0000
0000
0000
0000
0000
0000
0000
0000
0000
0000
0000
3100
0000
0000
0000
0010
0000
0000
0000
1000
0000
0000
0000
0010
0000
0000
0100
0001
0000
0000
0000
0000
0000
000M
0000
00M0
0000
000M
0000
0000
0000
0000
0000
,
1000
0000
0000
0000
0001
0010
0100
0010
1000
0000
0000
0000
0010
0001
0100
1000
,
0100
0000
0000
0000
0000
0000
0000
0000
0000
0000
0000
0000
0000
0000
0000
0000
0000
0000
0000
0000
0000
0000
0000
0000
0001
0000
0000
0000
0000
0000
0000
0000
0000
0000
0000
0000
0000
0000
0000
0000
0000
0000
0000
0000
0000
0000
0000
0000
0100
0000
0000
0000
0000
0000
0000
0000
0000
0000
0000
0000
0001
0000
0000
0000
0000
0000
0000
0000
0000
0000
0000
0000
1000
0000
0000
0000
0000
0000
0000
0000
0000
0000
0000
0000
0001
0000
0000
0000
0000
0000
0010
0000
0000
0000
0000
0000
0100
0000
0000
0000
0000
0000
0000
0000
0000
0000
0000
0000
1000
0000
0000
0000
0001
0000
0000
0000
1000
0000
0000
0000
0001
0000
0000
0000
1000
0000
0000
0000
0001
0000
0000
0000
1000
0000
0000
0000
0000
0000
0010
0000
0000
0000
0000
0000
0100
0000
0000
0000
0000
0000
0000
0000
0000
0000
0000
0000
0010
0000
0000
0000
0000
0000
0000
0000
0000
0000
0000
0000
1000
0000
0000
0000
0000
0000
0000
0000
0000
0000
0000
0000
0001
0000
0000
0000
0000
0000
0000
0000
0000
0000
0000
0000
,
20M0
0M00
0000
0M00
0020
0000
3000
0000
0200
0000
0030
0000
0002
0000
0300
0000
,
2000
0003
0200
3000
0020
0300
0002
0030
,
2000
0003
0020
3000
0200
0030
0002
0300
,
2000
0003
0020
3000
2000
0030
0002
3000
,
0020
0003
0002
0030
2000
0003
0200
3000
,
2000
0300
0020
3000
0200
0030
0002
0300
,
0020
0003
0200
0030
0020
0300
0002
0030
,
2000
0003
0002
3000
0200
0003
0002
0300
,
2003
0000
0000
3001
0100
0000
2M00
0000
0000
3001
0010
0000
20M0
0000
0000
3001
,
0010
0000
20M0
0000
0000
3001
0010
0000
10M0
0000
0001
0000
2000
0000
0000
3001
,
0100
0000
2M00
0000
0000
3001
0010
0000
20M0
0000
0000
3001
0010
0000
20M0
0000
,
0000
3001
0010
0000
10M0
0000
0001
0000
2000
0000
0000
3001
0100
0000
2M00
0000
,
0000
3001
0100
0000
2M00
0000
0000
3001
0100
0000
2M00
0000
0000
3001
0100
0000
,
2M00
0000
3010
0000
2000
0000
0000
3001
0100
0000
0001
0010
0001
0010
0001
0000
,
1000
0100
4000
3000
0400
0300
0040
0030
0004
0403
0300
0000
0004
0003
4000
3400
,
2300
0000
0000
3001
0010
0000
20M0
0000
0000
3001
0010
0000
20M0
0000
0000
3001
,
0010
0000
20M0
0000
0000
3001
0010
0000
10M0
0000
0001
0000
2000
0000
0000
3001
,
0010
0000
20M0
0000
0000
3001
0010
0000
20M0
0000
0000
3001
0010
0000
20M0
0000
,
0000
3001
0010
0000
10M0
0000
0100
0000
2000
0000
0000
3001
0100
0000
2M00
0000
,
0000
3001
0100
0000
2M00
0000
0000
3001
0100
0000
2M00
0000
0000
3001
0100
0000
,
1M00
0000
0001
0000
2000
0000
0000
3001
0010
0000
20M0
0000
0000
3001
0010
0000
,
20M0
0000
0000
3001
0010
0000
10M0
0000
0004
0003
0400
0340
4030
0000
3001
0000
,
1000
0000
0000
0000
00M0
000M
1100
0000
0000
0000
0000
0000
1010
0000
0000
0000
0000
0000
0110
0000
0000
0000
0000
0000
1001
0000
0000
0000
0000
0000
0011
0000
,
0000
0000
0101
0000
0000
1001
0000
0000
1000
0100
1000
001M
1000
0000
0000
0110
,
0000
0000
0101
0000
0000
0011
0000
0000
0110
0000
0000
1001
0000
0000
1010
0000
,
0000
1100
0000
0000
0001
10M0
0M01
10M0
0001
0000
0000
0101
0000
0000
0110
0000
,
0000
1010
0000
0000
1001
0000
0000
1100
0000
0000
1010
0000
0000
1100
0000
000M
,
0100
0000
0010
0000
0100
0000
0010
0000
0400
0000
M000
M000
M000
0000
0000
0000
430M
000M
000M
0000
00M0
0000
0000
0000
340M
0300
0040
0030
0400
0300
0010
0000
,
0002
0003
0010
0100
1000
0000
0000
0001
0000
0000
0010
0000
0000
0001
0000
0000
,
1000
0000
0001
0000
1000
0001
1000
0010
0100
0001
0100
0010
1000
0001
1000
0100
,
0010
0001
0100
0001
1000
0100
1000
0010
0100
0001
0100
0001
1000
0100
0010
0001
,
1000
0010
0100
0001
1000
0001
0010
0100
1000
0010
0100
0001
0100
0001
0010
0100
,
1000
0001
0100
0001
0010
0100
1000
0100
0010
0001
1000
0010
1000
0100
0010
0001
,
1000
0001
1000
0010
0100
0001
0100
0010
1000
0001
1000
0010
0100
0001
1000
0001
,
1000
0100
0010
0001
1000
0010
0100
0001
0010
0001
1000
0100
1000
0001
0010
0100
,
1000
0001
0100
0001
0010
0100
1000
0100
1000
0001
0100
0010
0100
0001
0100
0010
,
1000
0100
0010
0001
0100
0001
0010
0100
1000
0001
1000
0010
0100
0010
1000
0001
,
1000
0001
0100
0010
1000
0010
0100
0001
0010
0100
1000
0010
1000
0001
1000
0010
,
0100
0001
0100
0001
0010
0001
0100
0010
1000
0010
0100
0001
0100
0001
0010
0100
,
1000
0001
0010
0001
0100
0010
1000
0010
1000
0100
1000
0010
0100
0001
0010
0100
,
1000
0001
1000
0001
0100
0001
0010
0100
1000
0010
0100
0001
0100
0010
0100
0001
,
1000
0100
0010
0001
0010
0100
1000
0001
0100
0010
1000
0001
0010
0100
1000
0010
,
0100
0001
0010
0100
0010
0001
1000
0100
0010
0001
0100
0010
1000
0010
0100
0001
,
0010
0001
0010
0100
1000
0001
0100
0001
0010
0100
0010
0001
0100
0001
0010
0001
,
0100
0010
0100
0010
1000
0001
0100
0010
1000
0001
1000
0010
0100
0010
1000
0100
,
0010
0001
0100
0010
1000
0100
0010
0100
1000
0010
0100
0010
1000
0100
0010
0001
,
0100
0010
0100
0001
0010
0100
1000
0010
1000
0001
0100
0010
0100
0010
1000
0001
,
1000
0010
0100
0001
0100
0010
1000
0100
0010
0001
0010
0100
1000
0010
0100
0001
,
0100
0010
1000
0100
0010
0000
0000
0000
M000
0000
0000
0000
0000
0000
0000
0000
;
