#TITLE:Linuks;
#SUBTITLE:;
#ARTIST:DJ Sharpnel;
#TITLETRANSLIT:;
#SUBTITLETRANSLIT:;
#ARTISTTRANSLIT:;
#CREDIT:Loak;
#BANNER:linuks bn.png;
#BACKGROUND:linuks bg.png;
#LYRICSPATH:;
#CDTITLE:;
#MUSIC:Linuks.ogg;
#OFFSET:0.009;
#SAMPLESTART:224.842;
#SAMPLELENGTH:20.210;
#SELECTABLE:YES;
#DISPLAYBPM:190.000;
#BPMS:0.000=190.000;
#STOPS:;
#BGCHANGES:;
// cache tags:
#FIRSTBEAT:0.000;
#LASTBEAT:840.000;
#SONGFILENAME:Songs/SHARPNELSTREAMZ v2/Linuks/Linuks.sm;
#HASMUSIC:1;
#HASBANNER:1;
#MUSICLENGTH:268.000;
// end cache tags

//---------------dance-single - 15+ (TYLoak)----------------
#NOTES:
     dance-single:
     15+ (TYLoak):
     Challenge:
     15:
     1.000,1.000,0.127,0.086,1.000,2610.000,34.000,23.000,110.000,0.000:

0000
0000
0000
0000
,
0000
0000
0000
0000
,
0000
0000
0000
0000
,
0000
0000
0000
0000
,
0000
0000
0000
0000
,
0000
0000
0000
0000
,
0000
0000
0000
0000
,
0000
0000
0000
0000
,
2002
0000
3003
1000
0000
0001
1000
0010
,
0000
0000
0100
0000
0001
0000
1000
0100
0010
0000
0001
1000
0001
1000
0001
1000
,
0010
1000
0001
0010
0010
0001
0100
0100
,
0001
0000
1000
0000
0010
0000
1000
0000
0001
0000
0100
0000
0001
0000
1000
0001
,
0010
0000
0010
0000
0001
0000
1000
0000
1000
0000
0100
0000
0010
0001
0010
0001
,
1000
0001
0100
0010
1000
0001
1000
0001
0010
0100
1000
0001
0100
0001
0100
0001
,
1000
0010
0100
0001
1000
0001
1000
0100
0010
0001
1000
0001
0010
0100
1000
0001
,
0100
0010
1000
0001
0010
0100
1000
0010
0100
0001
0010
0100
1000
0000
0000
0000
,
0001
1000
0100
1000
0010
0100
0001
0100
0010
1000
0001
1000
0100
0010
0001
1000
,
0001
0010
0100
0010
0001
1000
0001
0100
0001
1000
0010
1000
0001
0100
0010
1000
,
0001
0010
0100
0010
0001
1000
0001
1000
0100
0010
0001
1000
0001
0100
0010
1000
,
0010
0100
0001
1000
0001
0010
0100
1000
0001
1000
0001
0100
0010
1000
0001
1000
,
0100
0010
0100
1000
0001
1000
0010
0100
0010
1000
0001
0100
0001
1000
0100
0010
,
0001
1000
0001
1000
0010
0100
0010
1000
0001
1000
0001
0010
0100
1000
0001
1000
,
0010
1000
0001
0100
0001
0010
0100
1000
0001
0010
0001
1000
0100
1000
0100
0010
,
0001
0000
2002
3003
2002
3003
2002
3003
,
1000
0001
0100
0010
0100
0001
1000
0001
0100
0010
0100
0001
1000
0001
0010
0100
,
1000
0100
1000
0001
1000
0010
0100
0001
0100
0001
1000
0010
1000
0001
0010
0100
,
0010
0100
1000
0001
1000
0010
1000
0001
0010
0100
1000
0001
1000
0010
1000
0001
,
0100
0001
0100
0010
1000
0001
1000
0100
0010
0100
1000
0001
1000
0010
0100
0001
,
1000
0010
1000
0001
1000
0100
0010
0001
1000
0010
1000
0001
0010
0100
1000
0001
,
1000
0010
0100
0001
1000
0001
0100
0001
1000
0100
0010
0100
1000
0001
1000
0010
,
0100
0010
1000
0001
0100
0010
1000
0001
1000
0100
0010
0001
0010
0100
1000
0010
,
0100
0001
0010
0001
0100
0010
1000
0100
0010
0001
0100
0010
1000
0100
0010
0001
,
2000
0000
3001
0000
0100
0001
0100
0000
0010
1000
0001
1000
0100
0010
0001
1000
,
0002
0000
1003
0000
0010
1000
0010
0000
0100
0010
0100
0001
1000
0100
0010
0001
,
2000
0000
3100
0000
0010
0001
0010
0000
0001
1000
0001
0100
0010
1000
0001
0010
,
0100
0010
0001
0000
1000
0010
0100
0000
0001
1000
0001
0100
0010
1000
0010
0000
,
1020
0000
1030
0000
0001
1000
0001
0000
0010
0001
1000
0001
0100
0010
0100
0001
,
2000
0000
3001
0000
0010
0001
0010
0000
0100
1000
0001
0100
0010
0100
0001
1000
,
0002
0000
1003
0000
0100
0010
0100
0000
1000
0001
1000
0010
0100
0010
1000
0001
,
0010
0100
1000
0000
0001
0100
0010
0000
1000
0001
0010
0001
1000
0100
0010
0000
,
0021
0000
0031
0000
1000
0001
1000
0000
0010
1000
0001
1000
0100
0010
0001
1000
,
0002
0000
0103
0000
0010
1000
0010
0000
0100
0001
1000
0100
0010
0001
1000
0001
,
0200
0000
0301
0000
1000
0010
1000
0000
0001
0010
0100
0010
0001
1000
0001
0100
,
0010
1000
0001
0000
1000
0100
0010
0000
0001
0100
0001
0100
0010
1000
0001
0000
,
0012
0000
0013
0000
0001
0100
0001
0000
1000
0010
1000
0001
0010
0100
1000
0001
,
0200
0000
0310
0000
1000
0010
1000
0000
0001
1000
0001
0010
0100
0010
0001
1000
,
0020
0000
1030
0000
0001
1000
0001
0000
0010
0100
1000
0001
0100
0001
0100
0010
,
1000
0010
0100
0001
1000
0010
0100
0001
1000
0010
0100
0001
1000
0010
0100
0001
,
2000
3000
0000
0000
,
0000
0000
0000
0000
,
0000
0000
0000
0000
,
0000
0000
0000
0000
0000
0000
0000
0000
1000
0001
1000
0001
0100
0000
0100
0000
,
0010
1000
0001
1000
0010
0100
0001
0100
0010
1000
0001
0010
0001
1000
0010
1000
,
0001
1000
0100
1000
0001
0100
0001
1000
0010
0100
0001
0010
0001
1000
0010
1000
,
0100
1000
0001
1000
0100
0010
0001
0010
0100
1000
0001
0100
0001
1000
0100
1000
,
0001
0100
0010
1000
0001
1000
0100
0010
0100
1000
0010
0100
0001
0010
0100
1000
,
0010
1000
0001
1000
0010
0100
0001
0100
0010
1000
0001
0010
0001
1000
0010
1000
,
0001
1000
0100
1000
0001
0100
0001
1000
0010
0100
0001
0010
0001
1000
0010
1000
,
0100
1000
0001
1000
0100
0010
0001
0010
0100
1000
0001
0100
0001
1000
0100
1000
,
0001
0100
0010
1000
0001
1000
0100
0010
0100
1000
0010
0100
0001
0010
0100
1000
,
0010
1000
0001
1000
0010
0100
0001
0100
0010
1000
0001
0010
0001
1000
0010
1000
,
0001
1000
0100
1000
0001
0100
0001
1000
0010
0100
0001
0010
0001
1000
0010
1000
,
0100
1000
0001
1000
0100
0010
0001
0010
0100
1000
0001
0100
0001
1000
0100
1000
,
0001
0100
0010
1000
0001
1000
0100
0010
0100
1000
0010
0100
0001
0010
0100
1000
,
0010
1000
0001
1000
0010
0100
0001
0100
0010
1000
0001
0010
0001
1000
0010
1000
,
0001
1000
0100
1000
0001
0100
0001
1000
0010
0100
0001
0010
0001
1000
0010
1000
,
0100
1000
0001
1000
0100
0010
0001
0010
0100
1000
0001
0100
0001
1000
0100
1000
,
0010
0100
0001
0100
0010
1000
0100
1000
0010
0100
0001
1000
0100
0010
0001
0010
,
0100
1000
0001
1000
0100
0010
0001
0010
0100
1000
0001
0100
0001
1000
0100
1000
,
0001
1000
0010
1000
0001
0010
0001
1000
0100
0010
0001
0100
0001
1000
0100
1000
,
0010
1000
0001
1000
0010
0100
0001
0100
0010
1000
0001
0010
0001
1000
0010
1000
,
0001
0010
0100
1000
0001
1000
0010
0100
0010
1000
0100
0010
0001
0100
0010
1000
,
0100
1000
0001
1000
0100
0010
0001
0010
0100
1000
0001
0100
0001
1000
0100
1000
,
0001
1000
0010
1000
0001
0010
0001
1000
0100
0010
0001
0100
0001
1000
0100
1000
,
0010
1000
0001
1000
0010
0100
0001
0100
0010
1000
0001
0010
0001
1000
0010
1000
,
0001
0010
0100
1000
0001
1000
0010
0100
0010
1000
0100
0010
0001
0100
0010
1000
,
0100
1000
0001
1000
0100
0010
0001
0010
0100
1000
0001
0100
0001
1000
0100
1000
,
0001
1000
0010
1000
0001
0010
0001
1000
0100
0010
0001
0100
0001
1000
0100
1000
,
0010
1000
0001
1000
0010
0100
0001
0100
0010
1000
0001
0010
0001
1000
0010
1000
,
0001
0010
0100
1000
0001
1000
0010
0100
0010
1000
0100
0010
0001
0100
0010
1000
,
0100
1000
0001
1000
0100
0010
0001
0010
0100
1000
0001
0100
0001
1000
0100
1000
,
0001
1000
0010
1000
0001
0010
0001
1000
0100
0010
0001
0100
0001
1000
0100
1000
,
0010
1000
0001
1000
0010
0100
0001
0100
0010
1000
0001
0010
0001
1000
0010
1000
,
0100
0010
0001
0010
0100
1000
0010
1000
0100
0010
0001
1000
0010
0100
0001
0100
,
0001
0000
0001
M000
0001
0000
0001
M000
,
0001
0001
0001
0001
,
0001
0001
0001
0001
,
0001
0001
0001
0001
,
0001
0001
0001
0001
,
0001
0001
0001
0001
,
0001
0001
0001
0001
,
0001
0001
0001
1001
,
1001
1000
1000
1000
,
1000
1000
1000
1000
,
1000
1000
1000
1000
,
1000
1000
1000
1000
,
1000
1000
1000
1000
,
1000
1000
1000
1000
,
1000
0001
1000
0001
1000
0100
1000
0100
0010
0001
0010
0001
1000
0001
1000
0001
,
1000
0010
0100
0001
1000
0001
1000
0100
0010
0001
0100
0010
1000
0001
0010
0100
,
2000
0000
0000
0000
3000
0000
0000
0000
000M
0000
0000
000M
0000
0000
000M
0000
,
0000
0000
000M
0000
0000
0000
0000
0000
0000
0000
000M
0000
0000
0000
0000
0000
0000
0000
000M
0000
0000
0000
0000
0000
0000
0000
000M
0000
0000
0000
0000
0000
0000
000M
0000
0000
0000
0000
0000
000M
0000
0000
0000
0000
0000
000M
0000
0000
,
0000
0000
0000
0000
0000
0000
0000
0000
0000
0000
0000
0000
000M
0000
0000
0000
0000
0000
0000
0000
0000
0000
0000
0000
0000
0000
0000
0000
0000
0000
0000
0000
0000
0000
0000
0000
000M
0000
0000
0000
0000
0000
0000
0000
0000
0000
0000
0000
0000
0000
0000
0000
0000
0000
0000
0000
000M
0000
0000
0000
0000
0000
0000
0000
0000
0000
0000
0000
0000
0000
0000
0000
000M
0000
0000
0000
0000
0000
0000
0000
0000
0000
0000
0000
0000
0000
0000
0000
000M
0000
0000
0000
0000
0000
0000
0000
0000
0000
0000
0000
0000
0000
0000
0000
000M
0000
0000
0000
0000
0000
0000
0000
0000
0000
0000
0000
0000
000M
0000
0000
0000
0000
0000
0000
0000
0000
0000
0000
0000
0000
0000
0000
000M
0000
0000
0000
0000
0000
0000
0000
0000
0000
0000
0000
000M
0000
0000
0000
0000
0000
0000
0000
0000
0000
0000
0000
000M
0000
0000
0000
0000
0000
0000
0000
0000
0000
0000
0000
000M
0000
0000
0000
0000
0000
0000
0000
0000
0000
0000
0000
000M
0000
0000
0000
0000
0000
0000
0000
0000
000M
0000
0000
,
0000
0000
0000
0000
0000
0000
000M
0000
0000
0000
0000
0000
0000
0000
0000
000M
0000
0000
0000
0000
0000
0000
0000
0000
000M
0000
0000
0000
0000
0000
0000
0000
0000
000M
0000
0000
0000
0000
0000
0000
0000
0000
000M
0000
0000
0000
0000
0000
000M
0000
0000
0000
0000
0000
000M
0000
0000
0000
0000
0000
000M
0000
0000
0000
0000
0000
000M
0000
0000
0000
0000
0000
000M
0000
0000
0000
0000
0000
000M
0000
0000
0000
0000
0000
000M
0000
0000
0000
0000
0000
000M
0000
0000
0000
0000
0000
000M
0000
0000
0000
000M
0000
0000
0000
000M
0000
0000
0000
000M
0000
0000
0000
000M
0000
0000
0000
000M
0000
0000
0000
000M
0000
0000
0000
000M
0000
0000
0000
000M
0000
0000
0000
000M
0000
0000
0000
000M
0000
0000
0000
000M
0000
0000
0000
000M
0000
0000
0000
000M
0000
0000
0000
000M
0000
0000
0000
000M
0000
0000
0000
000M
0000
0000
0000
000M
0000
0000
0000
000M
0000
0000
0000
000M
0000
0000
0000
000M
0000
0000
0000
000M
0000
0000
0000
000M
0000
0000
0000
000M
0000
0000
0000
,
000M
000M
000M
000M
000M
000M
000M
000M
000M
000M
000M
000M
000M
000M
000M
000M
000M
000M
000M
000M
000M
000M
000M
000M
000M
000M
000M
000M
000M
000M
000M
000M
000M
000M
000M
000M
000M
000M
000M
000M
000M
000M
000M
000M
0000
000M
000M
0000
011M
0000
0000
0000
0000
0000
0000
0000
0000
0000
0000
0000
0000
0000
0000
0000
,
1001
0000
1000
0000
0010
0000
0100
0000
0001
1000
0001
0000
0010
0000
0001
1000
,
0001
0100
0010
0000
1000
0010
1000
0000
0001
0000
1000
0100
1000
0000
0001
0000
,
0100
0001
0100
0000
0010
1000
0010
0000
1000
0001
1000
0000
0001
0000
0010
0100
,
1000
0001
1000
0000
0001
0010
0001
0000
0100
0000
0001
1000
0010
0000
1000
0000
,
1001
0000
0001
0000
0100
0010
0100
0000
0001
0010
0001
0000
0010
0000
0100
1000
,
0001
0100
0001
0000
1000
0010
1000
0000
0001
0000
1000
0100
1000
0000
0001
0000
,
0100
0001
0100
0000
0010
1000
0010
0000
1000
0001
1000
0000
0100
0000
0010
0001
,
0000
0011
0000
1001
0101
0110
1010
1001
,
1000
0000
0001
0000
0010
0100
0010
0000
0100
1000
0100
0000
1000
0000
0001
1000
,
0010
0100
0010
0000
1000
0100
1000
0000
0001
0000
1000
0010
1000
0000
0001
0000
,
0010
0001
0010
0000
0100
1000
0100
0000
1000
0001
1000
0000
0010
0000
0100
0010
,
1000
0001
1000
0000
0100
1000
0100
0000
0010
0000
0001
0100
0001
0000
1000
0000
,
1001
0000
0001
0000
0010
0001
0010
0000
0100
0010
0100
0000
1000
0000
0001
1000
,
0001
0010
0100
0000
1000
0100
1000
0000
0001
0000
0010
0100
0010
0000
0001
0000
,
1000
0010
1000
0000
0001
0100
0001
0000
1000
0001
1000
0000
0100
0000
0010
0001
,
1000
0000
0001
0000
0100
0001
0100
0000
0010
0000
1000
0001
0010
0000
0100
0000
,
1100
0000
1000
0000
0001
0100
0001
0000
0010
0100
0010
0000
0001
0000
0100
0010
,
1000
0010
1000
0000
0001
0010
0001
0000
1000
0000
0001
0100
0001
0000
1000
0000
,
0100
0010
0100
0000
0010
0001
0010
0000
0001
1000
0001
0000
0100
0000
0010
1000
,
0001
1000
0100
0000
0010
0001
0010
0000
0001
0000
0100
0010
1000
0000
0010
0000
,
0100
0001
0100
0001
1000
0001
0100
0010
1000
0001
1000
0100
0010
0100
1000
0001
,
1000
0100
0010
0001
1000
0010
1000
0001
0100
0010
1000
0100
0010
0001
1000
0001
,
0010
0100
1000
0001
1000
0010
0100
0001
1000
0001
0100
0010
1000
0100
0010
0001
,
0000
1001
0000
1001
1100
0110
0011
1001
,
0001
0100
0010
1000
0001
0010
0001
0010
0100
1000
0001
1000
0001
0100
0010
1000
,
0001
0100
0010
1000
0001
0010
0100
1000
0010
1000
0001
0010
0100
1000
0010
1000
,
0001
0100
0010
1000
0001
0010
0001
0010
0100
1000
0001
1000
0001
0100
0010
1000
,
0001
0100
0010
1000
0001
0010
0100
1000
0010
1000
0001
0010
0100
1000
0010
1000
,
0001
0010
0100
1000
0001
0100
0001
0100
0010
1000
0001
1000
0001
0010
0100
1000
,
0001
0010
0100
1000
0001
0100
0010
1000
0100
1000
0001
0100
0010
1000
0100
1000
,
0001
0010
0100
1000
0001
0100
0001
0100
0010
1000
0001
1000
0001
0010
0100
1000
,
0001
0000
0001
0000
1000
0010
0100
0000
0001
0000
0010
0100
1000
0000
0001
0000
,
1000
0010
0100
0001
1000
0100
1000
0100
0010
0001
1000
0001
1000
0010
0100
0001
,
1000
0010
0100
0001
1000
0100
0010
0001
0100
0001
1000
0100
0010
0001
0100
0001
,
1000
0010
0100
0001
1000
0100
1000
0100
0010
0001
1000
0001
1000
0010
0100
0001
,
1000
0010
0100
0001
1000
0100
0010
0001
0100
0001
1000
0100
0010
0001
0100
0001
,
1000
0100
0010
0001
1000
0010
1000
0010
0100
0001
1000
0001
1000
0100
0010
0001
,
1000
0100
0010
0001
1000
0010
0100
0001
0010
0001
1000
0010
0100
0001
0010
0001
,
1000
0100
0010
0001
1000
0010
1000
0010
0100
0001
1000
0001
1000
0100
0010
0001
,
1000
1010
0000
1010
0110
0101
1001
1100
,
1000
0010
0100
0001
1000
0100
1000
0100
0010
0001
1000
0001
1000
0010
0100
0001
,
1000
0010
0100
0001
1000
0100
0010
0001
0100
0001
1000
0100
0010
0001
0100
0001
,
1000
0010
0100
0001
1000
0100
1000
0100
0010
0001
1000
0001
1000
0010
0100
0001
,
1000
0010
0100
0001
1000
0100
0010
0001
0100
0001
1000
0100
0010
0001
0100
0001
,
1000
0100
0010
0001
1000
0010
1000
0010
0100
0001
1000
0001
1000
0100
0010
0001
,
1000
0100
0010
0001
1000
0010
0100
0001
0010
0001
1000
0010
0100
0001
0010
0001
,
1000
0100
0010
0001
1000
0010
1000
0010
0100
0001
1000
0001
1000
0100
0010
0001
,
1000
0000
1000
0000
0010
0100
0001
0000
0010
0000
0100
1000
0010
0000
1000
0000
,
0001
0010
0100
1000
0001
0100
0001
0100
0010
1000
0001
1000
0001
0010
0100
1000
,
0001
0010
0100
1000
0001
0100
0010
1000
0100
1000
0001
0100
0010
1000
0100
1000
,
0001
0010
0100
1000
0001
0100
0001
0100
0010
1000
0001
1000
0001
0010
0100
1000
,
0001
0010
0100
1000
0001
0100
0010
1000
0100
1000
0001
0100
0010
1000
0100
1000
,
0001
0100
0010
1000
0001
0010
0001
0010
0100
1000
0001
1000
0001
0100
0010
1000
,
0001
0100
0010
1000
0001
0010
0100
1000
0010
1000
0001
0010
0100
1000
0010
1000
,
0001
0100
0010
1000
0001
0010
0001
0010
0100
1000
0001
1000
0001
0100
0010
1000
,
0001
0010
0100
1000
0010
0100
0001
0010
0100
0010
0001
0100
0010
1000
0100
0010
,
0001
0000
0000
0000
0000
0000
0M00
0000
0000
0000
0000
0000
1001
0000
1000
0001
,
0010
0000
0100
0000
1000
0000
1000
0000
0001
0100
0010
0000
1000
0001
1000
0001
,
0010
0000
0100
1000
0100
1000
0001
0000
1000
0100
0010
0000
0001
1000
0001
1000
,
0010
0000
1000
0000
0001
0000
0001
0000
1000
0100
0010
0000
0001
1000
0001
1000
,
0010
0000
0100
0001
0100
0001
1000
0000
0001
0100
0010
0000
1000
0001
1000
0001
,
0010
0000
0100
0000
1000
0000
1000
0000
0001
1000
0010
0000
0100
0001
0100
0001
,
1000
0000
0100
0010
0100
0010
0001
0000
1000
0001
0100
0000
0010
1000
0001
1000
,
0100
0000
0010
0000
0001
0000
0001
0000
1000
0100
0010
0000
0001
1000
0001
1000
,
0010
0000
0100
0001
0100
0001
1000
0000
0100
0010
0001
0000
1001
0000
1000
0001
,
0010
0000
0100
0000
1000
0000
1000
0000
0001
0100
0010
0000
1000
0001
1000
0001
,
0010
0000
0100
1000
0100
1000
0001
0000
1000
0100
0010
0000
0001
1000
0001
1000
,
0010
0000
1000
0000
0001
0000
0001
0000
1000
0100
0010
0000
0001
1000
0001
1000
,
0010
0000
0100
0001
0100
0001
1000
0000
0001
0100
0010
0000
1000
0001
1000
0001
,
0010
0100
1000
0100
0010
0001
1000
0001
1000
0001
0100
0010
1000
0001
1000
0001
,
1000
0010
0100
0001
1000
0001
1000
0100
0010
0001
0010
0100
1000
0001
1000
0001
,
0100
0010
1000
0001
1000
0100
0010
0001
1000
0001
1000
0001
0100
0010
1000
0001
,
1000
0100
0010
0001
0100
0001
0010
0100
1000
0010
0100
0001
1000
0000
0001
1000
,
0001
0010
0100
1000
0010
0100
0001
0100
0010
1000
0001
1000
0100
0010
0001
1000
,
0001
0010
0100
0010
0001
1000
0001
0100
0001
1000
0010
1000
0001
0100
0010
1000
,
0001
0010
0100
0010
0001
1000
0001
1000
0100
0010
0001
1000
0001
0100
0010
1000
,
0010
0100
0001
1000
0001
0010
0100
1000
0001
1000
0001
0100
0010
1000
0001
1000
,
0100
0010
0100
1000
0001
1000
0010
0100
0010
1000
0001
0100
0001
1000
0100
0010
,
0001
1000
0001
1000
0010
0100
0010
1000
0001
1000
0001
0010
0100
1000
0001
1000
,
0010
1000
0001
0100
0001
0010
0100
1000
0001
0010
0001
1000
0100
1000
0100
0010
,
0001
1000
0001
0000
0100
0010
0100
0000
0001
1000
0001
0000
0010
0100
0010
0000
,
0001
1000
0010
0100
0010
1000
0001
1000
0010
0100
0010
1000
0001
1000
0100
0010
,
0001
0010
0001
1000
0001
0100
0010
1000
0010
1000
0001
0100
0001
1000
0100
0010
,
0100
0010
0001
1000
0001
0100
0001
1000
0100
0010
0001
1000
0001
0100
0001
1000
,
0010
1000
0010
0100
0001
1000
0001
0010
0100
0010
0001
1000
0001
0100
0010
1000
,
0001
0100
0001
1000
0001
0010
0100
1000
0001
0100
0001
1000
0100
0010
0001
1000
,
0001
0100
0010
1000
0001
1000
0010
1000
0001
0010
0100
0010
0001
1000
0001
0100
,
0010
0100
0001
1000
0010
0100
0001
1000
0001
0010
0100
1000
0100
0010
0001
1000
,
0001
0010
0001
0000
1000
0100
1000
0000
0010
1000
0010
0000
0100
0001
0100
0000
,
0001
1000
0100
1000
0010
0100
0001
0100
0010
1000
0001
1000
0100
0010
0001
1000
,
0001
0010
0100
0010
0001
1000
0001
0100
0001
1000
0010
1000
0001
0100
0010
1000
,
0001
0010
0100
0010
0001
1000
0001
1000
0100
0010
0001
1000
0001
0100
0010
1000
,
0010
0100
0001
1000
0001
0010
0100
1000
0001
1000
0001
0100
0010
1000
0001
1000
,
0100
0010
0100
1000
0001
1000
0010
0100
0010
1000
0001
0100
0001
1000
0100
0010
,
0001
1000
0001
1000
0010
0100
0010
1000
0001
1000
0001
0010
0100
1000
0001
1000
,
0010
1000
0001
0100
0001
0010
0100
1000
0001
0010
0001
1000
0100
1000
0100
0010
,
0001
1000
0001
0000
0100
0010
0100
0000
0001
1000
0001
0000
0010
0100
0010
0000
,
0001
1000
0010
0100
0010
1000
0001
1000
0010
0100
0010
1000
0001
1000
0100
0010
,
0001
0010
0001
1000
0001
0100
0010
1000
0010
1000
0001
0100
0001
1000
0100
0010
,
0100
0010
0001
1000
0001
0100
0001
1000
0100
0010
0001
1000
0001
0100
0001
1000
,
0010
1000
0010
0100
0001
1000
0001
0010
0100
0010
0001
1000
0001
0100
0010
1000
,
0001
0100
0001
1000
0001
0010
0100
1000
0001
0100
0001
1000
0100
0010
0001
1000
,
0001
0100
0010
1000
0001
1000
0010
1000
0001
0010
0100
0010
0001
1000
0001
0100
,
0010
0100
0001
1000
0010
0100
0001
1000
0001
0010
0100
1000
0100
0010
0001
1000
,
0002
0000
0000
0000
,
0003
0000
0000
0000
;

//---------------dance-single - 13 (Loak)----------------
#NOTES:
     dance-single:
     13 (Loak):
     Medium:
     13:
     1.000,1.000,0.332,0.172,1.000,1901.000,89.000,46.000,15.000,0.000:
0MM0
0000
0000
0000
,
0000
0000
0000
0000
,
0000
0000
0000
0000
,
0000
0000
0000
0000
,
0000
0000
0000
0000
,
0000
0000
0000
0000
,
0000
0000
0000
0000
,
0000
0000
0000
0000
,
2002
0000
3003
1000
0000
0001
1000
0010
,
0000
0000
0100
0000
0001
0000
1000
0100
0010
0000
0001
1000
0001
1000
0001
1000
,
0010
1000
0001
0010
0010
0001
0100
0100
,
0001
0000
1000
0000
0010
0000
1000
0000
0001
0000
0100
0000
0001
0000
1000
0001
,
0010
0000
0010
0000
0001
0000
1000
0000
1000
0000
0100
0000
1000
0001
1000
0001
,
0100
0000
0001
0000
0010
0000
0001
1000
0100
0000
1000
0001
0100
0001
0100
0001
,
1000
0001
1000
0001
1000
0001
1000
0001
1000
0001
1000
0001
1000
0001
1000
0001
,
1000
0001
1000
0001
1000
0001
1000
0001
1000
0001
1000
0001
1000
0000
0000
0000
,
1001
0101
0011
1010
,
0110
0101
1100
0110
,
0011
1001
1010
0110
,
0101
0000
1001
0000
0011
0000
1001
1100
,
1100
0101
0011
1001
,
1010
0110
0101
1100
,
1001
0011
0101
0110
,
1010
000M
000M
000M
,
1001
1100
0101
0011
,
0110
1100
0101
0110
,
1010
1001
0011
0110
,
1100
0000
0101
0000
0011
0000
1001
1010
,
1010
0110
0101
1001
,
1100
0110
0011
1001
,
1010
0110
0101
1001
,
1000
0100
0010
0001
1000
0100
0010
0001
1000
0100
0010
0001
1000
0100
0010
0001
,
2000
0000
3001
0000
0100
0001
0100
0000
0010
1000
0001
1000
0100
0010
0001
1000
,
0002
0000
1003
0000
0010
1000
0010
0000
0100
0010
0100
0001
1000
0100
0010
0001
,
2000
0000
3100
0000
0010
0001
0010
0000
0001
1000
0001
0100
0010
1000
0001
0010
,
0100
0010
0001
0000
1000
0010
0100
0000
0001
1000
0001
0100
0010
1000
0010
0000
,
2010
0000
3010
0000
1000
0001
1000
0000
0100
1000
0001
1000
0010
0100
0010
1000
,
0002
0000
1003
0000
0100
1000
0100
0000
0010
0001
1000
0010
0100
0010
1000
0001
,
2000
0000
3001
0000
0010
0100
0010
0000
0001
1000
0001
0100
0010
0100
0001
1000
,
0100
0010
0001
0000
1000
0010
0100
0000
0001
1000
0100
1000
0001
0010
0100
0000
,
2100
0000
3100
0000
1000
0001
1000
0000
0010
1000
0001
1000
0100
0010
0001
1000
,
0002
0000
0103
0000
0010
1000
0010
0000
0100
0001
1000
0100
0010
0001
1000
0001
,
0200
0000
0301
0000
1000
0010
1000
0000
0001
0010
0100
0010
0001
1000
0001
0100
,
0010
1000
0001
0000
1000
0100
0010
0000
0001
0100
0001
0100
0010
1000
0001
0000
,
0021
0000
0031
0000
1000
0010
1000
0000
0001
0100
0001
1000
0100
0010
0001
1000
,
0020
0000
0130
0000
0001
0100
0001
0000
1000
0001
1000
0100
0010
0100
1000
0001
,
0200
0000
0301
0000
1000
0001
1000
0000
0100
0010
0001
1000
0010
1000
0010
0100
,
0001
0100
0010
1000
0001
0100
0010
1000
0001
0100
0010
1000
0001
0100
0010
1000
,
0002
0003
0000
0000
,
0000
0000
0000
0000
,
0000
0000
0000
0000
,
0000
0000
0000
0000
0000
0000
0000
0000
0000
0001
1000
0001
1000
0000
1000
0000
,
0002
0000
1003
0000
0001
0100
0001
0000
1000
0100
0010
0001
1000
0010
0100
0000
,
0002
0000
0013
0000
0001
0100
0001
0000
1000
0100
0010
0001
1000
0001
0100
0000
,
0020
0000
1030
0000
0100
1000
0100
0000
1000
0001
0100
0001
1000
0010
0100
0000
,
0001
1000
0100
0000
0010
0001
1000
0000
0100
1000
0010
0000
0100
0001
1000
0000
,
0002
0000
1003
0000
0001
0010
0001
0000
1000
0100
0010
0001
1000
0010
0100
0000
,
0002
0000
0013
0000
0001
0100
0001
0000
1000
0100
0010
0001
1000
0001
0100
0000
,
0002
0000
1003
0000
0100
1000
0100
0000
1000
0001
0100
0001
1000
0010
0100
0000
,
0002
0103
0020
1030
0200
0310
0002
1003
,
0020
0000
1030
0000
0001
0100
0001
0000
1000
0100
0010
0001
1000
0001
0100
0000
,
0020
0000
1030
0000
0001
0010
0001
0000
1000
0100
1000
0010
0100
0001
1000
0000
,
0002
0000
0013
0000
0001
1000
0001
0000
0100
0010
1000
0001
1000
0100
0010
0000
,
0001
0100
0010
0000
1000
0001
0010
0000
0100
1000
0001
0000
0100
0010
1000
0000
,
0200
0000
1300
0000
0001
0010
0001
0000
1000
0010
0100
0001
1000
0001
0010
0000
,
0200
0000
1300
0000
0001
0100
0001
0000
1000
0010
1000
0100
0010
0001
1000
0000
,
0002
0000
0103
0000
0001
1000
0001
0000
0010
0100
1000
0001
1000
0010
0100
0000
,
0001
1000
0010
0100
0001
1000
0010
0100
0001
1000
0010
0100
0001
1000
0010
0100
,
0001
0000
1000
0001
1000
0001
0100
0000
0010
1000
0001
1000
0000
0100
1000
0000
,
0001
0000
0010
0001
0010
0001
1000
0000
0010
0100
0010
1000
0000
0001
1000
0000
,
0010
0000
0100
0001
0100
0001
1000
0000
0001
0010
0100
0010
0000
0001
1000
0000
,
0020
0130
0002
0013
0200
1300
0002
0103
,
0010
0000
1000
0001
1000
0001
0010
0000
0100
1000
0001
1000
0000
0010
1000
0000
,
0001
0000
0100
0001
0100
0001
1000
0000
0100
0010
0100
1000
0000
0001
1000
0000
,
0100
0000
0010
0001
0010
0001
1000
0000
0001
0100
0010
0100
0000
0001
1000
0000
,
0200
0310
0002
0103
0020
1030
0002
0013
,
0100
0000
1000
0010
1000
0010
0100
0000
0001
1000
0010
1000
0000
0001
0100
0000
,
0001
0000
1000
0100
1000
0100
0010
0000
0001
1000
0100
1000
0000
0001
0010
0000
,
0001
0000
1000
0001
1000
0001
0100
0000
0010
1000
0010
0100
0000
0001
1000
0000
,
0200
0310
0002
1003
0020
0130
0002
1003
,
0100
0000
0010
0001
0010
0001
1000
0000
0001
0100
0001
1000
0000
0010
1000
0000
,
0001
0000
0010
0100
0010
0100
1000
0000
0001
1000
0001
0100
0000
0010
1000
0000
,
0001
0000
0100
0001
0100
0001
1000
0000
0010
1000
0001
1000
0000
0001
0010
0000
,
0001
1000
0100
0010
0001
1000
0100
0010
0001
1000
0100
0010
0001
1000
0100
0010
,
0001
0001
0001
0001
,
0001
0001
0001
0001
,
0001
0001
0001
0001
,
0001
0001
0001
0001
,
0001
0001
0001
0001
,
0001
0001
0001
0001
,
0001
0001
0001
0001
,
0001
0001
0001
1001
,
1001
1000
1000
1000
,
1000
1000
1000
1000
,
1000
1000
1000
1000
,
1000
1000
1000
1000
,
1000
1000
1000
1000
,
1000
1000
1000
1000
,
1000
1000
1000
1000
,
1000
1000
1000
1000
,
2MM2
3003
0000
0000
,
0000
0000
0000
0000
,
0000
0000
0000
0000
,
0000
0000
0000
0000
,
0000
0000
0000
1001
,
1001
0000
1000
0000
0010
0000
0100
0000
0001
1000
0001
0000
0010
0000
0001
1000
,
0001
0100
0010
0000
1000
0010
1000
0000
0001
0000
1000
0100
1000
0000
0001
0000
,
0100
0001
0100
0000
0010
1000
0010
0000
1000
0001
1000
0000
0001
0000
0010
0100
,
1000
0001
1000
0000
0001
0010
0001
0000
1000
0000
0001
0100
M001
0000
1000
0000
,
M010
0100
0010
0000
1000
0010
1000
0000
0001
0010
0001
0000
0010
0000
0100
1000
,
0001
0100
0001
0000
1000
0010
1000
0000
0001
0000
1000
0100
1000
0000
0001
0000
,
0100
0001
0100
0000
0010
1000
0010
0000
1000
0001
1000
0000
0100
0000
0010
0001
,
0000
0011
0000
1001
0101
0110
1010
1001
,
1000
0000
0001
0000
0010
0100
0010
0000
0100
1000
0100
0000
1000
0000
0001
1000
,
0010
0100
0010
0000
1000
0100
1000
0000
0001
0000
1000
0010
1000
0000
0001
0000
,
0010
0001
0010
0000
0100
1000
0100
0000
1000
0001
1000
0000
0010
0000
0100
0010
,
1000
0001
1000
0000
0100
1000
0100
0000
0010
0000
0001
1000
0M01
0000
0010
0000
,
0M01
1000
0001
0000
0100
0001
0100
0000
0010
0100
0010
0000
1000
0000
0001
1000
,
0001
0010
0100
0000
1000
0100
1000
0000
0001
0000
0010
0100
0010
0000
0001
0000
,
1000
0010
1000
0000
0001
0100
0001
0000
1000
0001
1000
0000
0100
0000
0010
0001
,
1000
0000
0001
0000
0100
0001
0100
0000
0010
0000
1000
0100
001M
0000
0100
0000
,
100M
0000
0010
0000
0100
0001
0100
0000
0001
0010
0001
0000
1000
0000
0100
0010
,
0001
0000
1000
0000
0001
0100
0001
0000
1000
0000
0001
0010
0001
0000
1000
0000
,
0010
0100
0010
0000
0100
0001
0100
0000
0001
1000
0001
0000
0010
0000
0100
1000
,
0001
1000
0010
0000
0100
0001
0100
0000
0001
0000
1000
0100
10M0
0000
0001
0000
,
10M0
0001
1000
0000
0010
1000
0010
0000
0100
0001
0100
0000
0010
0000
1000
0001
,
1000
0100
0010
0000
0001
0010
0001
0000
1000
0000
0001
0100
0001
0000
1000
0000
,
0010
0100
0010
0000
1000
0100
1000
0000
0001
0010
0001
0000
1000
0000
0001
0100
,
0000
0101
0000
1001
1100
0110
0011
1001
,
0001
0100
0010
0000
1000
0010
1000
0000
0001
1000
0001
0000
1000
0000
0001
1000
,
0100
0010
0100
0000
1000
0010
1000
0000
0001
0000
1000
0100
1000
0000
0001
0000
,
0100
0001
0100
0000
0010
1000
0010
0000
1000
0001
1000
0000
0100
0000
0010
0100
,
1000
0001
1000
0000
0010
1000
0010
0000
0100
0000
0001
1000
0001
0000
0100
0000
,
0010
1000
0010
0000
0100
0001
0100
0000
0001
0010
0001
0000
1000
0000
0001
1000
,
0001
0100
0010
0000
1000
0010
1000
0000
0001
0000
0100
0010
0100
0000
0001
0000
,
1000
0100
1000
0000
0001
0010
0001
0000
1000
0001
1000
0000
0010
0000
0100
0001
,
1000
0000
0001
0000
0010
0001
0010
0000
0100
0000
1000
0010
0100
0000
0010
0000
,
1000
0000
0100
0000
0010
0001
0010
0000
0001
0100
0001
0000
1000
0000
0010
0100
,
0001
0000
1000
0000
0001
0010
0001
0000
1000
0000
0001
0100
0001
0000
1000
0000
,
0100
0010
0100
0000
0010
0001
0010
0000
0001
1000
0001
0000
0100
0000
0010
1000
,
0001
1000
0100
0000
0010
0001
0010
0000
0001
0000
1000
0010
1000
0000
0001
0000
,
1000
0001
1000
0000
0100
1000
0100
0000
0010
0001
0010
0000
0100
0000
1000
0001
,
1000
0010
0100
0000
0001
0100
0001
0000
1000
0000
0001
0010
0001
0000
1000
0000
,
0100
0010
0100
0000
1000
0010
1000
0000
0001
0100
0001
0000
1000
0000
0001
0010
,
0000
0011
0000
1001
0011
0110
1100
1001
,
1000
0010
0100
0000
0001
0100
0001
0000
1000
0001
1000
0000
0001
0000
1000
0001
,
0010
0100
0010
0000
0001
0100
0001
0000
1000
0000
0001
0010
0001
0000
1000
0000
,
0010
1000
0010
0000
0100
0001
0100
0000
0001
1000
0001
0000
0010
0000
0100
0010
,
0001
1000
0001
0000
0100
0001
0100
0000
0010
0000
1000
0001
1000
0000
0010
0000
,
0100
0001
0100
0000
0010
1000
0010
0000
1000
0100
1000
0000
0001
0000
1000
0001
,
1000
0010
0100
0000
0001
0100
0001
0000
1000
0000
0010
0100
0010
0000
1000
0000
,
0001
0010
0001
0000
1000
0100
1000
0000
0001
1000
0001
0000
0100
0000
0010
1000
,
0001
0000
1000
0000
0100
1000
0100
0000
0010
0000
0001
0100
0010
0000
0100
0000
,
0001
0000
0010
0000
0100
1000
0100
0000
1000
0010
1000
0000
0001
0000
0100
0010
,
1000
0000
0001
0000
1000
0100
1000
0000
0001
0000
1000
0010
1000
0000
0001
0000
,
0010
0100
0010
0000
0100
1000
0100
0000
1000
0001
1000
0000
0010
0000
0100
0001
,
1000
0001
0010
0000
0100
1000
0100
0000
1000
0000
0001
0100
0001
0000
1000
0000
,
0001
1000
0001
0000
0010
0001
0010
0000
0100
1000
0100
0000
0010
0000
0001
1000
,
0001
0100
0010
0000
1000
0010
1000
0000
0001
0000
1000
0100
1000
0000
0001
0000
,
0010
0100
0010
0000
0001
0100
0001
0000
1000
0010
1000
0000
0001
0000
1000
0100
,
1000
0000
0001
0000
0100
0010
0100
0000
0001
0000
0010
0001
0010
0000
0100
0000
,
1001
0000
0000
0000
0000
0000
0000
0000
0000
0000
0000
0000
1001
0000
1000
0001
,
1000
0000
0000
0000
,
0000
0000
0000
0000
,
0000
0000
0000
0000
,
0000
0000
0000
0000
,
0000
0000
0000
0000
,
0000
0000
0000
0000
,
0000
0000
0000
0000
,
0000
0000
0000
0000
0000
0000
0000
0000
0000
0000
0000
0000
1001
0000
0001
1000
,
0001
0001
0001
0001
,
0001
0001
0001
0001
,
0001
0001
0001
0001
,
0001
0001
0001
0001
,
0001
0001
0001
0001
,
0001
0001
0001
0001
,
0001
0001
0001
0001
,
0001
0001
0001
0001
,
1000
0100
1000
0000
0001
0010
0001
0000
1000
0010
1000
0000
0001
0100
0001
0000
,
1000
0001
1000
0000
0100
1000
0100
0000
0010
0001
0010
0000
0001
1000
0001
0000
,
0100
0001
0100
0000
0010
1000
0010
0000
1000
0001
1000
0000
0100
1000
0100
0000
,
0010
0100
0010
0000
0001
1000
0001
0000
1000
0010
1000
0000
0001
0000
0001
0000
,
0001
0010
0001
0000
1000
0100
1000
0000
0001
1000
0001
0000
0100
0001
0100
0000
,
0010
1000
0010
0000
1000
0100
1000
0000
0100
0010
0100
0000
1000
0100
1000
0000
,
0001
0100
0001
0000
0100
0010
0100
0000
0010
1000
0010
0000
1000
0001
1000
0000
,
0001
0010
0001
0000
1000
0100
1000
0000
0010
1000
0010
0000
0100
0001
0100
0000
,
0001
1000
0001
0000
1000
0100
1000
0000
0001
0010
0001
0000
0100
0010
0100
0000
,
0001
1000
0001
0000
1000
0010
1000
0000
0001
1000
0001
0000
0100
0001
0100
0000
,
0001
0010
0001
0000
1000
0001
1000
0000
0001
0010
0001
0000
0010
0100
0010
0000
,
0001
0010
0001
0000
0100
0010
0100
0000
0001
0100
0001
0000
1000
0000
1000
0000
,
1000
0100
1000
0000
0001
0010
0001
0000
1000
0001
1000
0000
0010
1000
0010
0000
,
0100
0001
0100
0000
0001
0010
0001
0000
0010
0100
0010
0000
0001
0010
0001
0000
,
1000
0010
1000
0000
0010
0100
0010
0000
0100
0001
0100
0000
0001
1000
0001
0000
,
1000
0100
1000
0000
0001
0010
0001
0000
0100
0001
0100
0000
0010
1000
0010
0000
,
1000
0001
0010
0001
0100
0010
1000
0010
0100
0001
1000
0001
0010
0100
1000
0001
,
1000
0100
0010
0100
1000
0001
1000
0010
1000
0001
0100
0001
1000
0010
0100
0001
,
1000
0100
0010
0100
1000
0001
1000
0001
0010
0100
1000
0001
1000
0010
0100
0001
,
0100
0010
1000
0001
1000
0100
0010
0001
1000
0001
1000
0010
0100
0001
1000
0001
,
0010
0100
0010
0001
1000
0001
0100
0010
0100
0001
1000
0010
1000
0001
0010
0100
,
1000
0001
1000
0001
0100
0010
0100
0001
1000
0001
1000
0100
0010
0001
1000
0001
,
0100
0001
1000
0010
1000
0100
0010
0001
1000
0100
1000
0001
0010
0001
0010
0100
,
1000
0001
1000
0000
0010
0100
0010
0000
1000
0001
1000
0000
0100
0010
0100
0000
,
1000
0001
0100
0010
0100
0001
1000
0001
0100
0010
0100
0001
1000
0001
0010
0100
,
1000
0100
1000
0001
1000
0010
0100
0001
0100
0001
1000
0010
1000
0001
0010
0100
,
0010
0100
1000
0001
1000
0010
1000
0001
0010
0100
1000
0001
1000
0010
1000
0001
,
0100
0001
0100
0010
1000
0001
1000
0100
0010
0100
1000
0001
1000
0010
0100
0001
,
1000
0010
1000
0001
1000
0100
0010
0001
1000
0010
1000
0001
0010
0100
1000
0001
,
1000
0010
0100
0001
1000
0001
0100
0001
1000
0100
0010
0100
1000
0001
1000
0010
,
0100
0010
1000
0001
0100
0010
1000
0001
1000
0100
0010
0001
0010
0100
1000
0001
,
2000
0000
0000
0000
,
3000
0000
0000
0000
;

//---------------dance-single - 14+ (TYLoak)----------------
#NOTES:
     dance-single:
     14+ (TYLoak):
     Hard:
     14:
     1.000,1.000,0.340,0.123,1.000,2290.000,91.000,33.000,8.000,0.000:
0000
0000
0000
0000
,
0000
0000
0000
0000
,
0000
0000
0000
0000
,
0000
0000
0000
0000
,
0000
0000
0000
0000
,
0000
0000
0000
0000
,
0000
0000
0000
0000
,
0000
0000
0000
0000
,
2002
0000
3003
1000
0000
0001
1000
0010
,
0000
0000
0100
0000
0001
0000
1000
0100
0010
0000
0001
1000
0001
1000
0001
1000
,
0010
1000
0001
0010
0010
0001
0100
0100
,
0001
0000
1000
0000
0010
0000
1000
0000
0001
0000
0100
0000
0001
0000
1000
0001
,
0010
0000
0010
0000
0001
0000
1000
0000
1000
0000
0100
0000
1000
0001
1000
0001
,
0100
0000
0001
0000
0010
0000
0001
1000
0100
0000
1000
0001
0100
0001
0100
0001
,
1000
0001
1000
0001
1000
0001
1000
0001
1000
0001
1000
0001
1000
0001
1000
0001
,
1000
0001
1000
0001
1000
0001
1000
0001
1000
0001
1000
0001
1000
0000
0000
0000
,
1001
0101
0011
1010
,
0110
0101
1100
0110
,
0011
1001
1010
0110
,
0101
0000
1001
0000
0011
0000
1001
1100
,
1100
0101
0011
1001
,
1010
0110
0101
1100
,
1001
0011
0101
0110
,
1010
000M
000M
000M
,
1001
1100
0101
0011
,
0110
1100
0101
0110
,
1010
1001
0011
0110
,
1100
0000
0101
0000
0011
0000
1001
1010
,
1010
0110
0101
1001
,
1100
0110
0011
1001
,
1000
0100
1000
0100
0010
0001
0010
0001
1000
0010
1000
0010
0100
0001
0100
0001
,
0010
0100
1000
0001
0100
0010
1000
0001
1000
0100
0010
0001
0100
0010
1000
0100
,
0020
0000
0031
0000
0100
0001
0100
0000
0010
1000
0001
1000
0100
0010
0001
1000
,
0002
0000
1003
0000
0010
1000
0010
0000
0100
0010
0100
0001
1000
0100
0010
0001
,
2000
0000
3100
0000
0010
0001
0010
0000
0001
1000
0001
0100
0010
1000
0001
0010
,
0100
0010
0001
0000
1000
0010
0100
0000
0001
1000
0001
0100
0010
1000
0010
0000
,
1020
0000
1030
0000
0001
1000
0001
0000
0010
0001
1000
0001
0100
0010
0100
0001
,
2000
0000
3001
0000
0010
0001
0010
0000
0100
1000
0001
0100
0010
0100
0001
1000
,
0002
0000
1003
0000
0100
0010
0100
0000
1000
0001
1000
0010
0100
0010
1000
0001
,
0010
0100
1000
0000
0001
0100
0010
0000
1000
0001
0010
0001
1000
0100
0010
0000
,
0021
0000
0031
0000
1000
0001
1000
0000
0010
1000
0001
1000
0100
0010
0001
1000
,
0002
0000
0103
0000
0010
1000
0010
0000
0100
0001
1000
0100
0010
0001
1000
0001
,
0200
0000
0301
0000
1000
0010
1000
0000
0001
0010
0100
0010
0001
1000
0001
0100
,
0010
1000
0001
0000
1000
0100
0010
0000
0001
0100
0001
0100
0010
1000
0001
0000
,
0012
0000
0013
0000
0001
0100
0001
0000
1000
0010
1000
0001
0010
0100
1000
0001
,
0200
0000
0310
0000
1000
0010
1000
0000
0001
1000
0001
0010
0100
0010
0001
1000
,
0020
0000
1030
0000
0001
1000
0001
0000
0010
0100
1000
0001
0100
0001
0100
0010
,
1000
0010
0100
0001
1000
0010
0100
0001
1000
0010
0100
0001
1000
0010
0100
0001
,
2000
3000
0000
0000
,
0000
0000
0000
0000
,
0000
0000
0000
0000
,
0000
0000
0000
0000
0000
0000
0000
0000
1000
0001
1000
0001
0100
0000
0100
0000
,
0010
1000
0001
1000
0010
0100
0001
0100
0010
1000
0001
0010
0001
1000
0010
1000
,
0001
1000
0100
1000
0001
0100
0001
1000
0010
0100
0001
0010
0001
1000
0010
1000
,
0100
1000
0001
1000
0100
0010
0001
0010
0100
1000
0001
0100
0001
1000
0100
1000
,
0001
0100
0010
1000
0001
1000
0100
0010
0100
1000
0010
0100
0001
0010
0100
1000
,
0010
1000
0001
1000
0010
0100
0001
0100
0010
1000
0001
0010
0001
1000
0010
1000
,
0001
1000
0100
1000
0001
0100
0001
1000
0010
0100
0001
0010
0001
1000
0010
1000
,
0100
1000
0001
1000
0100
0010
0001
0010
0100
1000
0001
0100
0001
1000
0100
1000
,
0001
0100
0010
1000
0001
1000
0100
0010
0100
1000
0010
0100
0001
0010
0100
1000
,
0010
1000
0001
1000
0010
0100
0001
0100
0010
1000
0001
0010
0001
1000
0010
1000
,
0001
1000
0100
1000
0001
0100
0001
1000
0010
0100
0001
0010
0001
1000
0010
1000
,
0100
1000
0001
1000
0100
0010
0001
0010
0100
1000
0001
0100
0001
1000
0100
1000
,
0001
0100
0010
1000
0001
1000
0100
0010
0100
1000
0010
0100
0001
0010
0100
1000
,
0010
1000
0001
1000
0010
0100
0001
0100
0010
1000
0001
0010
0001
1000
0010
1000
,
0001
1000
0100
1000
0001
0100
0001
1000
0010
0100
0001
0010
0001
1000
0010
1000
,
0100
1000
0001
1000
0100
0010
0001
0010
0100
1000
0001
0100
0001
1000
0100
1000
,
0010
0100
0001
0100
0010
1000
0100
1000
0010
0100
0001
1000
0100
0010
0001
0010
,
0100
1000
0001
1000
0100
0010
0001
0010
0100
1000
0001
0100
0001
1000
0100
1000
,
0001
1000
0010
1000
0001
0010
0001
1000
0100
0010
0001
0100
0001
1000
0100
1000
,
0010
1000
0001
1000
0010
0100
0001
0100
0010
1000
0001
0010
0001
1000
0010
1000
,
0001
0010
0100
1000
0001
1000
0010
0100
0010
1000
0100
0010
0001
0100
0010
1000
,
0100
1000
0001
1000
0100
0010
0001
0010
0100
1000
0001
0100
0001
1000
0100
1000
,
0001
1000
0010
1000
0001
0010
0001
1000
0100
0010
0001
0100
0001
1000
0100
1000
,
0010
1000
0001
1000
0010
0100
0001
0100
0010
1000
0001
0010
0001
1000
0010
1000
,
0001
0010
0100
1000
0001
1000
0010
0100
0010
1000
0100
0010
0001
0100
0010
1000
,
0100
1000
0001
1000
0100
0010
0001
0010
0100
1000
0001
0100
0001
1000
0100
1000
,
0001
1000
0010
1000
0001
0010
0001
1000
0100
0010
0001
0100
0001
1000
0100
1000
,
0010
1000
0001
1000
0010
0100
0001
0100
0010
1000
0001
0010
0001
1000
0010
1000
,
0001
0010
0100
1000
0001
1000
0010
0100
0010
1000
0100
0010
0001
0100
0010
1000
,
0100
1000
0001
1000
0100
0010
0001
0010
0100
1000
0001
0100
0001
1000
0100
1000
,
0001
1000
0010
1000
0001
0010
0001
1000
0100
0010
0001
0100
0001
1000
0100
1000
,
0010
1000
0001
1000
0010
0100
0001
0100
0010
1000
0001
0010
0001
1000
0010
1000
,
0100
0010
0001
0010
0100
1000
0010
1000
0100
0010
0001
1000
0010
0100
0001
0100
,
0001
0000
0001
M000
0001
0000
0001
M000
,
0001
0001
0001
0001
,
0001
0001
0001
0001
,
0001
0001
0001
0001
,
0001
0001
0001
0001
,
0001
0001
0001
0001
,
0001
0001
0001
0001
,
0001
0001
0001
1001
,
1001
1000
1000
1000
,
1000
1000
1000
1000
,
1000
1000
1000
1000
,
1000
1000
1000
1000
,
1000
1000
1000
1000
,
1000
1000
1000
1000
,
1000
1000
1000
1000
,
1000
1000
1000
1000
,
2MM2
3003
0000
0000
,
0000
0000
0000
0000
,
0000
0000
0000
0000
,
0000
0000
0000
0000
,
0000
0000
0000
1001
,
1001
0000
1000
0000
0010
0000
0100
0000
0001
1000
0001
0000
0010
0000
0001
1000
,
0001
0100
0010
0000
1000
0010
1000
0000
0001
0000
1000
0100
1000
0000
0001
0000
,
0100
0001
0100
0000
0010
1000
0010
0000
1000
0001
1000
0000
0001
0000
0010
0100
,
1000
0001
1000
0000
0001
0010
0001
0000
0100
0000
0001
0000
1001
0000
1000
0000
,
1001
0000
0001
0000
0100
0010
0100
0000
0001
0010
0001
0000
0010
0000
0100
1000
,
0001
0100
0001
0000
1000
0010
1000
0000
0001
0000
1000
0100
1000
0000
0001
0000
,
0100
0001
0100
0000
0010
1000
0010
0000
1000
0001
1000
0000
0100
0000
0010
0001
,
0000
0011
0000
1001
0101
0110
1010
1001
,
1000
0000
0001
0000
0010
0100
0010
0000
0100
1000
0100
0000
1000
0000
0001
1000
,
0010
0100
0010
0000
1000
0100
1000
0000
0001
0000
1000
0010
1000
0000
0001
0000
,
0010
0001
0010
0000
0100
1000
0100
0000
1000
0001
1000
0000
0010
0000
0100
0010
,
1000
0001
1000
0000
0100
1000
0100
0000
0010
0000
0001
0000
0101
0000
0100
0000
,
0101
0000
0001
0000
0010
0001
0010
0000
0100
0010
0100
0000
1000
0000
0001
1000
,
0001
0010
0100
0000
1000
0100
1000
0000
0001
0000
0010
0100
0010
0000
0001
0000
,
1000
0010
1000
0000
0001
0100
0001
0000
1000
0001
1000
0000
0100
0000
0010
0001
,
1000
0000
0001
0000
0100
0001
0100
0000
0010
0000
1000
0000
1100
0000
0100
0000
,
1100
0000
1000
0000
0001
0100
0001
0000
0010
0100
0010
0000
0001
0000
0100
0010
,
1000
0010
1000
0000
0001
0010
0001
0000
1000
0000
0001
0100
0001
0000
1000
0000
,
0100
0010
0100
0000
0010
0001
0010
0000
0001
1000
0001
0000
0100
0000
0010
1000
,
0001
1000
0100
0000
0010
0001
0010
0000
0001
0000
0100
0000
0110
0000
0010
0000
,
0100
0001
0100
0001
1000
0001
0100
0010
1000
0001
1000
0100
0010
0100
1000
0001
,
1000
0100
0010
0001
1000
0010
1000
0001
0100
0010
1000
0100
0010
0001
1000
0001
,
0010
0100
1000
0001
1000
0010
0100
0001
1000
0001
0100
0010
1000
0100
0010
0001
,
0000
1001
0000
1001
1100
0110
0011
1001
,
0001
0100
0010
1000
0001
0010
0001
0010
0100
1000
0001
1000
0001
0100
0010
1000
,
0001
0100
0010
1000
0001
0010
0100
1000
0010
1000
0001
0010
0100
1000
0010
1000
,
0001
0100
0010
1000
0001
0010
0001
0010
0100
1000
0001
1000
0001
0100
0010
1000
,
0001
0100
0010
1000
0001
0010
0100
1000
0010
1000
0001
0010
0100
1000
0010
1000
,
0001
0010
0100
1000
0001
0100
0001
0100
0010
1000
0001
1000
0001
0010
0100
1000
,
0001
0010
0100
1000
0001
0100
0010
1000
0100
1000
0001
0100
0010
1000
0100
1000
,
0001
0010
0100
1000
0001
0100
0001
0100
0010
1000
0001
1000
0001
0010
0100
1000
,
0001
0000
0001
0000
1000
0010
0100
0000
0001
0000
0010
0100
1000
0000
0001
0000
,
1000
0010
0100
0001
1000
0100
1000
0100
0010
0001
1000
0001
1000
0010
0100
0001
,
1000
0010
0100
0001
1000
0100
0010
0001
0100
0001
1000
0100
0010
0001
0100
0001
,
1000
0010
0100
0001
1000
0100
1000
0100
0010
0001
1000
0001
1000
0010
0100
0001
,
1000
0010
0100
0001
1000
0100
0010
0001
0100
0001
1000
0100
0010
0001
0100
0001
,
1000
0100
0010
0001
1000
0010
1000
0010
0100
0001
1000
0001
1000
0100
0010
0001
,
1000
0100
0010
0001
1000
0010
0100
0001
0010
0001
1000
0010
0100
0001
0010
0001
,
1000
0100
0010
0001
1000
0010
1000
0010
0100
0001
1000
0001
1000
0100
0010
0001
,
1000
1010
0000
1010
0110
0101
1001
1100
,
1000
0010
0100
0001
1000
0100
1000
0100
0010
0001
1000
0001
1000
0010
0100
0001
,
1000
0010
0100
0001
1000
0100
0010
0001
0100
0001
1000
0100
0010
0001
0100
0001
,
1000
0010
0100
0001
1000
0100
1000
0100
0010
0001
1000
0001
1000
0010
0100
0001
,
1000
0010
0100
0001
1000
0100
0010
0001
0100
0001
1000
0100
0010
0001
0100
0001
,
1000
0100
0010
0001
1000
0010
1000
0010
0100
0001
1000
0001
1000
0100
0010
0001
,
1000
0100
0010
0001
1000
0010
0100
0001
0010
0001
1000
0010
0100
0001
0010
0001
,
1000
0100
0010
0001
1000
0010
1000
0010
0100
0001
1000
0001
1000
0100
0010
0001
,
1000
0000
1000
0000
0010
0100
0001
0000
0010
0000
0010
0100
1000
0000
0001
0000
,
1000
0010
0100
0001
1000
0100
1000
0100
0010
0001
1000
0001
1000
0010
0100
0001
,
1000
0010
0100
0001
1000
0100
0010
0001
0100
0001
1000
0100
0010
0001
0100
0001
,
1000
0010
0100
0001
1000
0100
1000
0100
0010
0001
1000
0001
1000
0010
0100
0001
,
1000
0010
0100
0001
1000
0100
0010
0001
0100
0001
1000
0100
0010
0001
0100
0001
,
1000
0100
0010
0001
1000
0010
1000
0010
0100
0001
1000
0001
1000
0100
0010
0001
,
1000
0100
0010
0001
1000
0010
0100
0001
0010
0001
1000
0010
0100
0001
0010
0001
,
1000
0100
0010
0001
1000
0010
1000
0010
0100
0001
1000
0001
1000
0100
0010
0001
,
1000
0010
0100
0001
0010
0100
1000
0010
0100
0010
1000
0100
0010
0001
0100
0010
,
1000
0000
0000
0000
0000
0000
000M
0000
0000
0000
0000
0000
1001
0000
1000
0001
,
2000
0000
3100
0020
0000
0031
0200
0000
,
0000
0310
2000
0000
0000
3001
1000
0001
,
1000
0100
0010
0001
2000
0000
3010
0200
,
0000
0301
0010
0200
0000
0300
1000
0001
,
0200
0000
0310
2000
0000
3100
0020
0000
,
0000
0031
0000
0002
0000
0103
0020
0000
,
2030
0000
3001
0001
0010
0100
1000
0020
,
0000
0000
0000
0000
0130
0000
0002
0000
0000
0000
0003
0000
1001
0000
1000
0001
,
1000
1000
1000
1000
,
1000
1000
1000
1000
,
1000
1000
1000
1000
,
1000
1000
1000
1000
,
1000
1000
1000
1000
,
1000
1000
1000
1000
,
1000
1000
1000
1000
,
1000
1000
1000
1000
,
0001
1000
0100
1000
0010
0100
0001
0100
0010
1000
0001
1000
0100
0010
0001
1000
,
0001
0010
0100
0010
0001
1000
0001
0100
0001
1000
0010
1000
0001
0100
0010
1000
,
0001
0010
0100
0010
0001
1000
0001
1000
0100
0010
0001
1000
0001
0100
0010
1000
,
0010
0100
0001
1000
0001
0010
0100
1000
0001
1000
0001
0100
0010
1000
0001
1000
,
0100
0010
0100
1000
0001
1000
0010
0100
0010
1000
0001
0100
0001
1000
0100
0010
,
0001
1000
0001
1000
0010
0100
0010
1000
0001
1000
0001
0010
0100
1000
0001
1000
,
0010
1000
0001
0100
0001
0010
0100
1000
0001
0010
0001
1000
0100
1000
0100
0010
,
0001
1000
0001
0000
0100
0010
0100
0000
0001
1000
0001
0000
0010
0100
0010
0000
,
0001
1000
0010
0100
0010
1000
0001
1000
0010
0100
0010
1000
0001
1000
0100
0010
,
0001
0010
0001
1000
0001
0100
0010
1000
0010
1000
0001
0100
0001
1000
0100
0010
,
0100
0010
0001
1000
0001
0100
0001
1000
0100
0010
0001
1000
0001
0100
0001
1000
,
0010
1000
0010
0100
0001
1000
0001
0010
0100
0010
0001
1000
0001
0100
0010
1000
,
0001
0100
0001
1000
0001
0010
0100
1000
0001
0100
0001
1000
0100
0010
0001
1000
,
0001
0100
0010
1000
0001
1000
0010
1000
0001
0010
0100
0010
0001
1000
0001
0100
,
0010
0100
0001
1000
0010
0100
0001
1000
0001
0010
0100
1000
0100
0010
0001
1000
,
0001
0010
0001
0000
1000
0100
1000
0000
0010
1000
0010
0000
0100
0001
0100
0000
,
0001
1000
0100
1000
0010
0100
0001
0100
0010
1000
0001
1000
0100
0010
0001
1000
,
0001
0010
0100
0010
0001
1000
0001
0100
0001
1000
0010
1000
0001
0100
0010
1000
,
0001
0010
0100
0010
0001
1000
0001
1000
0100
0010
0001
1000
0001
0100
0010
1000
,
0010
0100
0001
1000
0001
0010
0100
1000
0001
1000
0001
0100
0010
1000
0001
1000
,
0100
0010
0100
1000
0001
1000
0010
0100
0010
1000
0001
0100
0001
1000
0100
0010
,
0001
1000
0001
1000
0010
0100
0010
1000
0001
1000
0001
0010
0100
1000
0001
1000
,
0010
1000
0001
0100
0001
0010
0100
1000
0001
0010
0001
1000
0100
1000
0100
0010
,
0001
1000
0001
0000
0100
0010
0100
0000
0001
1000
0001
0000
0010
0100
0010
0000
,
0001
1000
0010
0100
0010
1000
0001
1000
0010
0100
0010
1000
0001
1000
0100
0010
,
0001
0010
0001
1000
0001
0100
0010
1000
0010
1000
0001
0100
0001
1000
0100
0010
,
0100
0010
0001
1000
0001
0100
0001
1000
0100
0010
0001
1000
0001
0100
0001
1000
,
0010
1000
0010
0100
0001
1000
0001
0010
0100
0010
0001
1000
0001
0100
0010
1000
,
0001
0100
0001
1000
0001
0010
0100
1000
0001
0100
0001
1000
0100
0010
0001
1000
,
0001
0100
0010
1000
0001
1000
0010
1000
0001
0010
0100
0010
0001
1000
0001
0100
,
0010
0100
0001
1000
0010
0100
0001
1000
0001
0010
0100
1000
0100
0010
0001
1000
,
0002
0000
0000
0000
,
0003
0000
0000
0000
;
