#TITLE:The Least 100 Sec.;
#SUBTITLE:;
#ARTIST:Hirofumi Sasaki;
#TITLETRANSLIT:;
#SUBTITLETRANSLIT:;
#ARTISTTRANSLIT:;
#CREDIT:Arch0wl;
#BANNER:theleast100sec-bn.png;
#BACKGROUND:theleast100sec-bg.png;
#LYRICSPATH:;
#CDTITLE:!arch0wltitle.png;
#MUSIC:theleast100sec.mp3;
#OFFSET:-0.106;
#SAMPLESTART:22.929;
#SAMPLELENGTH:12.000;
#SELECTABLE:YES;
#DISPLAYBPM:200.000:263.000;
#BPMS:0.000=263.500,80.000=251.600,92.000=261.000,103.000=263.700,123.000=263.600,159.000=263.200,175.000=263.700,199.000=263.600,231.000=263.900,247.000=263.600,398.000=223.100,405.000=265.867;
#STOPS:;
#BGCHANGES:;
// cache tags:
#FIRSTBEAT:0.000;
#LASTBEAT:426.333;
#SONGFILENAME:Songs/Archmage and Dark0wl Hammer of Thor UltraHyperMegaPack/The Least 100sec/theleast100sec.sm;
#HASMUSIC:1;
#HASBANNER:1;
#MUSICLENGTH:99.892;
// end cache tags

//---------------dance-single - Arch0wl----------------
#NOTES:
     dance-single:
     Arch0wl:
     Challenge:
     18:
     1.000,1.000,1.000,0.020,0.536,728.000,159.000,2.000,0.000,0.000:
0101
0000
1000
1100
0000
1000
1100
0000
,
0100
0010
1000
0101
0000
0000
0101
0000
0000
0101
0000
0000
,
0001
0000
0100
0010
0100
0001
0010
0001
,
1000
0010
0100
1000
0100
1000
0001
0000
,
0010
0010
1010
0010
,
0010
0000
0010
0000
0010
1001
0000
0100
,
1000
0100
1000
0100
0010
0100
1000
0100
,
1001
1001
0000
0000
,
0101
0000
1000
1100
0000
1000
1100
0000
,
0100
0010
1000
0101
0000
0000
0101
0000
0000
0101
0000
0000
,
0001
0000
0100
0010
0100
0001
0010
0001
,
1000
0010
0100
1000
0100
1000
0001
0000
,
0010
0010
1010
0010
,
0010
0000
0010
0000
0010
1001
0000
0100
,
1000
0100
1000
0100
0001
0100
1000
0100
,
1001
0000
0000
0011
0000
0000
0100
0010
0100
0010
0100
0010
,
0100
0000
1000
1100
0000
1000
1100
0010
,
0001
0000
0000
1001
0000
0000
1000
0100
0010
0001
0100
0010
,
0001
0000
1000
1100
0000
1000
1100
0010
,
0001
0000
0000
1000
0100
0001
1000
0100
0010
0001
0100
0010
,
0001
0000
1000
1100
0000
1000
1100
0000
,
1000
1100
0000
1000
1100
0010
0001
1100
,
0000
0000
0011
1000
0100
0011
0000
0000
,
1100
0000
0000
1000
0010
0001
1000
0100
0010
0001
0100
0010
,
0001
0000
0100
0000
1000
0000
0100
0000
0000
0101
0000
0000
0000
0000
0000
0100
0000
0000
0010
0000
0000
0001
0000
0000
,
1010
0000
0000
1010
0000
0000
0001
0100
,
1000
0100
1000
0100
1000
0100
0001
1000
,
0100
0000
0000
0010
0000
0000
1000
0000
0000
0001
0000
0000
1000
0000
0000
0010
0000
0000
0001
0000
0100
0000
1000
0000
,
0100
1000
0100
1000
0100
1000
0100
1000
0100
0001
0100
1000
,
0100
1000
0100
1000
0100
1000
0100
1000
0100
1000
0000
0000
,
0010
0101
0000
0101
0000
0000
0101
0000
,
1000
0000
0000
1100
0000
0000
0000
0000
0000
1000
0000
0000
1100
0000
0000
0000
0000
0000
1000
0000
0100
0000
0001
0000
,
0110
0110
0110
0010
,
1000
0100
1000
0001
0010
0001
1000
0010
,
0100
0010
0100
0001
1000
1001
0001
0000
,
0000
0000
1000
0000
0100
0000
1000
0000
0000
0010
0000
0000
0100
0000
0000
1000
0000
0000
0001
0000
0000
0000
0000
0000
,
1000
0100
0001
0100
1000
0100
1000
0100
,
1000
0100
0001
0100
1000
0100
1000
0100
,
1000
0100
0001
0100
1000
0100
1000
0100
,
1000
0100
0001
0100
1000
0100
0011
0000
,
0000
0000
0000
0011
0000
0000
0000
0000
0000
0000
0000
0000
0000
0000
0000
0000
0000
0000
0010
0000
0100
0000
0010
0000
,
0100
0010
0100
0010
0100
0010
0100
0010
0100
0011
0000
0000
,
0000
0000
0000
0011
0000
0000
0000
0000
0000
0000
0000
0000
0000
0000
0000
0000
0000
0000
0010
0000
1000
0000
0010
0000
,
1000
0010
1000
0010
1000
0010
1000
0010
1000
0001
0000
0000
,
1000
0100
0001
0100
1000
0100
1000
0100
,
1000
0100
0001
0100
1000
0100
1000
0100
,
0001
0000
0100
0010
0001
0000
1000
0100
,
0001
0000
0100
0010
0001
0000
0101
0000
,
1000
0101
0000
1000
0101
0000
1000
0101
,
0000
1000
0101
0100
0101
0100
0101
0010
,
0010
0110
0001
1010
0101
0001
1100
0010
,
0010
0110
0001
1010
0101
0001
1100
0010
,
0010
0110
0001
1010
0101
0001
0110
0010
,
1010
0110
0010
1010
0101
0001
1100
0010
,
0010
0110
0001
1010
0110
0001
1100
0100
,
0100
0110
0010
1001
0110
0001
1100
0010
,
0010
0110
0001
1010
0101
0001
1100
0010
,
0010
0110
1010
0010
0101
0001
1100
0000
,
0010
1100
0000
0001
1100
0000
0010
1100
,
0000
0001
1100
0000
0010
1100
0000
0001
,
1100
0000
1000
0100
1000
0100
1000
0100
,
1000
0100
1000
0100
1000
0100
1100
0010
,
0010
0110
0001
1010
0101
0001
1100
0010
,
0010
0110
0001
1010
0101
0001
1100
0010
,
0010
0110
0001
1010
0101
0001
0110
0010
,
1010
0110
0010
1010
0101
0001
1100
0010
,
0010
0110
0001
1010
0110
0001
1100
0100
,
0100
0110
0010
1001
0110
0001
1100
0010
,
0010
0110
0001
1010
0101
0001
1100
0010
,
0010
0110
1010
0010
0101
0010
1100
0000
,
0000
0100
1000
0100
0010
0100
1000
0100
,
1000
0100
1000
0100
1000
0100
1000
0100
,
1000
0010
1000
0100
1000
0100
1000
0100
,
0011
0000
0011
0000
0100
0011
0000
0011
,
0011
0000
1000
0000
1000
0000
1000
0010
,
0001
0000
1000
0001
1000
0100
0001
1000
,
0010
0000
0100
0010
1000
0001
0010
0100
,
1000
0100
0010
0001
0100
0010
0001
1000
,
0100
1000
0001
1000
0100
1000
0100
1000
,
0100
1000
0001
1000
0100
1000
0100
1000
,
0100
1000
0001
1000
0100
1000
0100
1000
,
0100
1000
0001
1000
0100
1000
0010
1000
,
0100
1000
0001
1000
0100
1000
0100
1000
,
0100
1000
0001
1000
0100
1000
0100
1000
,
0100
1000
0001
1000
0100
1000
0011
0000
,
0011
0000
0000
0000
0000
1000
1100
0000
,
1000
1100
0000
1000
1100
0010
0001
0000
,
0101
0000
0000
1000
0100
0010
0001
0100
0010
0001
0000
0000
,
1000
1100
0000
1000
1100
0010
0001
0000
,
1000
0100
0001
1000
0100
0010
0001
0100
0010
0001
0000
0000
,
1000
1100
0000
1000
1100
0000
1000
1100
,
0000
1000
1100
0010
0001
1100
0000
0000
,
0011
1000
0100
0011
0000
0000
1100
0000
,
1000
0010
0001
1000
0100
0010
0001
0100
0010
0001
0100
1000
,
0100
0101
0000
0100
0010
0001
1010
0000
,
0000
1010
0000
0000
0001
0100
1000
0100
,
1000
0100
1000
0100
0001
1000
0100
0010
,
1000
0000
0000
0001
0000
0000
1000
0000
0000
0010
0000
0000
0001
0000
0100
0000
1000
0000
0100
0000
1000
0000
0100
0000
,
1000
0100
1000
0100
1000
0100
0001
0100
1000
0100
1000
0100
,
1000
0100
1000
0100
1000
0100
1001
0000
0000
1001
0000
0000
,
0000
0000
0000
0000
,
0000
0000
0000
0001
0010
0001
0010
0001
0000
0000
0000
0001
,
0010
0001
0010
0001
0000
0000
0000
0001
0010
0001
0010
0001
,
0000
1001
1001
1001
,
0000
2002
0000
0000
0000
0000
0000
0000
0000
0000
0000
0000
,
0000
0000
0000
0000
,
0000
0000
0000
0000
0000
0000
0000
3003
0000
0000
0000
0000
;

//---------------dance-single - Arch0wl----------------
#NOTES:
     dance-single:
     Arch0wl:
     Edit:
     25:
     1.000,1.000,1.000,0.000,0.596,766.000,215.000,0.000,0.000,38.000:

1100011
0000000
0010011
1101000
0000000
0011000
1100011
0000000
,
1000000
0100000
0010000
1101100
0000000
0000000
1100110
0000000
0000000
1100011
0000000
0000000
,
0010001
0000010
0101000
0010100
0101000
1000100
0010010
1001000
,
0010010
0100001
0010100
1001000
0100001
1000010
0100100
0001000
,
0010100
0000010
0010001
0001000
1010000
0000100
0010000
0000010
,
0010000
0000001
0010000
0001000
0010000
1100010
0000001
0101000
,
0010100
0100001
0010010
0100100
1001000
0100001
0010010
0100100
,
1011000
0000100
0000010
1010100
0000000
0000000
0000000
0000000
0000000
0000000
0000000
0000000
,
1100011
0000000
0010011
1101000
0000000
0011000
1100011
0000000
,
1000000
0100000
0010000
1101100
0000000
0000000
1100110
0000000
0000000
1100011
0000000
0000000
,
0010001
0000010
0101000
0010100
0101000
1000100
0010010
1001000
,
0010010
0100001
0010100
1001000
0100001
1000010
0100100
0001000
,
0010100
0000010
0010001
0001000
1010000
0000100
0010000
0000010
,
0010000
0000001
0010000
0001000
0010000
1100010
0000001
0101000
,
0010100
0100001
0010010
0100100
1001000
0100001
0010010
0100100
,
1011000
0000000
0000100
0000000
0000010
0000000
1010100
0000000
0000000
0000000
0000000
0000000
0100001
0000000
0010000
0000000
0100000
0000000
0010000
0000000
0100000
0000001
0010000
0000000
,
0100010
0000100
0010001
1100010
0000100
0010010
1101000
0100000
,
0010000
0000000
0000000
0001000
0000000
0000000
1100100
0000000
0000000
0000010
0000000
0000000
0010100
0000000
0100000
0000010
1000000
0000000
0010001
0000000
0100000
0000100
1000000
0000000
,
0010010
0000000
0010010
1100001
0000000
0010001
1100100
0100000
,
0010000
0000000
0000000
0001000
0000000
0000000
0010100
0000000
0100000
0000001
1000000
0000000
0010010
0000000
0100000
0000100
1000000
0000000
0011000
0000000
0100000
0000010
1000000
0000000
,
0010100
0000001
0010010
1101000
0000100
0010010
1100001
0000010
,
0010100
1101000
0000001
0010010
1101001
1000000
0100000
1010110
,
0000000
0000000
0000000
0001000
0000100
0000010
1101001
0000000
0000000
1000000
0000000
0000000
0100000
0000000
0000000
1010110
0000000
0000000
0000000
0000000
0000000
0001000
0000100
0000010
,
1101001
0000000
0000000
0000000
0000000
0000000
1000001
0000000
0100000
0000010
0010000
0000000
1000100
0000000
0100000
0001000
0010000
0000000
1000001
0000000
0100000
0000010
0010000
0000000
,
1001000
0000000
0100000
0000100
0010000
0000000
0100010
0000000
0000000
1100001
0000000
0000000
0000100
0000000
0000000
0100010
0000000
0000000
0011000
0000000
0000000
0100100
0000000
0000000
,
1010011
0000000
0000000
1010110
0000000
0000000
1001100
0100001
,
0010010
0100100
0011000
0100001
0010010
0100100
1000001
0010000
,
0100010
0000000
0000100
1000000
0001000
0000000
0010001
0000000
0000000
0100100
0000000
0000000
0011000
0000000
0000000
1000001
0000000
0000000
0010100
0000000
0100000
0000010
0010000
0000000
,
0100100
0000000
0010000
0000001
0100000
0000000
0010100
0000000
0100000
0000010
0010000
0000000
0100001
0000000
0010000
0000010
0100000
0000000
1000100
0000000
0100000
0000001
0010000
0000000
,
0100010
0000000
0010000
0000100
0100000
0000000
0011000
0000000
0100000
0000001
0010000
0000000
0100010
0000000
0010000
0000100
0100000
0000000
0011011
0000000
0000000
0000000
0000000
0000000
,
0100000
1010000
0000000
1010000
0000000
0000000
1101100
0000000
,
0010110
0000000
0000000
1100000
0000000
0000000
0001010
0000000
0000000
0010000
0000000
0000000
1101001
0000000
0000000
0000000
0000000
0000000
1000001
0000000
0100000
0000100
0010000
0000000
,
1101000
0000010
1100001
0000010
1100100
0001000
0010001
0000010
,
1000100
0101000
1000100
0010001
0100010
0011000
1000101
0100000
,
0010000
0100001
0010100
1000010
0101000
0110000
0010001
0000010
,
0000100
0000000
1000000
0001000
0100000
0000000
1000001
0000000
0000000
0100010
0000000
0000000
0010100
0000000
0000000
1001000
0000000
0000000
0100001
0000000
0000000
0000000
0000000
0000000
,
0010100
0100010
1001000
0100001
0010000
0100010
0010000
0100100
,
0010010
0100001
1000000
0100010
0010100
0101000
0010001
0100100
,
0010000
0100010
1001000
0100100
0010010
0100001
0010000
0100100
,
0010010
0100001
1000100
0100010
0011000
0100100
1010011
0000000
,
0000000
0000000
0000000
1011100
0000000
0000000
0000000
0000000
0000000
0000010
0000000
0000000
0000100
0000000
0000000
0001000
0000000
0000000
0010001
0000000
0100000
0000010
0010000
0000000
,
0100100
0000000
0010000
0001000
0100000
0000000
0010001
0000000
0100000
0000010
0010000
0000000
0100100
0000000
0010000
0001000
0100000
0000000
1010011
0000000
0000000
0000000
0000000
0000000
,
0000000
0000000
0000000
1011100
0000000
0000000
0000000
0000000
0000000
0000001
0000000
0000000
0000010
0000000
0000000
0001000
0000000
0000000
0010100
0000000
0100000
0000000
0010010
0000000
,
0100000
0010100
0100000
0010010
0100000
0010001
0100000
0010010
0100000
0010100
0000000
0000000
,
0010000
0100000
1000001
0100100
0010010
0101000
0010001
0100010
,
0010100
0101000
1000001
0100100
0010010
0101000
0010001
0100100
,
1000010
0000100
0100001
0011000
1000100
0001000
1000010
0100100
,
0011000
0000100
0100001
0010010
1000100
0000010
1101000
0000100
,
0010010
1100001
0000100
0010010
1101000
0000100
0010001
1100010
,
0000100
0011000
1010100
0100010
1010001
0100100
1011001
0100000
,
0010000
0000000
0000000
1100000
0000000
0000000
0010000
0000000
0000000
0100000
0000000
0000000
1010010
0000001
0000000
0100000
0000000
0000000
1010000
0000000
0000000
0100000
0000000
0000000
,
0010000
1100000
0010000
0100100
1010000
0100001
1010100
0100000
,
0010000
0000000
0000000
1100010
0000000
0000000
0010000
0000000
0000000
0100000
0000000
0000000
1010000
0000000
0000000
0100000
0001000
0000000
1010000
0000000
0000100
0100000
0000000
0000000
,
0010010
0000000
0000000
0000100
1100000
0000000
0000010
0000000
0010000
0000001
0000000
0000000
0100000
0000000
0000000
0000000
1010000
0000000
0000000
0000000
0100000
0000000
0000000
0000000
1000000
0000000
0000000
0000000
0010000
0000000
0000000
0000000
,
0100000
0000000
0000000
1010100
0000000
0000000
0100010
0000000
0000000
0010001
0000000
0000010
1100000
0000100
0000000
0010010
0000000
0000100
1000000
0001000
0000000
1000000
0000000
0000000
,
1000000
0000000
0000000
0000000
0000000
0000000
1010000
0000000
0000000
0000000
0000000
0000000
0100000
0000000
0000010
0000000
0000000
0000000
0010000
0000000
0000001
0000000
0000000
0000000
1100000
0000000
0000000
0000000
0000000
0000000
0010000
0000000
0000000
0000100
0000000
0000000
1000000
0000001
0000000
0000000
0000010
0000000
0010000
0000100
0000000
0000000
0000000
0000000
,
0100000
0000000
0000000
0000000
0000000
0000000
1010100
0000000
0000001
0000000
0000010
0000000
0100000
0000100
0000000
0000000
0000000
0000000
0010000
0000000
0001000
0000000
0000010
0000000
1100000
0000000
0000100
0000000
0001000
0000000
0010000
0000000
0000010
0000000
0000000
0000000
1000100
0000000
0000000
0000000
0000001
0000000
0010000
0000000
0001000
0000000
0000000
0000000
,
0100000
0000000
0000000
1010000
0000010
0000000
0100000
0000100
0000000
0010000
0001000
0000000
1100000
0000001
0000000
0010000
0000000
0000000
1100011
0000000
0000000
0000000
0000000
0000000
,
0010000
1101100
0000000
0010000
1100011
0000000
0010000
1101100
,
0000000
0010000
1100011
0000000
0010000
1101100
0000000
0010000
,
1100011
0000000
1000000
0101100
1000000
0100000
1000011
0100000
,
1000110
0100000
1001100
0100000
1001001
0100000
1010000
0100000
,
0010000
0000000
0000000
1100000
0000000
0000000
0010000
0000000
0000000
0100001
0000000
0000010
1010000
0000000
0000000
0100000
0000000
0000000
1000000
0000000
0000000
0100001
0000000
0000010
,
0010000
0000000
0000100
0000000
0000000
0000000
1100010
0000000
0000000
0000000
0000000
0000000
0010001
0000000
0000000
0000000
0000000
0000000
0100100
0000000
0000000
0000010
0000000
0000000
1010000
0000000
0000000
0000000
0000000
0000000
0100000
0000000
0000000
0000000
0000000
0000000
1000000
0000000
0000000
0000000
0000000
0000000
0101000
0000000
0000000
0000000
0000000
0000000
,
0010000
0000000
0000000
0000000
0000000
0000000
0000000
0000000
0000000
0000000
0000000
0000000
0000000
0000000
0000000
0000000
0000000
0000000
0000000
0000000
0000000
0000000
0000000
0000000
1100100
0000000
0000000
0000000
0000000
0000000
0000000
0000000
0000000
0000000
0000000
0000000
0000000
0000000
0000000
0000000
0000000
0000000
0000001
0000000
0000000
0000000
0000000
0000000
0010000
0000000
0000000
0000000
0000000
0000000
0000000
0000000
0000000
0000000
0000000
0000000
0000000
0000000
0000000
0000000
0000000
0000000
0000000
0000000
0000000
0000000
0000000
0000000
0100010
0000000
0000000
0000000
0000000
0000000
0000000
0000000
0000000
0000000
0000000
0000000
0000000
0000000
0000000
0000000
0000000
0000000
0000000
0000000
0000000
0000000
0000000
0000000
1010000
0000000
0000000
0000000
0000000
0000000
0000000
0000000
0000000
0000000
0000000
0000000
0000010
0000000
0000000
0000000
0000000
0000000
0000000
0000000
0000000
0000000
0000000
0000000
0100000
0000000
0000000
0000000
0000000
0000000
0000000
0000000
0000000
0000000
0000000
0000000
0000000
0000000
0000000
0000000
0001000
0000000
0000000
0000000
0000000
0000000
0000000
0000000
1010001
0000000
0000000
0000000
0000000
0000000
0000000
0000000
0000000
0000000
0000000
0000000
0000000
0000000
0000000
0000000
0000100
0000000
0000000
0000000
0000000
0000000
0000000
0000000
0100000
0000000
0000000
0000000
0000000
0000000
0000000
0000000
0000001
0000000
0000000
0000000
0000000
0000000
0000000
0000000
0000000
0000000
0000000
0000000
0000000
0000000
0000000
0000000
,
0010010
0000000
1100000
0000000
0010000
0001000
0100000
0000001
1010000
0000010
0100000
0000000
1000000
0000001
0100000
0000100
,
0010000
0000010
1101000
0000000
0010000
0000000
0100001
0000000
1010000
0000000
0100000
0000000
1000000
0000000
1000000
0000000
,
1000001
0000000
0000000
0000000
0000000
0000100
1100000
0000000
0000000
0000001
0000000
0000000
0010000
0000000
0000000
0000000
0001000
0000000
0100000
0000000
0000010
0000000
0000000
0000000
1010100
0000000
0000000
0000000
0000000
0000000
0100001
0000000
0000000
0000000
0000000
0000000
1011000
0000000
0000000
0000000
0000000
0000000
0100000
0000000
0000100
0000000
0000000
0000000
,
0010000
0000000
0000000
0000000
0000010
0000000
1100000
0000000
0000000
0000000
0000000
0000001
0010000
0000000
0000000
0000000
0000000
0000000
0100010
0000000
0000000
0000000
0000000
0000000
1010100
0000000
0000000
0000000
0000000
0000000
0101000
0000000
0000000
0000000
0000010
0000000
1000000
0000000
0001000
0000000
0000000
0000000
0100100
0000000
0000000
0000000
0000000
0000000
,
0010000
1100000
0010000
0100000
1010000
0100000
1000001
0000000
,
0000001
0100000
0010001
0100000
1000001
0100000
0010001
0100000
,
0010001
0100000
0010001
0100000
0010001
0100000
0010001
0100100
,
0011001
1000010
0100101
0011000
0100011
0010100
0101001
0010010
,
1100101
0001000
1100011
0000100
0011001
1100010
0001000
1100000
,
1101000
0000000
0011000
0000000
0011000
0000000
0011000
0010000
,
0101000
0000000
0011000
0100000
1001000
0100000
0011000
1000100
,
0101001
0000010
1001100
0010001
0101010
1000100
0011001
1000010
,
0001100
1000001
0011010
1000100
0101001
0010010
0101100
0010000
,
0101100
0010001
1000000
0010001
0101100
0010000
0100000
0010000
,
0100011
0010000
1000110
0010000
0101100
0010000
0100001
0010010
,
0101000
0010100
1001000
0010100
0100010
0011000
0100010
0010001
,
0100100
0011000
1000001
0010010
0100100
0011000
0100100
0010010
,
0100001
0011000
1000000
0010100
0100000
0010010
0100000
0010001
,
0100000
0011000
1000000
0010010
0100001
0011000
0100100
0010001
,
0100010
0000000
0000000
0010100
0000000
0000000
1001000
0000000
0000000
0010001
0000000
0000000
0100010
0000000
0000000
0010100
0000000
0000000
1101000
0000000
0000100
0000000
0000010
0000000
,
1100100
0000000
0000000
0000001
0000000
0010001
1100010
0000100
,
0010001
1100010
0000100
0010010
1101000
0100000
0010000
0001000
,
1100100
0000000
0000000
0000010
0000000
0000000
0010100
0000000
0100000
0000010
1000000
0000000
0010001
0000000
0100000
0000100
1000000
0000000
0010010
0000000
0000000
0000000
0000000
0000000
,
0010010
1100001
0000000
0010001
1100100
0100000
0010000
0001000
,
0010100
0000000
0100000
0000001
1000000
0000000
0010010
0000000
0100000
0000100
1000000
0000000
0011000
0000000
0100000
0000010
1000000
0000000
0010100
0000000
0000000
0000001
0000000
0000000
,
0010010
1101000
0000100
0010010
1100001
0000010
0010100
1101000
,
0000001
0000000
0000000
0010010
0000000
0000000
1101001
0000000
0000000
1000000
0000000
0000000
0100000
0000000
0000000
1010110
0000000
0000000
0000000
0000000
0000000
0001000
0000100
0000010
,
1101001
0000000
0000000
1000000
0000000
0000000
0100000
0000000
0000000
1010110
0000000
0000000
0000000
0000000
0000000
0001000
0000100
0000010
1101001
0000000
0000000
0000000
0000000
0000000
,
1000001
0000000
0100000
0000010
0010000
0000000
1000100
0000000
0100000
0001000
0010000
0000000
1000001
0000000
0100000
0000010
0010000
0000000
1001000
0000000
0100000
0000100
0010000
0000000
,
0100010
1100001
0000100
0100010
0011000
0100100
1010011
0000000
,
0000000
1010110
0000000
0000000
1001100
0100001
0010010
0100100
,
0011000
0000000
0000000
0100001
0000000
0000000
0010010
0000000
0000000
0100100
0000000
0000000
1000001
0000000
0000000
0010000
0000000
0000000
0100010
0000000
0000100
1000000
0001000
0000000
,
0010001
0000000
0000000
0100100
0000000
0000000
0011000
0000000
0000000
1000001
0000000
0000000
0010100
0000000
0100000
0000010
0010000
0000000
0100100
0000000
0010000
0000001
0100000
0000000
,
0010100
0000000
0100000
0000010
0010000
0000000
0100001
0000000
0010000
0000010
0100000
0000000
1000100
0000000
0100000
0000001
0010000
0000000
0100010
0000000
0010000
0000100
0100000
0000000
,
0011000
0000000
0100000
0000001
0010000
0000000
0100010
0000000
0010000
0000100
0100000
0000000
0011011
0000000
0000000
0000000
0000000
0000000
1101110
0000000
0000000
0000000
0000000
0000000
,
0000000
0000000
0000000
0000000
,
0000000
0000000
0000000
0010110
0101001
0010110
0101001
0010110
0000000
0000000
0000000
0010110
,
0101001
0010110
0101001
0010110
0000000
0000000
0000000
0010110
0101001
0010110
0101001
0010110
,
0000000
1111111
1111111
1111111
,
0000000
1111111
0000000
0000000
0000000
0000000
0000000
0000000
0000000
0000000
0000000
0000000
;
