#TITLE:[1-3] Epiphany;
#SUBTITLE:;
#ARTIST:The Word Alive;
#TITLETRANSLIT:;
#SUBTITLETRANSLIT:;
#ARTISTTRANSLIT:;
#CREDIT:;
#BANNER:../Beast 4 - bn.png;
#BACKGROUND:../Beast 4 - bg.png;
#LYRICSPATH:;
#CDTITLE:;
#MUSIC:Epiphany.ogg;
#OFFSET:-0.090;
#SAMPLESTART:93.338;
#SAMPLELENGTH:12.000;
#SELECTABLE:YES;
#DISPLAYBPM:175.000;
#BPMS:0.000=175.000,368.000=165.000,395.500=175.000;
#STOPS:;
#BGCHANGES:;
// cache tags:
#FIRSTBEAT:16.000;
#LASTBEAT:679.000;
#SONGFILENAME:Songs/Beast Aoreo BEAST! 4/Epiphany - [Aoreo]/Epiphany.sm;
#HASMUSIC:1;
#HASBANNER:1;
#MUSICLENGTH:233.975;
// end cache tags

//---------------dance-single - J. Nero----------------
#NOTES:
     dance-single:
     J. Nero:
     Challenge:
     14:
     1.000,1.000,0.188,0.244,1.000,1729.000,44.000,57.000,0.000,0.000:
0000
0000
0000
0000
,
0000
0000
0000
0000
,
0000
0000
0000
0000
,
0000
0000
0000
0000
,
1000
0010
1000
0010
0100
0001
0100
0001
1000
0100
0010
0001
1000
0010
0100
0001
,
1000
0010
0100
0010
0100
0001
0010
0100
1000
0100
1000
0001
0010
0100
1000
0100
,
0010
0001
1000
0001
1000
0010
1000
0010
0100
0001
0100
0001
0010
0100
1000
0100
,
1000
0010
0100
0001
0100
0001
1000
0001
1000
0100
0010
0001
0010
0100
1000
0100
,
1000
0010
0100
0000
0001
0000
1000
0100
1000
0000
0010
0000
0100
0001
0100
0000
,
0010
0100
0010
0000
1000
0000
0001
0100
0001
0100
0010
1000
0010
1000
0100
0010
,
0001
1000
0001
0000
0010
0000
0100
1000
0100
0000
1000
0000
0001
0100
0001
0000
,
1000
0010
1000
0000
0001
0010
0100
1000
0001
0100
0001
1000
0100
0010
0001
1000
,
0002
0003
0000
0000
1001
0000
0000
1000
,
0001
0010
0100
0000
0000
0000
0000
0000
1000
0100
1000
0001
1000
0010
0100
0000
,
0000
0000
0001
0000
1000
0100
1000
0000
0001
0100
0001
0000
0010
0100
1000
0000
,
0001
0100
0001
0000
1000
0100
1000
0000
0001
0010
0100
1000
0001
0100
0001
1000
,
0002
0003
0000
0000
1001
0000
0000
1000
,
0001
0100
0001
0000
0000
0000
0000
0000
1000
0100
1000
0001
0010
0100
1000
0000
,
0000
0000
0001
0000
0100
0001
0100
0000
0001
1000
0001
0000
1000
0100
0010
0000
,
0100
0010
0001
0000
0100
0001
0100
0000
0001
0100
0010
1000
0100
0010
0001
0100
,
0001
1000
0100
0010
0001
1000
0100
1000
0010
0100
0001
1000
0001
0100
0010
0100
,
0001
0010
0100
0010
0100
1000
0001
1000
0100
0010
0001
0010
0001
1000
0010
0100
,
0001
1000
0010
1000
0001
0100
0010
0100
0001
1000
0100
0010
0001
1000
0001
0100
,
0010
1000
0100
0010
0100
1000
0001
0100
0001
1000
0010
1000
0001
1000
0001
0010
,
0100
1000
0001
1000
0010
0100
0001
1000
0001
0010
0100
1000
0001
0100
0010
1000
,
0010
0100
0001
1000
0100
0010
0001
1000
0001
0010
0100
1000
0100
1000
0001
0100
,
0001
1000
0010
0100
0010
1000
0001
1000
0100
0010
0100
0010
0001
1000
0100
1000
,
0001
0100
0010
0100
0001
1000
0001
1000
0100
1000
0010
0100
0001
1000
0100
0010
,
0001
0100
0001
0000
0100
0001
0100
0000
0010
1000
0010
0000
1000
0001
1000
0000
,
0001
0100
0001
0000
0100
0010
1000
0000
0100
1000
0001
0000
0100
0001
0010
0000
,
0100
1000
0100
0000
1000
0010
0100
0000
0001
1000
0010
0000
0100
0001
0010
0000
,
0100
1000
0010
0000
0100
0001
1000
0000
0001
1000
0001
1000
0001
0100
0010
1000
,
0001
0010
0100
1000
0100
1000
0001
1000
0010
0100
0001
0100
0010
1000
0001
1000
,
0100
0010
0001
1000
0001
0010
0100
1000
0001
1000
0010
1000
0010
0100
0001
1000
,
0100
1000
0001
0100
0010
1000
0001
0010
0100
1000
0100
1000
0010
0100
0001
1000
,
0001
0100
0010
1000
0100
0010
0100
0010
0001
1000
0100
1000
0010
0100
0001
1000
,
0002
0000
0000
0000
0003
0000
0000
0000
1001
0000
1000
0001
0010
0100
1000
0001
,
1000
0000
0000
0000
0000
0000
0000
0000
0101
0000
0001
0010
0100
1000
0001
0100
,
0001
0000
0000
0000
0000
0000
0000
0000
1001
0000
1000
0100
1000
0010
0100
0001
,
1000
0000
0000
0000
0001
0000
0010
0000
0000
0000
0100
0000
2000
3000
0020
0030
,
0110
0000
0000
0000
0000
0000
0000
0000
0101
0000
0100
0001
1000
0100
0010
0001
,
1000
0000
0000
0000
0000
0000
0000
0000
1001
0000
0001
0010
0100
1000
0001
0100
,
0001
0000
0000
0000
0000
0000
0000
0000
1001
0000
1000
0100
1000
0001
0100
0001
,
1000
0000
0001
1000
0100
1000
0010
1000
,
0002
0103
0010
0100
0101
0001
1000
0100
,
0010
0000
0100
0000
1000
0000
0001
0000
0011
0000
0010
0000
0200
0300
1000
0000
,
0200
0310
0001
1000
1100
0100
1000
0010
,
0100
0000
0010
0000
1000
0000
0001
0000
0101
0000
0100
0000
0020
0030
0100
0000
,
0002
0013
0100
1000
1100
0100
1000
0010
,
0100
0010
1000
0100
0110
0010
0001
1000
,
0010
0100
0010
1000
1001
0001
0010
0100
,
1000
0001
1000
0001
0101
0100
0001
1000
,
0001
0100
0001
0100
0010
1000
0010
1000
0100
0010
0001
1000
0001
1000
0100
0010
,
0001
1000
0010
1000
0010
0100
0001
0100
0001
0010
0100
1000
0010
1000
0010
0100
,
0001
0010
0100
1000
0100
1000
0010
0100
0001
1000
0100
0010
0001
0100
0001
0100
,
0010
1000
0100
0010
0001
0010
0100
1000
0100
1000
0010
1000
0010
0100
0001
0100
,
0001
1000
0010
1000
0001
0100
0010
1000
0010
0100
0001
0100
0001
1000
0100
1000
,
0010
0100
0001
0010
0100
1000
0001
1000
0100
0010
0001
1000
0010
0100
0010
1000
,
0001
1000
0100
0010
0100
1000
0010
0100
0001
0010
0001
0100
0001
0010
0100
0010
,
0100
1000
0100
1000
0010
0100
0001
0100
0010
1000
0010
1000
0001
0100
0001
0010
,
0100
1000
0100
1000
0001
1000
0001
0100
0001
0100
0010
1000
0001
0010
0100
1000
,
0010
0100
0001
1000
0010
0100
0001
1000
0100
0010
0001
0010
0100
1000
0010
0100
,
0010
1000
0001
1000
0001
0010
0001
0010
0100
0010
0100
1000
0100
1000
0010
1000
,
0010
0100
0001
0010
0100
1000
0010
1000
0001
0100
0010
0100
0001
1000
0010
0100
,
0001
1000
0001
0000
0100
0000
0010
1000
0010
0000
1000
0100
0010
0000
0001
0000
,
0100
0010
0100
0000
0010
0000
1000
0000
0100
1000
0001
1000
0001
0010
0100
1000
,
0001
0100
0001
0000
0100
0000
0010
1000
0010
0000
1000
0100
0010
0000
0001
0000
,
0100
0010
0100
0000
0001
1000
0001
0000
1000
0100
0010
0001
1000
0100
1000
0001
,
0100
0001
0100
0010
0100
0001
1000
0001
1000
0010
0100
0010
0100
0001
1000
0001
,
1000
0001
0010
0100
1000
0100
1000
0010
0100
0010
0100
0001
0010
0100
1000
0001
,
0010
0100
1000
0010
1000
0010
0100
0001
0100
0010
1000
0001
0010
0100
1000
0100
,
1000
0010
0100
0000
0001
0000
1000
0000
0000
0000
0001
0000
1000
0000
0100
0000
,
1000
0000
0001
1000
0100
0010
0100
0010
0001
1000
0100
1000
0100
0010
0001
0010
,
0100
1000
0010
0100
0010
0100
0001
1000
0001
1000
0010
0100
0010
1000
0001
1000
,
0010
0100
0010
1000
0001
0010
0100
1000
0100
1000
0010
0100
0001
0010
0100
1000
,
0010
0100
0010
0000
0100
0000
0001
0000
0000
0000
1000
0000
0100
0000
1000
0000
,
0001
0010
0100
1000
0002
0000
0203
0000
0320
0000
0000
0000
2030
0000
0000
0000
,
3001
0000
0100
0001
1000
0001
1000
0000
0010
0000
0100
0001
0100
0000
0001
0000
,
0010
0000
0100
0010
0100
0000
1000
0000
0020
0000
0000
0000
0230
0000
0000
0000
,
0301
0000
1000
0000
1000
0000
1000
0000
0000
0000
0001
0100
0001
0010
0100
1000
,
0100
2000
3020
0230
0302
0000
0203
0000
,
0310
0000
1000
0001
1000
0000
0001
0000
0010
0000
0100
0010
0100
0000
1000
0000
,
0010
0000
0100
0010
0200
0000
0302
0000
2003
0000
0000
0000
3002
0000
0000
0000
,
0003
1000
1000
1000
0000
0001
0100
0100
,
0001
0100
0010
0000
1000
0010
1000
0000
0010
0100
0001
0000
0010
0100
1000
0000
,
0010
0100
0001
0000
1000
0001
1000
0000
0001
0010
0100
1000
0001
1000
0010
0100
,
0001
0100
0001
0000
0100
0010
1000
0000
0010
1000
0001
0000
0010
0100
1000
0000
,
0010
0100
0001
0000
1000
0001
1000
0000
0010
1000
0010
0100
0001
1000
0100
1000
,
0010
0100
0010
0100
0001
1000
0001
1000
0100
0010
0001
0100
0010
1000
0001
0010
,
0100
1000
0100
0010
0100
0010
0001
1000
0001
1000
0100
0010
0001
1000
0001
0010
,
0100
1000
0010
0100
0001
1000
0001
0100
0010
1000
0100
1000
0010
0100
0010
1000
,
0001
0010
0001
0010
0100
1000
0001
0010
0100
1000
0100
1000
0010
0100
0001
0100
,
0002
0000
0000
0000
0000
0000
0000
1003
,
0001
0100
0010
0000
0000
0000
0000
0000
1000
0010
1000
0000
0010
0100
0001
0000
,
2002
0000
0000
0000
0000
0000
3003
1000
,
0001
0100
0001
0100
0010
0000
0000
0000
1000
0000
0100
0010
0001
0000
0000
0000
,
0202
0000
0000
0000
0000
0000
0303
0100
,
0001
0010
0100
0000
0000
0000
0000
0000
0010
0100
1000
0000
0010
0100
0001
0000
,
2002
0000
0000
0000
0000
0000
3003
1000
,
0100
1000
0100
1000
0010
0000
0000
0000
0100
0001
0100
0001
1000
0000
0000
0000
,
0001
0100
0001
0100
0010
0000
0000
0000
1000
0001
1000
0001
0100
0000
0000
0000
,
0001
0100
0001
0100
0010
0000
0000
0000
0100
0001
0100
0001
1000
0000
0000
0000
,
0001
1000
0100
1000
0001
0100
0010
1000
0001
1000
0100
1000
0001
0000
0000
0000
,
1000
0100
1000
0100
0010
0000
0000
0000
0001
0100
0001
0100
0010
0000
0000
0000
,
0100
0001
1000
0001
0010
0100
1000
0001
1000
0010
0100
0001
1000
0000
0000
0000
,
0001
0100
0001
1000
0001
0000
0000
0000
1000
0100
1000
0010
1000
0000
0000
0000
,
0001
0100
0001
1000
0001
0010
0100
1000
0001
0100
0001
1000
0001
0000
0000
0000
,
1001
0000
0000
0000
0000
0000
0000
0000
1001
0000
1000
0100
0010
0001
1000
0001
,
0100
0000
0000
0000
0000
0000
0000
0000
0101
0000
0001
0100
0010
1000
0001
0100
,
0001
0000
0000
0000
0000
0000
0000
0000
1001
0000
1000
0100
0010
0001
1000
0001
,
0100
0000
0000
0000
0001
0000
0100
0000
0000
0000
0001
0000
0020
0030
0200
0300
,
1001
0000
0000
0000
0000
0000
0000
0000
1001
0000
1000
0100
1000
0001
0100
0010
,
1000
0000
0000
0000
0000
0000
0000
0000
0101
0000
0001
1000
0100
0010
0001
1000
,
0001
0000
0000
0000
0000
0000
0000
0000
1001
0000
1000
0100
0010
0100
1000
0010
,
0100
0001
1000
0001
0010
0100
1000
0010
0100
0001
1000
0100
1000
0010
0100
0001
,
0020
0130
1000
0001
0101
0100
0001
0010
,
0100
0000
1000
0000
0010
0000
0100
0000
0110
0000
0010
0000
2000
3000
0100
0000
,
2000
3010
0100
0001
1001
1000
0100
0010
,
0100
0000
1000
0000
0010
0000
0100
0000
0101
0000
0001
0000
0200
0300
0010
0000
,
2000
3001
0010
0100
1100
1000
0001
0100
,
0010
0100
0001
0010
0110
0100
1000
0010
,
0100
0010
1000
0001
0101
0100
0010
1000
,
0001
0100
0010
1000
1100
0100
1000
0001
,
0100
0001
0100
0001
1000
0100
0010
0001
0010
0100
1000
0010
0100
0001
1000
0001
,
1000
0010
1000
0010
0100
0001
0010
0100
1000
0100
1000
0010
0100
0010
0100
0001
,
1000
0001
1000
0001
0100
0001
0010
0001
0100
0010
0100
0010
1000
0001
1000
0100
,
1000
0010
0100
0001
0010
0100
1000
0010
0100
0010
1000
0001
0010
0100
1000
0100
,
1000
0010
0100
0001
0010
0100
1000
0100
0010
0001
1000
0001
0010
0100
1000
0001
,
1000
0010
0100
0010
1000
0001
0100
0001
1000
0100
0010
0001
0010
0100
1000
0100
,
1000
0010
0100
0001
1000
0010
0100
0010
0100
0001
0010
0100
1000
0010
0100
0001
,
1000
0100
0010
0001
0010
0100
1000
0100
1000
0010
0100
0001
1000
0010
1000
0001
,
2000
0000
0000
0000
3001
0010
0100
1000
,
0001
0100
0001
1000
0010
0000
0100
0000
,
0002
0000
1003
0100
0010
0100
1000
0010
,
0100
0001
1000
0001
0010
0100
2000
0000
,
3200
0000
0000
0000
1300
0010
0100
0010
,
1000
0001
0010
0100
1000
0000
0200
0000
,
2300
0000
0002
0000
,
0000
0000
0000
0000
,
0000
0000
3003
0000
1000
0001
0010
0100
,
1000
0010
0100
0001
1000
0000
0010
0100
,
0010
0000
0100
0001
1000
0100
0010
0100
,
1000
0010
0100
0001
0100
0010
1000
0001
,
0100
0000
0000
0000
0001
0010
0100
1000
,
0100
1000
0010
0100
0001
0100
0010
0000
,
0000
0000
1000
0100
1000
0010
0100
0001
,
0010
0100
1000
0010
0100
0000
0000
0000
,
0002
0013
0100
1000
0010
0100
0010
1000
,
1001
0000
0001
0000
0010
0000
0100
0000
1000
0000
0010
0000
0200
0300
0010
0000
,
2000
3001
0100
0001
0010
0100
1000
0001
,
1001
0000
1000
0000
0010
0000
0100
0000
0010
0000
0100
0000
0002
0003
0010
0000
,
0200
1300
0001
0100
0010
0100
0010
1000
,
1001
0001
0010
0100
1000
0001
0100
0010
,
1000
0100
1000
0010
0100
0001
0010
0100
,
1100
0000
1000
0000
0001
0000
0100
0000
0010
0000
1000
0000
0001
0010
0100
0010
,
0200
1300
0010
0100
0010
1000
0100
0010
,
0011
0000
0001
0000
1000
0000
0010
0000
0100
0000
0010
0000
2000
3000
0001
0000
,
0200
0310
0100
0001
0010
0100
1000
0001
,
1001
1000
0010
0100
0001
1000
0200
0310
,
0002
1003
0010
0100
0010
0100
0001
1000
,
1001
0001
0100
0010
0100
0001
0010
0100
,
1000
0001
0100
0010
0100
0001
1000
0100
,
1100
0000
1000
0000
0001
0000
0100
0000
0010
0000
1000
0000
0001
0010
0001
0010
,
0100
1000
0001
0001
0100
0100
0001
0001
,
0100
0000
0100
0000
0010
0000
0010
0000
1000
0000
1000
0000
0001
0000
1000
0001
,
1000
0001
0100
0100
0010
0010
1000
1000
,
0100
0000
0100
0000
0010
0000
0010
0000
0001
0000
0001
0000
1000
0000
0100
1000
,
0002
0000
0000
0000
,
0000
0000
0000
0000
,
0000
0000
0000
0003
;
