#TITLE:Ostinato;
#SUBTITLE:EXoduz Violation II;
#ARTIST:Cardboard Box;
#TITLETRANSLIT:;
#SUBTITLETRANSLIT:;
#ARTISTTRANSLIT:;
#CREDIT:;
#BANNER:../Banner.png;
#BACKGROUND:../Background.png;
#LYRICSPATH:;
#CDTITLE:;
#MUSIC:Ostinato.ogg;
#OFFSET:1.297;
#SAMPLESTART:96.147;
#SAMPLELENGTH:11.940;
#SELECTABLE:YES;
#DISPLAYBPM:188.000;
#BPMS:0.000=188.000,264.000=150.000,264.500=188.000,314.500=220.000,315.000=188.000,452.000=186.000,456.000=188.000,500.000=185.000,501.000=188.000,516.000=190.000,520.000=188.000,580.000=190.000,584.000=188.000,644.000=185.000,648.000=188.000;
#STOPS:;
#BGCHANGES:;
// cache tags:
#FIRSTBEAT:4.000;
#LASTBEAT:908.000;
#SONGFILENAME:Songs/EXoduz Violation II/Ostinato - [Ov3rHell3XoduZ]/sm.sm;
#HASMUSIC:1;
#HASBANNER:1;
#MUSICLENGTH:288.523;
// end cache tags

//---------------dance-single - ----------------
#NOTES:
     dance-single:
     :
     Beginner:
     13:
     1.000,1.000,0.118,0.367,0.896,2044.000,34.000,106.000,9.000,0.000:
0000
0000
0000
0000
,
1000
0000
0001
0000
0100
0001
0100
0001
0100
0000
0010
0000
1000
0100
1000
0100
,
1000
0000
0010
0000
0100
0001
0100
0001
0100
0000
0010
0000
1000
0100
1000
0100
,
1000
0000
0001
0000
1000
0010
1000
0010
1000
0000
0010
0000
0100
0001
0100
0001
,
0100
0000
0010
0000
1000
0100
1000
0100
1000
0000
0001
0000
1000
0100
1000
0100
,
1000
0000
0001
0000
0100
0010
0100
0010
0100
0000
0001
0000
1000
0010
1000
0010
,
1000
0000
0100
0000
0010
0001
0010
0001
0010
0000
0100
0000
1000
0001
1000
0001
,
1000
0000
0010
0000
0100
0001
0100
0001
0100
0000
0010
0000
1000
0100
1000
0100
,
1000
0000
0010
0000
0100
0001
0100
0001
0100
0000
0010
0000
1000
0001
1000
0001
,
1000
0010
0200
0000
0301
0010
0200
0000
,
1300
0001
0200
0000
0310
1000
0020
0000
,
0130
0001
0020
0000
0130
1000
0002
0000
,
1003
0010
2000
0000
3001
1000
0002
0000
,
0103
0001
0020
0000
0130
1000
0020
0000
,
0130
0001
2000
0000
3001
0100
0002
0000
,
1003
0100
0020
0000
0031
1000
0020
0000
,
0130
0001
0020
0000
0130
1000
0002
0000
,
1003
0100
0010
0001
1000
0010
0110
0100
,
0001
1000
0100
1000
0010
0100
0011
0010
,
0100
1000
0001
1000
0010
0100
0110
0010
,
1000
0100
0010
0001
1000
0010
1010
0100
,
0001
0010
0100
1000
0001
1000
1010
0010
,
0100
0001
0010
0100
1000
0001
0101
0100
,
0010
1000
0100
0010
0001
1000
0110
0100
,
0001
0010
0100
1000
0001
0100
1001
0010
,
0100
0001
1000
0100
1000
0010
0110
0100
,
0001
0010
0001
1000
0100
0010
0011
0001
,
1000
0100
1000
0010
0100
0001
1001
1000
,
0100
1000
0010
0100
0001
0010
0110
0100
,
1000
0010
0100
0001
1000
0100
1100
1000
,
0010
0100
0001
0010
0100
1000
1010
0100
,
0001
1000
0100
1000
0010
0100
0011
0100
,
1000
0010
0100
0001
1000
0100
1010
0100
,
0001
1000
0100
1000
0010
0100
0101
0001
,
0010
0100
0010
0001
1000
0010
0110
0100
,
0001
1000
0100
1000
0010
0100
0101
0010
,
1000
0100
0010
0001
0100
0010
0110
1000
,
0100
1000
0010
0100
0001
0010
0011
1000
,
0010
0100
0001
1000
0100
1000
0110
0100
,
0001
0010
0001
1000
0100
0010
1001
1000
,
0010
0100
0001
1000
0100
1000
1010
0100
,
0001
0010
0001
1000
0100
0010
0011
0001
,
1000
0100
1000
0010
0100
0001
0011
0010
,
0100
1000
0001
0100
0001
1000
1100
0100
,
0010
0001
1000
0010
0100
0001
0011
0010
,
0100
1000
0001
0100
0001
1000
1100
0100
,
0010
0001
1000
0010
0100
0001
0110
1000
,
0001
0100
0001
1000
0100
0010
0011
0001
,
0100
0010
1000
0100
0010
0001
0110
0010
,
2000
0000
0000
0000
3001
0100
0001
0100
0001
0000
0000
0000
1000
0010
1000
0010
,
1000
0000
0000
0000
0001
1000
0001
1000
0001
0000
0000
0000
1000
0100
1000
0100
,
1000
0000
0000
0000
0001
0100
0001
0100
0001
0000
0000
0000
1000
0100
1000
0100
,
1000
0000
0000
0000
0001
0010
0001
0010
0001
0000
0000
0000
1000
0001
1000
0001
,
2000
0000
3000
0000
0010
0100
0010
0100
0020
0000
0030
0000
1000
0100
1000
0100
,
2000
0000
3000
0000
0001
0010
0001
0010
0002
0000
0003
0000
1000
0010
1000
0010
,
2000
0000
3000
0000
0001
0100
0001
0100
0002
0000
0003
0000
1000
0100
1000
0100
,
2000
0000
3000
0000
0001
0100
0001
0100
0002
0000
2003
0000
3200
0000
0320
0000
,
0031
1000
0001
1000
0001
0100
0001
0010
0001
1000
0001
1000
0001
0100
0001
0010
,
0001
1000
0001
1000
0001
0100
0001
0010
0001
1000
0001
1000
0001
0100
0001
0010
,
0001
1000
0010
1000
0001
1000
0100
1000
0001
1000
0010
1000
0001
1000
0100
1000
,
0010
1000
0001
1000
0100
1000
0001
1000
0010
1000
0001
1000
0100
1000
0001
1000
,
0010
0100
0010
0100
0010
1000
0001
0100
0010
0100
0010
0100
0010
1000
0001
0100
,
0010
0100
0010
0100
0010
1000
0001
0100
0010
1000
0100
0010
0001
1000
0010
0100
,
0001
0010
0100
1000
0010
0100
0010
1000
0100
0010
0001
1000
0010
0100
0001
0010
,
0100
0010
0001
1000
0010
0100
0001
1000
0100
0010
0100
1000
0010
0100
0001
0010
,
0100
1000
0010
0100
0001
1000
0100
0010
0001
1000
0010
0100
0001
1000
0100
0010
,
0001
MMMM
2000
0000
0000
0000
3020
0000
0000
0000
0230
0000
0000
0000
0302
0000
,
0000
0023
0000
0230
0000
2300
0000
3002
,
0000
0203
0000
0302
0000
2003
0000
3200
,
0000
0320
0000
0032
0000
2003
0000
3020
,
0000
0230
0000
0302
0000
2003
0000
3200
,
0000
2300
0000
3020
0000
0230
0000
0302
,
0000
0023
0000
0230
0000
2300
0000
3002
,
0000
2003
0000
3200
0000
0320
0000
0032
,
0000
2003
0000
3020
0000
0230
0000
0302
,
0000
2003
0000
3200
0000
2300
0000
3020
,
0000
0230
0000
0302
0000
2003
0000
3200
,
0000
2300
0000
3020
0000
0230
0000
0302
,
0000
0023
0000
0230
0000
1300
0001
1000
,
0100
1000
0010
0100
0001
0010
0001
1000
,
0100
1000
0010
0100
0001
0010
0001
1000
,
0100
1000
0010
0100
0001
0010
0001
1000
,
0100
1000
0010
0100
0001
0010
0001
1000
,
0100
0010
0100
1000
0010
0100
0001
0010
,
0001
1000
0100
0010
0100
1000
0010
0100
,
0001
1000
0100
1000
0010
0100
0001
1000
,
0100
0010
0001
1000
0010
1000
0100
0010
,
0001
1000
0100
1000
0010
0100
0001
0010
,
0100
1000
0010
0100
0001
1000
0100
1000
,
0001
0000
1000
0000
0100
0000
1000
0000
0010
0000
0100
0000
0001
0010
0100
1000
,
0001
0100
0001
0100
0001
0010
0100
1000
0001
0100
0001
0100
0001
0010
0100
1000
,
0001
0100
0001
0100
0001
0010
0100
1000
0001
0100
0001
0100
0001
0010
0100
1000
,
0001
0100
0001
0100
0001
0010
0100
1000
0001
0100
0001
0100
0001
0010
0100
1000
,
0010
0100
0010
0100
0010
1000
0100
1000
0010
0100
0010
0100
0010
1000
0100
1000
,
0010
0100
0010
0100
0010
1000
0100
1000
0010
0100
0010
0100
0010
1000
0100
1000
,
0010
0100
0010
0100
0010
1000
0100
1000
0010
0100
0010
0100
0010
1000
0100
1000
,
0001
0100
0010
1000
0001
1000
0100
1000
0001
0100
0010
1000
0001
1000
0100
1000
,
0001
0100
0010
1000
0001
1000
0100
1000
0001
0100
0010
1000
0001
1000
0100
1000
,
0001
1000
0100
1000
0010
0100
0001
0010
,
0001
1000
0100
0010
0100
1000
0001
0100
,
0001
1000
0100
1000
0010
0100
0001
0010
,
0100
1000
0001
0100
0001
1000
0100
1000
,
0010
0100
0001
1000
0100
1000
0010
0100
,
0001
1000
0100
1000
0010
0100
0001
0010
,
0001
1000
0100
0010
0001
1000
0010
1000
,
0100
0010
0001
1000
0010
1000
0100
0010
,
0001
1000
0010
0100
0001
0010
0001
1000
,
0100
0010
0001
1000
0100
1000
0010
0100
,
0001
0010
0100
1000
0001
0100
0001
1000
,
0100
1000
0010
0100
0001
0010
0100
1000
,
0002
0000
0000
0000
0203
0000
0000
0000
0310
1000
0100
0010
0001
1000
0010
0100
,
0001
1000
0100
0010
0001
1000
0010
0100
0001
0010
0100
1000
0010
0100
0001
0010
,
0100
0010
0001
1000
0010
0100
0001
1000
0100
0010
0001
1000
0010
0100
0001
0010
,
0100
0100
1000
1000
0010
0010
0100
0100
,
0001
1000
0100
1000
0010
0100
0001
0010
0001
1000
0100
1000
0010
0100
0001
0010
,
0001
1000
0100
1000
0010
0100
0001
0010
0001
1000
0100
1000
0010
0100
0001
0010
,
0001
0100
0010
1000
0100
1000
0010
0100
,
0001
0010
0100
1000
0001
0100
0001
0010
,
0100
1000
0001
1000
0010
0100
0001
1000
0100
1000
0010
0100
0001
1000
0100
1000
,
0010
0100
0001
1000
0100
1000
0010
0100
0001
1000
0100
1000
0010
0100
0001
1000
,
0100
0010
0001
1000
0100
1000
0010
0100
,
0001
0010
0100
1000
0001
0100
0001
1000
,
0100
0010
0001
1000
0010
0100
0001
1000
,
0100
1000
0010
0100
0001
0010
0001
1000
,
0100
0010
0001
1000
0010
0100
0001
1000
,
0100
0010
0001
1000
0100
1000
0010
0100
,
0001
0000
0010
0000
0100
0000
1000
0000
0001
1000
0010
0100
0001
0010
0100
1000
,
0010
0100
0001
1000
0100
0010
0001
1000
0010
0100
0001
0010
0100
1000
0001
0100
,
0010
1000
0100
1000
0010
0100
0001
0010
0001
1000
0100
0010
0001
1000
0100
0010
,
0001
0000
0000
0001
0000
0000
1000
0000
0000
1000
0000
0000
0001
0000
0000
0001
0000
0000
1000
0001
1000
0001
1000
0001
,
1000
0001
0100
0001
0010
0100
1000
0010
,
0100
0001
1000
0100
1000
0010
0100
0001
,
1000
0100
0010
0001
1000
0010
0100
0001
,
1000
0100
1000
0001
0100
0001
1000
0010
,
0100
0001
0010
0100
1000
0001
0100
0001
,
1000
0100
0010
0001
1000
0010
1000
0001
,
0100
0010
1000
0100
1000
0001
0010
0100
,
1000
0001
0100
0001
1000
0100
0010
0001
,
1000
0001
0100
0001
0010
0001
0010
0001
1000
0001
0100
0001
0010
0001
0010
0001
,
1000
0001
0100
0001
0010
0001
0010
0001
1000
0001
0100
0001
0010
0001
0010
0001
,
1000
0001
0010
0001
1000
0100
1000
0100
1000
0001
0010
0001
1000
0100
1000
0100
,
1000
0001
0010
0001
1000
0100
1000
0100
1000
0001
0010
0001
1000
0100
1000
0100
,
1000
0001
0100
0001
1000
0001
0100
0001
1000
0001
0200
0310
1000
0100
0010
0001
,
1000
0010
0100
0001
1000
0100
1000
0010
0100
0001
0010
0100
1000
0001
0100
0001
,
0010
0100
1000
0010
0100
0001
1000
0100
1000
0010
0100
0001
0010
0100
1000
0001
,
0100
0001
1000
0100
0010
0001
1000
0010
0100
0001
0010
0100
1000
0001
0100
0010
,
2000
3200
2300
3020
,
2030
3200
2300
3020
,
0230
0302
0203
0320
,
0230
0302
0203
0320
,
1030
0100
1000
0010
0100
0001
0010
0001
,
1000
0100
1000
0010
0100
0001
0010
0001
,
1000
0100
0010
0100
1000
0010
0100
0010
,
1000
0100
0010
0100
1000
0010
0100
0010
,
1000
0001
0100
0001
0010
0001
1000
0100
,
1000
0010
1000
0001
1000
0100
1000
0001
,
0100
0001
0010
0001
0100
0001
1000
0001
,
0100
0001
0010
0001
1000
0100
0010
0001
,
1000
0100
0010
0001
1000
0010
0100
0001
1000
0100
0010
0001
1000
0010
0100
0001
,
1000
0100
0010
0001
1000
0010
0100
0001
1000
0100
0010
0001
1000
0010
0100
0001
,
1000
0100
0010
0001
1000
0010
0100
0001
1000
0100
0010
0001
1000
0010
0100
0001
,
1000
0100
0010
0001
1000
0010
0100
0001
1000
0100
0010
0001
1000
0010
0100
0001
,
1000
0100
1000
0010
0100
0001
0010
0001
,
1000
0100
1000
0010
0100
0001
0010
0001
,
1000
0100
1000
0010
0100
0001
0010
0001
,
1000
0100
0010
0001
1000
0010
0100
0001
,
1000
0100
0010
0001
1000
0010
0100
0001
,
1000
0100
1000
0001
0100
0001
1000
0010
,
1000
0001
0010
0001
1000
0100
0010
0001
,
1000
0010
0100
0001
0010
0100
0010
0001
,
1000
0100
1000
0100
1000
0100
1000
0100
,
1000
0010
0100
0010
0100
0010
0100
0010
,
0100
0001
0100
0001
0100
0001
0100
0001
,
1000
0001
1000
0001
1000
0001
1000
0001
,
0010
0100
1000
0100
0010
0001
0010
0100
,
1000
0100
0010
0001
0010
0100
1000
0100
,
0010
0001
0010
0100
1000
0100
0010
0001
,
0010
0100
1000
0100
0010
0001
0010
0100
,
1000
0001
0100
0001
1000
0010
1000
0001
0100
0001
1000
0010
1000
0001
0100
0001
,
1000
0010
1000
0001
0100
0001
1000
0010
1000
0001
0100
0001
1000
0010
1000
0001
,
0100
0001
1000
0010
1000
0001
0100
0001
1000
0010
1000
0001
0100
0001
1000
0010
,
1000
0001
0100
0001
1000
0010
1000
0001
0100
0001
1000
0010
1000
0001
0100
0001
,
1000
0100
0010
0001
1000
0010
0100
0001
0010
0100
1000
0010
0100
0001
1000
0100
,
0010
0100
1000
0010
0100
0001
0010
0100
0010
0001
1000
0010
0100
0001
1000
0100
,
0010
0001
1000
0010
0100
0001
1000
0100
0010
0100
1000
0010
0100
0001
0010
0100
,
0010
0001
1000
0010
0100
0001
1000
0100
0010
0100
1000
0001
0010
0100
0010
0001
,
1000
0010
0100
0001
1000
0100
1000
0010
,
0100
0001
0010
0100
0010
0001
1000
0100
,
1000
0001
0100
0001
1000
0010
0100
0001
,
0010
0100
1000
0010
0100
0001
1000
0100
,
1000
0010
0100
0001
0010
0100
1000
0001
,
0100
0001
1000
0100
0010
0001
1000
0010
,
0100
0001
1000
0100
1000
0010
0100
0001
,
0020
0030
0110
1100
,
1000
0001
0100
0001
1000
0010
1000
0010
1000
0001
0100
0001
1000
0010
1000
0010
,
1000
0001
0100
0001
1000
0010
1000
0010
1000
0001
0100
0001
1000
0010
1000
0010
,
1000
0100
0010
0001
1000
0100
1000
0100
1000
0100
0010
0001
1000
0100
1000
0100
,
1000
0100
0010
0001
1000
0100
1000
0100
1000
0100
0010
0001
1000
0100
1000
0100
,
1000
0010
0100
0001
0010
0100
0010
0001
1000
0010
0100
0001
0010
0100
0010
0001
,
1000
0010
0100
0001
0010
0100
0010
0001
1000
0010
0100
0001
0010
0100
0010
0001
,
1000
0010
0100
0001
0010
0100
0010
0001
1000
0010
0100
0001
0010
0100
0010
0001
,
1000
0100
1000
0001
0010
0100
1000
0010
0100
0001
1000
0100
1000
0010
0100
0001
,
0010
0001
1000
0100
0010
0100
1000
0010
1000
0010
0100
0001
0010
0100
1000
0010
,
0100
0001
0100
0001
0010
0100
1000
0010
0100
0001
1000
0001
1000
0100
1000
0010
,
0200
0000
0000
0000
,
0000
0000
0000
0000
,
0302
0000
0000
0000
,
0000
0000
0000
0000
,
0000
0000
0000
0000
,
0000
0000
0000
0000
,
0023
0000
0000
0000
,
0000
0000
0000
0000
,
0230
0000
0000
0000
,
0000
0000
0000
0000
,
2300
0000
0000
0000
,
0000
0000
0000
0000
,
0000
0000
0000
0000
,
0000
0000
0000
0000
,
3020
0000
0000
0000
,
0000
0000
0000
0000
,
0230
0000
0000
0000
,
0000
0000
0000
0000
,
0302
0000
0000
0000
,
0000
0000
0000
0000
,
0000
0000
0000
0000
,
0000
0000
0000
0000
,
M003
0000
0000
0000
,
MMMM
0000
0000
0000
;

//---------------dance-single - ----------------
#NOTES:
     dance-single:
     :
     Easy:
     14:
     1.000,1.000,0.007,0.194,1.000,2467.000,2.000,56.000,5.000,0.000:
0000
0000
0000
0000
,
1000
0000
0001
0000
0100
0001
0010
0100
1000
0000
0010
0000
0100
0001
1000
0100
,
0010
0000
0001
0000
1000
0100
1000
0010
0100
0000
0001
0000
0010
0100
1000
0100
,
0010
0000
0001
0000
1000
0100
1000
0010
0100
0000
0001
0000
1000
0100
0010
0001
,
1000
0000
0010
0000
0100
0001
1000
0100
1000
0000
0010
0000
0100
0001
0100
0001
,
0100
0000
0010
0000
1000
0100
0010
0001
1000
0000
0010
0000
0100
0001
0010
0001
,
0010
0000
0100
0000
1000
0001
1000
0100
1000
0000
0010
0000
0100
0001
1000
0100
,
1000
0000
0010
0000
0100
0001
0100
0001
0010
0000
0100
0000
1000
0001
1000
0100
,
1000
0000
0010
0000
0100
0001
1000
0100
0010
0000
0001
0000
1000
0010
0100
0001
,
1000
0010
0200
0000
0301
0010
0200
0000
,
1300
0001
0200
0000
0310
1000
0020
0000
,
0130
0001
0020
0000
0130
1000
0002
0000
,
1003
0010
2000
0000
3001
1000
0002
0000
,
0103
0001
0020
0000
0130
1000
0020
0000
,
0130
0001
2000
0000
3001
0100
0002
0000
,
1003
0100
0020
0000
0031
1000
0020
0000
,
0130
0001
0020
0000
0130
1000
0002
0000
,
1003
0100
1000
0100
1000
0010
0100
0010
0100
0001
0100
0001
0010
0001
0010
0001
,
0010
0100
1000
0010
0100
0001
1000
0001
1000
0100
1000
0010
0100
0010
0100
0001
,
0100
0001
0010
0100
0010
0001
0010
0001
1000
0010
1000
0010
1000
0100
0010
0001
,
1000
0100
1000
0100
1000
0010
0100
0001
0010
0100
0010
0001
0010
0001
0010
0100
,
0010
0001
0010
0100
0010
0001
1000
0010
1000
0010
0100
0001
1000
0100
1000
0100
,
1000
0010
0100
0001
0010
0100
0010
0001
0010
0001
1000
0010
1000
0001
0100
0001
,
0010
0100
0010
0001
1000
0100
0010
0100
1000
0010
0100
0001
1000
0100
1000
0100
,
1000
0010
0100
0010
1000
0100
1000
0100
1000
0010
0100
0010
0100
0010
0100
0010
,
1000
0000
0100
0000
0010
0001
0010
0001
1000
0000
0010
0000
0100
0001
1000
0100
,
1000
0000
0010
0000
0100
0001
0010
0001
0010
0000
0100
0000
1000
0001
1000
0001
,
1000
0000
0100
0000
0010
0001
1000
0010
1000
0000
0010
0000
0100
0001
0010
0100
,
1000
0000
0001
0000
0100
0001
1000
0100
1000
0000
0010
0000
0100
0001
0010
0001
,
1000
0000
0100
0000
0010
0001
1000
0001
0010
0000
0100
0000
1000
0010
0100
0001
,
1000
0000
0100
0000
1000
0010
0100
0010
1000
0000
0100
0000
0010
0001
0010
0001
,
1000
0000
0010
0000
0100
0001
0010
0001
0010
0000
0100
0000
1000
0001
1000
0100
,
1000
0000
0010
0000
0100
0001
1000
0100
1000
0000
0001
0000
1000
0010
0100
0001
,
0010
0000
0100
0000
1000
0100
1000
0010
0100
0000
0001
0000
1000
0100
1000
0100
,
1000
0000
0010
0000
0100
0001
0010
0100
0010
0000
0001
0000
1000
0100
1000
0100
,
1000
0000
0010
0000
0100
0001
0010
0100
1000
0000
0001
0000
0100
0001
1000
0100
,
1000
0000
0010
0000
0100
0001
0010
0001
0010
0000
0100
0000
1000
0001
1000
0100
,
1000
0000
0010
0000
0100
0001
1000
0100
1000
0000
0010
0000
0100
0001
0010
0001
,
0010
0000
0100
0000
0010
0001
1000
0001
0100
0000
0001
0000
1000
0100
1000
0010
,
0100
0000
0001
0000
1000
0100
1000
0100
1000
0000
0010
0000
0100
0001
0010
0100
,
1000
0000
0001
0000
1000
0100
1000
0010
0100
0000
0001
0000
0010
0100
0010
0001
,
1000
0000
0100
0000
1000
0010
0100
0001
1000
0000
0100
0000
1000
0010
1000
0010
,
0100
0000
0001
0000
0010
0100
0010
0001
1000
0000
0001
0000
0100
0001
1000
0100
,
1000
0000
0010
0000
0100
0001
0010
0001
1000
0000
0010
0000
1000
0010
1000
0001
,
0010
0000
0100
0000
1000
0001
0100
0001
1000
0000
0100
0000
1000
0010
0100
0001
,
0010
0000
0100
0000
1000
0100
1000
0001
0100
0000
0010
0000
1000
0100
0010
0100
,
1000
0000
0010
0000
0100
0001
0010
0100
0010
0000
0001
0000
1000
0100
1000
0010
,
0100
0000
0001
0000
1000
0100
1000
0010
0100
0000
0001
0000
1000
0100
1000
0100
,
1000
0000
0010
0000
0100
0001
0010
0100
1000
0000
0001
0000
0100
0001
1000
0010
,
2000
0000
0000
0000
3001
0100
0001
0100
0001
0000
0000
0000
1000
0010
1000
0010
,
1000
0000
0000
0000
0001
1000
0001
1000
0001
0000
0000
0000
1000
0100
1000
0100
,
1000
0000
0000
0000
0001
0100
0001
0100
0001
0000
0000
0000
1000
0100
1000
0100
,
1000
0000
0000
0000
0001
0010
0001
0010
0001
0000
0000
0000
1000
0001
1000
0001
,
2000
0000
3000
0000
0010
0100
0010
0100
0020
0000
0030
0000
1000
0100
1000
0100
,
2000
0000
3000
0000
0001
0010
0001
0010
0002
0000
0003
0000
1000
0010
1000
0010
,
2000
0000
3000
0000
0001
0100
0001
0100
0002
0000
0003
0000
1000
0100
1000
0100
,
2000
0000
3000
0000
0001
0100
0001
0100
0002
0000
2003
0000
3200
0000
0320
0000
,
0031
1000
0001
1000
0001
0100
0001
0010
0001
1000
0001
1000
0001
0100
0001
0010
,
0001
1000
0001
1000
0001
0100
0001
0010
0001
1000
0001
1000
0001
0100
0001
0010
,
0001
1000
0010
1000
0001
1000
0100
1000
0001
1000
0010
1000
0001
1000
0100
1000
,
0010
1000
0001
1000
0100
1000
0001
1000
0010
1000
0001
1000
0100
1000
0001
1000
,
0010
0100
0010
0100
0010
1000
0001
0100
0010
0100
0010
0100
0010
1000
0001
0100
,
0010
0100
0010
0100
0010
1000
0001
0100
0010
1000
0100
0010
0001
1000
0010
0100
,
0001
0010
0100
1000
0010
0100
0010
1000
0100
0010
0001
1000
0010
0100
0001
0010
,
0100
0010
0001
1000
0010
0100
0001
1000
0100
0010
0100
1000
0010
0100
0001
0010
,
0100
1000
0010
0100
0001
1000
0100
0010
0001
1000
0010
0100
0001
1000
0100
0010
,
0001
0000
1000
0000
0001
0000
1000
0000
0000
0010
0000
0000
0100
0000
0000
0001
0000
0000
1000
0000
0000
0100
0000
0000
1000
0000
0000
0010
0000
0000
0100
0000
0000
0001
0000
0000
0010
0000
0000
0001
0000
0000
1000
0000
0000
0100
0000
0000
,
1000
0010
0100
0001
0010
0001
1000
0100
0010
0001
1000
0010
0100
0001
0010
0001
,
1000
0100
0010
0001
1000
0010
1000
0001
0100
0001
0010
0100
1000
0010
0100
0001
,
1000
0100
1000
0010
0100
0001
0010
0100
1000
0001
0100
0001
1000
0100
0010
0001
,
1000
0010
0100
0001
1000
0100
1000
0100
0010
0001
1000
0010
1000
0010
0100
0001
,
0010
0001
0010
0100
1000
0010
0100
0001
1000
0100
1000
0100
0010
0001
1000
0010
,
0100
0001
0100
0001
0010
0100
1000
0001
1000
0001
1000
0010
0100
0001
0100
0001
,
0100
0010
1000
0100
1000
0100
0010
0001
1000
0100
1000
0010
0100
0001
0100
0001
,
0010
0100
1000
0001
1000
0100
1000
0100
0010
0001
1000
0010
1000
0010
0100
0001
,
0010
0100
1000
0001
0100
0001
1000
0100
0010
0001
1000
0010
1000
0010
0100
0001
,
0010
0100
1000
0001
0100
0001
0100
0001
0010
0100
0010
0001
0100
0001
0100
0001
,
0010
0100
1000
0010
0100
0001
1000
0100
1000
0100
0010
0001
1000
0010
1000
0010
,
0100
0001
0010
0100
1000
0001
0100
0001
1000
0010
1000
0000
0001
0000
1000
0000
,
0100
1000
0010
0100
0001
0010
0001
1000
,
0100
1000
0010
0100
0001
0010
0001
1000
,
0100
1000
0010
0100
0001
0010
0001
1000
,
0100
1000
0010
0100
0001
0010
0001
1000
,
0100
0010
0100
1000
0010
0100
0001
0010
,
0001
1000
0100
0010
0100
1000
0010
0100
,
0001
1000
0100
1000
0010
0100
0001
1000
,
0100
0010
0001
1000
0010
1000
0100
0010
,
0001
1000
0100
1000
0010
0100
0001
0010
,
0100
1000
0010
0100
0001
1000
0100
1000
,
0001
0000
1000
0000
0100
0000
1000
0000
0010
0000
0100
0000
0001
0010
0100
1000
,
0001
0100
0001
0100
0001
0010
0100
1000
0001
0100
0001
0100
0001
0010
0100
1000
,
0001
0100
0001
0100
0001
0010
0100
1000
0001
0100
0001
0100
0001
0010
0100
1000
,
0001
0100
0001
0100
0001
0010
0100
1000
0001
0100
0001
0100
0001
0010
0100
1000
,
0010
0100
0010
0100
0010
1000
0100
1000
0010
0100
0010
0100
0010
1000
0100
1000
,
0010
0100
0010
0100
0010
1000
0100
1000
0010
0100
0010
0100
0010
1000
0100
1000
,
0010
0100
0010
0100
0010
1000
0100
1000
0010
0100
0010
0100
0010
1000
0100
1000
,
0001
0100
0010
1000
0001
1000
0100
1000
0001
0100
0010
1000
0001
1000
0100
1000
,
0001
0100
0010
1000
0001
1000
0100
1000
0001
0100
0010
1000
0001
1000
0100
1000
,
0001
1000
0100
1000
0010
0100
0001
0010
,
0001
1000
0100
0010
0100
1000
0001
0100
,
0001
1000
0100
1000
0010
0100
0001
0010
,
0100
1000
0001
0100
0001
1000
0100
1000
,
0010
0000
0100
0001
1000
0100
1000
0010
0100
0001
0010
0100
0010
0001
1000
0010
,
0100
0001
1000
0100
1000
0010
0100
0001
0010
0100
1000
0010
0100
0001
1000
0100
,
1000
0100
0010
0001
1000
0010
0100
0001
0100
0001
0010
0100
1000
0010
0100
0001
,
1000
0001
1000
0100
1000
0001
0100
0001
1000
0100
1000
0001
0100
0001
0010
0001
,
1000
1000
0010
0100
0001
0010
0001
1000
,
0100
0010
0001
1000
0100
1000
0010
0100
,
0001
0010
0100
1000
0001
0100
0001
1000
,
0100
1000
0010
0100
0001
0010
0100
1000
,
0002
0000
0000
0000
0203
0000
0000
0000
0310
1000
0100
0010
0001
1000
0010
0100
,
0001
1000
0100
0010
0001
1000
0010
0100
0001
0010
0100
1000
0010
0100
0001
0010
,
0100
0010
0001
1000
0010
0100
0001
1000
0100
0010
0001
1000
0010
0100
0001
0010
,
0100
0100
1000
1000
0010
0010
0100
0100
,
0001
1000
0100
1000
0010
0100
0001
0010
0001
1000
0100
1000
0010
0100
0001
0010
,
0001
1000
0100
1000
0010
0100
0001
0010
0001
1000
0100
1000
0010
0100
0001
0010
,
0001
0100
0010
1000
0100
1000
0010
0100
,
0001
0010
0100
1000
0001
0100
0001
0010
,
0100
1000
0001
1000
0010
0100
0001
1000
0100
1000
0010
0100
0001
1000
0100
1000
,
0010
0100
0001
1000
0100
1000
0010
0100
0001
1000
0100
1000
0010
0100
0001
1000
,
0100
0010
0001
1000
0100
1000
0010
0100
,
0001
0010
0100
1000
0001
0100
0001
1000
,
0100
0010
0001
1000
0010
0100
0001
1000
,
0100
1000
0010
0100
0001
0010
0001
1000
,
0100
0010
0001
1000
0010
0100
0001
1000
,
0100
0010
0001
1000
0100
1000
0010
0100
,
0001
0000
0010
0000
0100
0000
1000
0000
0001
1000
0010
0100
0001
0010
0100
1000
,
0010
0100
0001
1000
0100
0010
0001
1000
0010
0100
0001
0010
0100
1000
0001
0100
,
0010
1000
0100
1000
0010
0100
0001
0010
0001
1000
0100
0010
0001
1000
0100
0010
,
0001
0000
0000
0001
0000
0000
1000
0000
0000
1000
0000
0000
0001
0000
0000
0001
0000
0000
1000
0001
1000
0001
1000
0001
,
1000
0100
0010
0001
1000
0010
1000
0010
1000
0100
0010
0001
1000
0010
1000
0010
,
1000
0100
0010
0001
1000
0010
1000
0010
1000
0100
0010
0001
1000
0010
1000
0010
,
1000
0001
0100
0010
1000
0001
0100
0001
0100
0010
1000
0001
0100
0001
0100
0010
,
1000
0001
0100
0001
0100
0010
1000
0001
0100
0010
1000
0001
0100
0010
1000
0100
,
0010
0001
0010
0100
1000
0001
0100
0001
,
1000
0100
0010
0001
1000
0010
1000
0001
,
0100
0010
1000
0100
1000
0001
0010
0100
,
1000
0001
0100
0001
1000
0100
0010
0001
,
1000
0001
0100
0001
0010
0001
0010
0001
1000
0001
0100
0001
0010
0001
0010
0001
,
1000
0001
0100
0001
0010
0001
0010
0001
1000
0001
0100
0001
0010
0001
0010
0001
,
1000
0001
0010
0001
1000
0100
1000
0100
1000
0001
0010
0001
1000
0100
1000
0100
,
1000
0001
0010
0001
1000
0100
1000
0100
1000
0001
0010
0001
1000
0100
1000
0100
,
1000
0001
0100
0001
1000
0001
0100
0001
1000
0001
0200
0310
1000
0100
0010
0001
,
1000
0010
0100
0001
1000
0100
1000
0010
0100
0001
0010
0100
1000
0001
0100
0001
,
0010
0100
1000
0010
0100
0001
1000
0100
1000
0010
0100
0001
0010
0100
1000
0001
,
0100
0001
1000
0100
0010
0001
1000
0010
0100
0001
0010
0100
1000
0001
0100
0010
,
2000
3200
2300
3020
,
2030
3200
2300
3020
,
0230
0302
0203
0320
,
0230
0302
0203
0320
,
1030
0100
1000
0010
0100
0001
0010
0001
,
1000
0100
1000
0010
0100
0001
0010
0001
,
1000
0100
0010
0100
1000
0010
0100
0010
,
1000
0100
0010
0001
1000
0010
0100
0001
1000
0100
0010
0001
1000
0010
0100
0001
,
1000
0001
0100
0001
0010
0001
1000
0100
,
1000
0010
1000
0001
1000
0100
1000
0001
,
0100
0001
0010
0001
0100
0001
1000
0001
,
0100
0001
0010
0001
1000
0100
0010
0001
,
1000
0100
0010
0001
1000
0010
0100
0001
1000
0100
0010
0001
1000
0010
0100
0001
,
1000
0100
0010
0001
1000
0010
0100
0001
1000
0100
0010
0001
1000
0010
0100
0001
,
1000
0100
0010
0001
1000
0010
0100
0001
1000
0100
0010
0001
1000
0010
0100
0001
,
1000
0100
0010
0001
1000
0010
0100
0001
1000
0100
0010
0001
1000
0010
0100
0001
,
1000
0100
1000
0010
0100
0001
0010
0001
,
1000
0100
1000
0010
0100
0001
0010
0001
,
1000
0100
1000
0010
0100
0001
0010
0001
,
1000
0100
0010
0001
1000
0010
0100
0001
,
1000
0100
0010
0001
1000
0010
0100
0001
,
1000
0100
1000
0001
0100
0001
1000
0010
,
1000
0001
0010
0001
1000
0100
0010
0001
,
1000
0010
0100
0001
0010
0100
0010
0001
,
1000
0100
1000
0100
1000
0100
1000
0100
,
1000
0010
0100
0010
0100
0010
0100
0010
,
0100
0001
0100
0001
0100
0001
0100
0001
,
1000
0001
1000
0001
1000
0001
1000
0001
,
0010
0100
1000
0100
0010
0001
0010
0100
,
1000
0100
0010
0001
0010
0100
1000
0100
,
0010
0001
0010
0100
1000
0100
0010
0001
,
0010
0100
1000
0100
0010
0001
0010
0100
,
1000
0001
0100
0001
1000
0010
1000
0001
0100
0001
1000
0010
1000
0001
0100
0001
,
1000
0010
1000
0001
0100
0001
1000
0010
1000
0001
0100
0001
1000
0010
1000
0001
,
0100
0001
1000
0010
1000
0001
0100
0001
1000
0010
1000
0001
0100
0001
1000
0010
,
1000
0001
0100
0001
1000
0010
1000
0001
0100
0001
1000
0010
1000
0001
0100
0001
,
1000
0100
0010
0001
1000
0010
0100
0001
0010
0100
1000
0010
0100
0001
1000
0100
,
0010
0100
1000
0010
0100
0001
0010
0100
0010
0001
1000
0010
0100
0001
1000
0100
,
0010
0001
1000
0010
0100
0001
1000
0100
0010
0100
1000
0010
0100
0001
0010
0100
,
0010
0001
1000
0010
0100
0001
1000
0100
0010
0100
1000
0001
0010
0100
0010
0001
,
1000
0100
0010
0001
1000
0010
1000
0010
1000
0100
0010
0001
1000
0010
1000
0010
,
1000
0100
0010
0001
1000
0010
1000
0010
1000
0100
0010
0001
1000
0010
1000
0010
,
1000
0100
0010
0001
1000
0010
1000
0010
1000
0100
0010
0001
1000
0010
1000
0010
,
1000
0100
0010
0001
1000
0010
1000
0010
1000
0100
0010
0001
1000
0010
1000
0010
,
1000
0100
0010
0001
1000
0010
1000
0010
1000
0100
0010
0001
1000
0010
1000
0010
,
0100
0001
1000
0100
0010
0001
1000
0010
,
0100
0001
1000
0100
1000
0010
0100
0001
,
0020
0030
0110
1100
,
1000
0001
0100
0001
1000
0010
1000
0010
1000
0001
0100
0001
1000
0010
1000
0010
,
1000
0001
0100
0001
1000
0010
1000
0010
1000
0001
0100
0001
1000
0010
1000
0010
,
1000
0100
0010
0001
1000
0100
1000
0100
1000
0100
0010
0001
1000
0100
1000
0100
,
1000
0100
0010
0001
1000
0100
1000
0100
1000
0100
0010
0001
1000
0100
1000
0100
,
1000
0010
0100
0001
0010
0100
0010
0001
1000
0010
0100
0001
0010
0100
0010
0001
,
1000
0010
0100
0001
0010
0100
0010
0001
1000
0010
0100
0001
0010
0100
0010
0001
,
1000
0010
0100
0001
0010
0100
0010
0001
1000
0010
0100
0001
0010
0100
0010
0001
,
1000
0100
1000
0001
0010
0100
1000
0010
0100
0001
1000
0100
1000
0010
0100
0001
,
0010
0001
1000
0100
0010
0100
1000
0010
1000
0010
0100
0001
0010
0100
1000
0010
,
0100
0001
0100
0001
0010
0100
1000
0010
0100
0001
1000
0001
1000
0100
1000
0010
,
0200
0000
0000
0000
,
0000
0000
0000
0000
,
0302
0000
0000
0000
,
0000
0000
0000
0000
,
0000
0000
0000
0000
,
0000
0000
0000
0000
,
0023
0000
0000
0000
,
0000
0000
0000
0000
,
0230
0000
0000
0000
,
0000
0000
0000
0000
,
2300
0000
0000
0000
,
0000
0000
0000
0000
,
0000
0000
0000
0000
,
0000
0000
0000
0000
,
3020
0000
0000
0000
,
0000
0000
0000
0000
,
0230
0000
0000
0000
,
0000
0000
0000
0000
,
0302
0000
0000
0000
,
0000
0000
0000
0000
,
0000
0000
0000
0000
,
0000
0000
0000
0000
,
M003
0000
0000
0000
,
MMMM
0000
0000
0000
;

//---------------dance-single - ----------------
#NOTES:
     dance-single:
     :
     Medium:
     15:
     1.000,1.000,0.021,0.080,1.000,2760.000,6.000,23.000,5.000,0.000:

0000
0000
0000
0000
,
1000
0000
0001
0000
0100
0001
0010
0100
1000
0000
0010
0000
0100
0001
1000
0100
,
0010
0000
0001
0000
1000
0100
1000
0010
0100
0000
0001
0000
0010
0100
1000
0100
,
0010
0000
0001
0000
1000
0100
1000
0010
0100
0000
0001
0000
1000
0100
0010
0001
,
1000
0000
0010
0000
0100
0001
1000
0100
1000
0000
0010
0000
0100
0001
0100
0001
,
0100
0000
0010
0000
1000
0100
0010
0001
1000
0000
0010
0000
0100
0001
0010
0001
,
0010
0000
0100
0000
1000
0001
1000
0100
1000
0000
0010
0000
0100
0001
1000
0100
,
1000
0000
0010
0000
0100
0001
0100
0001
0010
0000
0100
0000
1000
0001
1000
0100
,
1000
0000
0010
0000
0100
0001
1000
0100
0010
0000
0001
0000
1000
0010
0100
0001
,
1000
0000
0010
0000
0100
0001
0010
0100
1000
0000
0001
0000
1000
0010
1000
0100
,
0010
0000
0001
0000
1000
0100
0010
0001
1000
0000
0010
0000
0100
0001
0010
0100
,
1000
0000
0001
0000
0100
0001
0010
0100
1000
0000
0010
0000
0100
0001
1000
0100
,
1000
0000
0010
0000
0100
0010
1000
0100
0010
0000
0001
0000
1000
0100
1000
0010
,
0100
0000
0001
0000
0010
0100
1000
0100
0010
0000
0001
0000
1000
0100
1000
0010
,
0100
0000
0001
0000
1000
0100
1000
0001
0100
0000
0010
0000
1000
0100
1000
0001
,
0100
0000
0010
0000
1000
0100
0010
0100
1000
0000
0010
0000
0100
0001
1000
0100
,
1000
0000
0010
0000
0100
0001
0010
0100
1000
0000
0001
0000
0100
0001
1000
0010
,
1000
0100
1000
0010
0100
0001
0010
0100
1000
0001
0100
0001
1000
0100
0010
0001
,
1000
0010
0100
0001
1000
0100
1000
0010
0100
0001
0010
0100
0010
0001
1000
0010
,
0100
0001
1000
0100
1000
0010
0100
0001
0010
0100
1000
0001
0100
0001
1000
0100
,
0010
0100
1000
0010
0100
0001
0010
0100
0010
0001
1000
0100
1000
0010
0100
0001
,
1000
0100
1000
0010
0100
0001
0010
0100
1000
0001
0100
0001
1000
0100
0010
0001
,
1000
0010
1000
0001
0100
0001
1000
0100
0010
0001
1000
0010
0100
0001
0010
0001
,
1000
0100
0010
0001
1000
0010
0100
0001
1000
0100
1000
0010
0100
0001
0010
0100
,
1000
0001
0100
0001
1000
0100
0010
0100
1000
0010
0100
0001
1000
0001
0010
0100
,
1000
0000
0100
0000
0010
0001
0010
0001
1000
0000
0010
0000
0100
0001
1000
0100
,
1000
0000
0010
0000
0100
0001
0010
0001
0010
0000
0100
0000
1000
0001
1000
0001
,
1000
0000
0100
0000
0010
0001
1000
0010
1000
0000
0010
0000
0100
0001
0010
0100
,
1000
0000
0001
0000
0100
0001
1000
0100
1000
0000
0010
0000
0100
0001
0010
0001
,
1000
0000
0100
0000
0010
0001
1000
0001
0010
0000
0100
0000
1000
0010
0100
0001
,
1000
0000
0100
0000
1000
0010
0100
0010
1000
0000
0100
0000
0010
0001
0010
0001
,
1000
0000
0010
0000
0100
0001
0010
0001
0010
0000
0100
0000
1000
0001
1000
0100
,
1000
0000
0010
0000
0100
0001
1000
0100
1000
0000
0001
0000
1000
0010
0100
0001
,
0010
0000
0100
0000
1000
0100
1000
0010
0100
0000
0001
0000
1000
0100
1000
0100
,
1000
0000
0010
0000
0100
0001
0010
0100
0010
0000
0001
0000
1000
0100
1000
0100
,
1000
0000
0010
0000
0100
0001
0010
0100
1000
0000
0001
0000
0100
0001
1000
0100
,
1000
0000
0010
0000
0100
0001
0010
0001
0010
0000
0100
0000
1000
0001
1000
0100
,
1000
0000
0010
0000
0100
0001
1000
0100
1000
0000
0010
0000
0100
0001
0010
0001
,
0010
0000
0100
0000
0010
0001
1000
0001
0100
0000
0001
0000
1000
0100
1000
0010
,
0100
0000
0001
0000
1000
0100
1000
0100
1000
0000
0010
0000
0100
0001
0010
0100
,
1000
0000
0001
0000
1000
0100
1000
0010
0100
0000
0001
0000
0010
0100
0010
0001
,
1000
0000
0100
0000
1000
0010
0100
0001
1000
0000
0100
0000
1000
0010
1000
0010
,
0100
0000
0001
0000
0010
0100
0010
0001
1000
0000
0001
0000
0100
0001
1000
0100
,
1000
0000
0010
0000
0100
0001
0010
0001
1000
0000
0010
0000
1000
0010
1000
0001
,
0010
0000
0100
0000
1000
0001
0100
0001
1000
0000
0100
0000
1000
0010
0100
0001
,
0010
0000
0100
0000
1000
0100
1000
0001
0100
0000
0010
0000
1000
0100
0010
0100
,
1000
0000
0010
0000
0100
0001
0010
0100
0010
0000
0001
0000
1000
0100
1000
0010
,
0100
0000
0001
0000
1000
0100
1000
0010
0100
0000
0001
0000
1000
0100
1000
0100
,
1000
0000
0010
0000
0100
0001
0010
0100
1000
0000
0001
0000
0100
0001
1000
0010
,
1000
0000
0010
0000
0100
0001
1000
0100
1000
0000
0010
0000
0100
0001
0010
0001
,
0010
0000
0100
0000
1000
0001
1000
0100
1000
0000
0010
0000
0100
0001
0010
0100
,
1000
0000
0001
0000
0100
0001
1000
0100
1000
0000
0010
0000
0100
0001
0010
0100
,
0010
0000
0001
0000
1000
0100
1000
0010
0100
0000
0001
0000
1000
0100
1000
0010
,
0200
0000
0301
0000
0010
0100
1000
0100
0020
0000
0031
0000
1000
0010
0100
0010
,
2000
0000
3100
0000
0010
0001
1000
0010
0200
0000
0301
0000
0010
0100
1000
0001
,
0200
0000
0310
0000
1000
0100
0010
0001
2000
0000
3010
0000
0100
0001
0010
0100
,
2000
0000
3001
0000
0010
0100
1000
0001
0200
0000
0320
0000
2030
0000
3200
0000
,
0310
0001
1000
0100
1000
0010
0100
0001
0010
0100
1000
0001
0010
0001
1000
0100
,
1000
0010
0100
0001
0010
0100
1000
0001
0100
0001
1000
0100
0010
0001
1000
0010
,
0100
0001
1000
0100
1000
0010
0100
0001
0010
0100
0010
0001
1000
0100
1000
0010
,
0100
0001
1000
0100
1000
0010
0100
0001
0010
0100
1000
0010
0100
0001
1000
0100
,
1000
0010
0100
0001
0010
0100
1000
0001
0100
0001
1000
0100
0010
0001
1000
0010
,
0100
0001
1000
0100
1000
0010
0100
0001
0010
0100
1000
0010
0100
0001
1000
0100
,
1000
0010
0100
0001
0010
0001
1000
0100
0010
0001
1000
0010
0100
0001
1000
0100
,
1000
0010
0100
0001
0010
0100
1000
0001
0100
0001
1000
0100
0010
0001
1000
0010
,
0100
0001
0010
0001
1000
0100
0010
0001
1000
0010
0100
0001
0010
0100
1000
0001
,
1000
0000
0100
0000
0010
0000
0001
0000
0000
1000
0000
0000
0010
0000
0000
0100
0000
0000
0001
0000
0000
1000
0000
0000
0100
0000
0000
1000
0000
0000
0010
0000
0000
0100
0000
0000
0001
0000
0000
0010
0000
0000
0100
0000
0000
1000
0000
0000
,
0001
1000
0010
1000
0100
0010
0001
1000
0010
0100
0001
0010
0100
1000
0001
0100
,
0001
1000
0100
0010
0001
1000
0010
0100
0001
0010
0001
1000
0100
0010
0001
1000
,
0010
0100
0001
0010
0001
1000
0100
0010
0001
1000
0010
0100
0001
1000
0100
1000
,
0010
0100
0001
0010
0100
1000
0001
0100
0001
1000
0100
0010
0001
1000
0010
0100
,
0001
1000
0100
1000
0010
0100
0001
0010
0100
1000
0001
0100
0001
1000
0100
0010
,
0001
1000
0010
0100
0001
0010
0001
1000
0100
0010
0001
1000
0010
0100
0001
0010
,
0001
1000
0100
0010
0001
1000
0010
0100
0001
1000
0100
1000
0010
0100
0001
0010
,
0100
1000
0010
0100
0001
1000
0100
1000
0001
0100
0001
1000
0100
0010
0001
1000
,
0010
0100
0001
0010
0100
0010
0001
1000
0100
1000
0010
0100
0001
0010
0100
0010
,
0001
1000
0100
1000
0010
0100
0001
0010
0100
1000
0001
0100
0001
1000
0100
0010
,
0001
1000
0010
0100
0001
0010
0001
1000
0100
0010
0001
1000
0010
0100
0001
0010
,
0001
1000
0100
0010
0001
0100
0001
0010
0100
1000
0010
0100
0001
1000
0100
1000
,
0010
0100
0001
1000
0100
1000
0010
0100
0001
0010
0100
0010
0001
0100
0001
0010
,
0100
0010
0001
1000
0100
0010
0100
1000
0010
0100
0010
1000
0100
0010
0100
1000
,
0010
0100
0001
0010
0100
1000
0001
0100
0001
1000
0100
0010
0001
1000
0010
0100
,
0001
0000
1000
0000
0001
0100
0001
1000
0100
0000
0010
0000
0001
1000
0010
1000
,
0100
0000
0010
0000
0001
1000
0010
0100
0001
0000
0010
0000
0100
1000
0100
1000
,
0010
0000
0100
0000
0001
1000
0100
1000
0010
0000
0100
0000
0001
0010
0001
1000
,
0100
0000
0010
0000
0001
1000
0010
0100
0001
0000
0010
0000
0001
0100
0001
0010
,
0100
0000
1000
0000
0010
0100
0001
1000
0100
0000
0010
0000
0001
1000
0010
1000
,
0001
0000
0010
0000
0100
1000
0010
0100
0001
0000
1000
0000
0100
1000
0010
0100
,
0001
0000
0010
0000
0100
1000
0100
1000
0010
0000
0100
0000
0001
1000
0100
1000
,
0010
0000
0100
0000
0001
0010
0100
1000
0001
0000
0100
0000
0001
0010
0100
1000
,
0001
0100
0001
0100
0001
0010
0100
1000
0001
0100
0001
0100
0001
0010
0100
1000
,
0001
0100
0001
0100
0001
0010
0100
1000
0001
0100
0001
0100
0001
0010
0100
1000
,
0001
0100
0001
0100
0001
0010
0100
1000
0001
0100
0001
0100
0001
0010
0100
1000
,
0010
0100
0010
0100
0010
1000
0100
1000
0010
0100
0010
0100
0010
1000
0100
1000
,
0010
0100
0010
0100
0010
1000
0100
1000
0010
0100
0010
0100
0010
1000
0100
1000
,
0010
0100
0010
0100
0010
1000
0100
1000
0010
0100
0010
0100
0010
1000
0100
1000
,
0001
0100
0010
1000
0001
1000
0100
1000
0001
0100
0010
1000
0001
1000
0100
1000
,
0001
0100
0010
1000
0001
1000
0100
1000
0001
0100
0010
1000
0001
1000
0100
1000
,
0001
0000
1000
0000
0100
0010
0001
1000
0010
0000
0100
0000
0001
1000
0100
1000
,
0010
0000
0100
0000
0001
0100
0001
0010
0100
0000
1000
0000
0001
0100
0001
1000
,
0100
0000
0010
0000
0001
1000
0010
0100
0001
0000
0010
0000
0100
1000
0100
1000
,
0010
0000
0100
0000
0001
1000
0100
1000
0100
0000
0010
0000
0001
1000
0010
0100
,
0001
1000
0100
0010
0001
1000
0100
1000
0010
0100
0001
0010
0100
1000
0001
0100
,
0001
1000
0100
0010
0001
1000
0010
1000
0100
0010
0001
1000
0010
0100
0001
0010
,
0100
0010
0001
1000
0100
1000
0001
0100
0001
1000
0100
1000
0001
0100
0001
1000
,
0100
0010
0001
1000
0010
1000
0001
0100
0001
0010
0100
1000
0010
0100
0001
1000
,
0010
0000
0100
0000
0001
0010
0001
0010
0100
0000
1000
0000
0001
0100
0001
1000
,
0100
0000
0010
0000
0001
1000
0010
0100
0001
0000
0010
0000
0100
1000
0100
1000
,
0010
0000
0100
0000
0001
1000
0100
1000
0001
0000
0100
0000
0001
0010
0100
0010
,
0001
0000
1000
0000
0010
0100
0001
1000
0100
0000
0010
0000
0001
1000
0100
1000
,
0002
0000
0000
0000
0203
0000
0000
0000
0310
1000
0100
0010
0001
1000
0010
0100
,
0001
1000
0100
0010
0001
1000
0010
0100
0001
0010
0100
1000
0010
0100
0001
0010
,
0100
0010
0001
1000
0010
0100
0001
1000
0100
0010
0001
1000
0010
0100
0001
0010
,
0100
1100
1000
1010
0010
0110
0100
0101
,
0001
1000
0100
1000
0010
0100
0001
0010
0001
1000
0100
1000
0010
0100
0001
0010
,
0001
1000
0100
1000
0010
0100
0001
0010
0001
1000
0100
1000
0010
0100
0001
0010
,
0001
1000
0100
1000
0010
0100
0001
0010
0100
1000
0001
0100
0001
1000
0100
0010
,
0001
1000
0010
0100
0001
0010
0001
1000
0100
0010
0001
1000
0010
0100
0001
1000
,
0010
0100
0001
1000
0010
0100
0001
1000
0100
1000
0010
0100
0001
1000
0100
1000
,
0010
0100
0001
1000
0100
1000
0010
0100
0001
1000
0100
1000
0010
0100
0001
1000
,
0100
0010
0001
1000
0100
1000
0010
0100
,
0001
0010
0100
1000
0001
0100
0001
1000
,
0100
0010
0001
1000
0010
0100
0001
1000
,
0100
1000
0010
0100
0001
0010
0001
1000
,
0100
0010
0001
1000
0010
0100
0001
1000
,
0100
0010
0001
1000
0100
1000
0010
0100
,
0001
0000
0010
0000
0100
0000
1000
0000
0001
1000
0010
0100
0001
0010
0100
1000
,
0010
0100
0001
1000
0100
0010
0001
1000
0010
0100
0001
0010
0100
1000
0001
0100
,
0010
1000
0100
1000
0010
0100
0001
0010
0001
1000
0100
0010
0001
1000
0100
0010
,
0001
0000
0000
0001
0000
0000
1000
0000
0000
1000
0000
0000
0001
0000
0000
0001
0000
0000
1000
0001
1000
0001
1000
0001
,
1000
0100
0010
0001
1000
0010
1000
0010
1000
0100
0010
0001
1000
0010
1000
0010
,
1000
0100
0010
0001
1000
0010
1000
0010
1000
0100
0010
0001
1000
0010
1000
0010
,
1000
0001
0100
0010
1000
0001
0100
0001
0100
0010
1000
0001
0100
0001
0100
0010
,
1000
0001
0100
0001
0100
0010
1000
0001
0100
0010
1000
0001
0100
0010
1000
0100
,
0010
0001
0010
0100
1000
0001
0100
0001
,
1000
0100
0010
0001
1000
0010
1000
0001
,
0100
0010
1000
0100
1000
0001
0010
0100
,
1000
0001
0100
0001
1000
0100
0010
0001
,
1000
0001
0100
0001
0010
0001
0010
0001
1000
0001
0100
0001
0010
0001
0010
0001
,
1000
0001
0100
0001
0010
0001
0010
0001
1000
0001
0100
0001
0010
0001
0010
0001
,
1000
0001
0010
0001
1000
0100
1000
0100
1000
0001
0010
0001
1000
0100
1000
0100
,
1000
0001
0010
0001
1000
0100
1000
0100
1000
0001
0010
0001
1000
0100
1000
0100
,
1000
0001
0100
0001
1000
0001
0100
0001
1000
0001
0200
0310
1000
0100
0010
0001
,
1000
0010
0100
0001
1000
0100
1000
0010
0100
0001
0010
0100
1000
0001
0100
0001
,
0010
0100
1000
0010
0100
0001
1000
0100
1000
0010
0100
0001
0010
0100
1000
0001
,
0100
0001
1000
0100
0010
0001
1000
0010
0100
0001
0010
0100
1000
0001
0100
0010
,
1000
0000
0100
0000
0010
0001
1000
0001
1000
0000
0010
0000
0100
0001
0010
0100
,
1000
0000
0001
0000
1000
0100
0010
0001
1000
0000
0010
0000
0100
0001
0100
0001
,
0010
0000
0100
0000
1000
0001
1000
0100
1000
0000
0010
0000
0100
0001
0010
0100
,
1000
0000
0001
0000
1000
0100
1000
0010
0100
0000
0001
0000
0010
0100
1000
0100
,
0010
0000
0001
0000
1000
0100
1000
0010
0100
0000
0001
0000
1000
0100
1000
0001
,
1000
0000
0010
0000
0100
0001
0010
0001
0010
0000
0100
0000
1000
0001
1000
0100
,
0010
0000
0001
0000
1000
0010
1000
0100
0010
0000
0001
0000
0100
0001
0010
0100
,
1000
0100
0010
0001
1000
0010
0100
0001
1000
0100
0010
0001
1000
0010
0100
0001
,
1000
0000
0100
0000
0010
0001
1000
0010
0100
0000
0001
0000
1000
0100
1000
0100
,
1000
0000
0010
0000
0100
0001
0010
0100
1000
0000
0001
0000
1000
0100
0010
0001
,
1000
0000
0010
0000
0100
0001
0010
0001
1000
0000
0100
0000
0010
0001
1000
0010
,
0100
0000
0001
0000
1000
0100
1000
0010
0100
0000
0001
0000
0010
0100
1000
0001
,
1000
0100
0010
0001
1000
0010
0100
0001
1000
0100
0010
0001
1000
0010
0100
0001
,
1000
0100
0010
0001
1000
0010
0100
0001
1000
0100
0010
0001
1000
0010
0100
0001
,
1000
0100
0010
0001
1000
0010
0100
0001
1000
0100
0010
0001
1000
0010
0100
0001
,
1000
0100
0010
0001
1000
0010
0100
0001
1000
0100
0010
0001
1000
0010
0100
0001
,
1000
0000
0100
0000
0010
0001
1000
0001
1000
0000
0010
0000
0100
0001
0010
0100
,
1000
0000
0001
0000
0100
0001
1000
0100
1000
0000
0010
0000
0100
0001
0010
0100
,
1000
0000
0001
0000
1000
0100
0010
0001
1000
0000
0010
0000
0100
0001
0010
0001
,
1000
0000
0100
0000
0010
0001
1000
0010
0100
0000
0001
0000
1000
0100
1000
0100
,
0010
0000
0001
0000
1000
0100
1000
0010
0100
0000
0001
0000
1000
0100
1000
0010
,
0100
0000
0001
0000
1000
0100
1000
0010
0100
0000
0001
0000
0010
0100
0010
0001
,
1000
0000
0100
0000
0010
0001
1000
0010
0100
0000
0001
0000
1000
0100
1000
0100
,
0010
0000
0001
0000
1000
0100
1000
0010
0100
0000
0001
0000
1000
0100
0010
0001
,
1000
0000
0010
0000
0100
0001
0010
0100
1000
0000
0001
0000
1000
0100
0010
0001
,
1000
0000
0010
0000
0100
0001
0010
0100
1000
0000
0001
0000
1000
0100
1000
0010
,
0100
0000
0010
0000
1000
0100
0010
0100
1000
0000
0010
0000
0100
0001
0010
0100
,
0010
0000
0001
0000
1000
0100
1000
0010
0100
0000
0001
0000
1000
0100
0010
0001
,
1000
0000
0010
0000
0100
0001
0010
0100
1000
0000
0001
0000
0100
0001
1000
0100
,
1000
0000
0010
0000
0100
0001
0010
0100
1000
0000
0001
0000
1000
0100
0010
0001
,
1000
0000
0010
0000
0100
0001
1000
0100
1000
0000
0010
0000
0100
0001
0010
0100
,
1000
0000
0001
0000
0100
0001
1000
0100
0010
0000
0001
0000
1000
0100
0010
0001
,
1000
0001
0100
0001
1000
0010
1000
0001
0100
0001
1000
0010
1000
0001
0100
0001
,
1000
0010
1000
0001
0100
0001
1000
0010
1000
0001
0100
0001
1000
0010
1000
0001
,
0100
0001
1000
0010
1000
0001
0100
0001
1000
0010
1000
0001
0100
0001
1000
0010
,
1000
0001
0100
0001
1000
0010
1000
0001
0100
0001
1000
0010
1000
0001
0100
0001
,
1000
0100
0010
0001
1000
0010
0100
0001
0010
0100
1000
0010
0100
0001
1000
0100
,
0010
0100
1000
0010
0100
0001
0010
0100
0010
0001
1000
0010
0100
0001
1000
0100
,
0010
0001
1000
0010
0100
0001
1000
0100
0010
0100
1000
0010
0100
0001
0010
0100
,
0010
0001
1000
0010
0100
0001
1000
0100
0010
0100
1000
0001
0010
0100
0010
0001
,
1000
0100
0010
0001
1000
0010
1000
0010
1000
0100
0010
0001
1000
0010
1000
0010
,
1000
0100
0010
0001
1000
0010
1000
0010
1000
0100
0010
0001
1000
0010
1000
0010
,
1000
0100
0010
0001
1000
0010
1000
0010
1000
0100
0010
0001
1000
0010
1000
0010
,
1000
0100
0010
0001
1000
0010
1000
0010
1000
0100
0010
0001
1000
0010
1000
0010
,
1000
0100
0010
0001
1000
0010
1000
0010
1000
0100
0010
0001
1000
0010
1000
0010
,
0100
0001
1000
0100
0010
0001
1000
0010
,
0100
0001
1000
0100
1000
0010
0100
0001
,
0020
0030
0110
1100
,
1000
0001
0100
0001
1000
0010
1000
0010
1000
0001
0100
0001
1000
0010
1000
0010
,
1000
0001
0100
0001
1000
0010
1000
0010
1000
0001
0100
0001
1000
0010
1000
0010
,
1000
0100
0010
0001
1000
0100
1000
0100
1000
0100
0010
0001
1000
0100
1000
0100
,
1000
0100
0010
0001
1000
0100
1000
0100
1000
0100
0010
0001
1000
0100
1000
0100
,
1000
0010
0100
0001
0010
0100
0010
0001
1000
0010
0100
0001
0010
0100
0010
0001
,
1000
0010
0100
0001
0010
0100
0010
0001
1000
0010
0100
0001
0010
0100
0010
0001
,
1000
0010
0100
0001
0010
0100
0010
0001
1000
0010
0100
0001
0010
0100
0010
0001
,
1000
0100
1000
0001
0010
0100
1000
0010
0100
0001
1000
0100
1000
0010
0100
0001
,
0010
0001
1000
0100
0010
0100
1000
0010
1000
0010
0100
0001
0010
0100
1000
0010
,
0100
0001
0100
0001
0010
0100
1000
0010
0100
0001
1000
0001
1000
0100
1000
0010
,
0200
0000
0000
0000
,
0000
0000
0000
0000
,
0302
0000
0000
0000
,
0000
0000
0000
0000
,
0000
0000
0000
0000
,
0000
0000
0000
0000
,
0023
0000
0000
0000
,
0000
0000
0000
0000
,
0230
0000
0000
0000
,
0000
0000
0000
0000
,
2300
0000
0000
0000
,
0000
0000
0000
0000
,
0000
0000
0000
0000
,
0000
0000
0000
0000
,
3020
0000
0000
0000
,
0000
0000
0000
0000
,
0230
0000
0000
0000
,
0000
0000
0000
0000
,
0302
0000
0000
0000
,
0000
0000
0000
0000
,
0000
0000
0000
0000
,
0000
0000
0000
0000
,
M003
0000
0000
0000
,
MMMM
0000
0000
0000
;

//---------------dance-single - ----------------
#NOTES:
     dance-single:
     :
     Hard:
     16:
     1.000,1.000,0.021,0.062,1.000,3231.000,6.000,18.000,5.000,0.000:
0000
0000
0000
0000
,
1000
0000
0001
0000
0100
0001
0010
0100
1000
0000
0010
0000
0100
0001
1000
0100
,
0010
0000
0001
0000
1000
0100
1000
0010
0100
0000
0001
0000
0010
0100
1000
0100
,
0010
0000
0001
0000
1000
0100
1000
0010
0100
0000
0001
0000
1000
0100
0010
0001
,
1000
0000
0010
0000
0100
0001
1000
0100
1000
0000
0010
0000
0100
0001
0100
0001
,
0100
0000
0010
0000
1000
0100
0010
0001
1000
0000
0010
0000
0100
0001
0010
0001
,
0010
0000
0100
0000
1000
0001
1000
0100
1000
0000
0010
0000
0100
0001
1000
0100
,
1000
0000
0010
0000
0100
0001
0100
0001
0010
0000
0100
0000
1000
0001
1000
0100
,
1000
0000
0010
0000
0100
0001
1000
0100
0010
0000
0001
0000
1000
0010
0100
0001
,
1000
0100
1000
0010
0100
0001
0010
0100
1000
0001
0100
0001
1000
0100
0010
0001
,
1000
0010
0100
0001
0010
0001
1000
0100
0010
0001
1000
0010
0100
0001
1000
0100
,
1000
0001
0100
0001
1000
0010
0100
0001
0010
0100
1000
0001
0100
0001
1000
0100
,
0010
0001
1000
0010
0100
0001
0010
0001
1000
0100
0010
0001
1000
0010
0100
0001
,
1000
0100
1000
0010
0100
0010
1000
0100
1000
0010
0100
0001
0010
0100
0010
0001
,
1000
0100
1000
0010
0100
0001
0010
0100
1000
0001
0100
0001
1000
0100
0010
0001
,
1000
0010
0100
0001
0010
0001
1000
0100
0010
0001
1000
0100
1000
0010
0100
0001
,
0010
0001
1000
0001
0100
0001
1000
0100
1000
0010
0100
0001
0010
0100
1000
0001
,
0100
0001
1000
0010
0100
0001
0010
0100
1000
0001
0100
0001
1000
0100
0010
0001
,
1000
0010
0100
0001
1000
0100
1000
0010
0100
0001
0010
0100
0010
0001
1000
0010
,
0100
0001
1000
0100
1000
0010
0100
0001
0010
0100
1000
0001
0100
0001
1000
0100
,
0010
0100
1000
0010
0100
0001
0010
0100
0010
0001
1000
0100
1000
0010
0100
0001
,
1000
0100
1000
0010
0100
0001
0010
0100
1000
0001
0100
0001
1000
0100
0010
0001
,
1000
0010
1000
0001
0100
0001
1000
0100
0010
0001
1000
0010
0100
0001
0010
0001
,
1000
0100
0010
0001
1000
0010
0100
0001
1000
0100
1000
0010
0100
0001
0010
0100
,
1000
0001
0100
0001
1000
0100
0010
0100
1000
0010
0100
0001
1000
0001
0010
0100
,
1000
0001
0100
0001
1000
0100
0010
0001
1000
0010
0100
0001
0010
0001
1000
0100
,
0010
0001
1000
0010
0100
0001
0010
0001
1000
0100
0010
0001
1000
0010
0100
0001
,
1000
0100
1000
0010
0100
0001
0010
0100
0010
0001
1000
0100
1000
0010
0100
0001
,
0010
0100
1000
0001
0100
0001
1000
0100
0010
0001
1000
0010
0100
0001
0010
0100
,
1000
0001
0100
0001
1000
0100
1000
0010
0100
0001
0010
0100
0010
0001
1000
0010
,
1000
0001
0100
0010
1000
0100
1000
0001
0010
0100
1000
0010
0100
0001
1000
0100
,
0010
0001
1000
0010
0100
0001
0010
0100
1000
0001
0100
0001
1000
0100
0010
0001
,
1000
0010
1000
0100
0010
0001
1000
0010
0100
0001
0010
0100
0010
0001
1000
0100
,
1000
0001
0010
0100
0010
0001
1000
0100
1000
0010
0100
0001
0010
0100
0010
0001
,
1000
0100
1000
0010
0100
0001
0010
0100
1000
0001
0100
0001
1000
0100
0010
0001
,
1000
0010
0100
0001
1000
0100
1000
0001
0010
0100
1000
0001
0100
0001
1000
0100
,
0010
0001
1000
0010
0100
0001
0010
0100
1000
0001
0100
0001
1000
0100
0010
0001
,
1000
0010
0100
0010
1000
0100
0010
0001
0100
0010
0100
0001
0010
0100
1000
0001
,
0100
0001
1000
0100
0010
0001
1000
0010
0100
0001
1000
0100
1000
0010
0100
0001
,
0100
0010
1000
0100
0010
0001
1000
0010
0100
0001
0010
0001
1000
0100
0010
0001
,
0010
0100
1000
0001
0100
0001
1000
0100
1000
0010
0100
0001
0100
0010
1000
0100
,
0010
0001
1000
0100
0010
0001
1000
0010
0100
0001
1000
0100
1000
0010
0100
0001
,
0010
0100
0010
0001
1000
0100
1000
0010
0100
0001
0010
0100
1000
0001
0100
0001
,
1000
0100
0010
0001
1000
0010
0100
0001
0010
0001
1000
0100
0010
0001
1000
0010
,
0100
0001
1000
0100
1000
0010
0100
0001
0010
0100
0010
0001
1000
0100
1000
0010
,
0100
0001
0010
0100
1000
0001
0100
0001
1000
0100
0010
0001
1000
0010
1000
0100
,
0010
0001
1000
0010
0100
0001
0010
0001
1000
0100
0010
0001
1000
0010
0100
0001
,
1000
0100
1000
0010
0100
0001
0010
0100
0010
0001
1000
0100
1000
0010
0100
0010
,
1000
0100
0010
0001
1000
0010
0100
0010
1000
0100
0010
0001
1000
0010
0100
0001
,
0010
0100
1000
0001
0100
0001
1000
0100
0010
0001
1000
0010
0100
0001
0010
0001
,
1000
0100
0010
0001
1000
0010
1000
0100
0010
0001
1000
0010
0100
0001
0010
0001
,
1000
0100
0010
0001
1000
0010
0100
0001
0010
0100
1000
0010
0100
0001
1000
0100
,
1000
0010
0100
0001
0010
0100
1000
0001
0100
0001
1000
0100
0010
0001
1000
0010
,
0200
0000
0301
0000
0010
0100
1000
0100
0020
0000
0031
0000
1000
0010
0100
0010
,
2000
0000
3100
0000
0010
0001
1000
0010
0200
0000
0301
0000
0010
0100
1000
0001
,
0200
0000
0310
0000
1000
0100
0010
0001
2000
0000
3010
0000
0100
0001
0010
0100
,
2000
0000
3001
0000
0010
0100
1000
0001
0200
0000
0320
0000
2030
0000
3200
0000
,
0310
0001
1000
0100
1000
0010
0100
0001
0010
0100
1000
0001
0010
0001
1000
0100
,
1000
0010
0100
0001
0010
0100
1000
0001
0100
0001
1000
0100
0010
0001
1000
0010
,
0100
0001
1000
0100
1000
0010
0100
0001
0010
0100
0010
0001
1000
0100
1000
0010
,
0100
0001
1000
0100
1000
0010
0100
0001
0010
0100
1000
0010
0100
0001
1000
0100
,
1000
0010
0100
0001
0010
0100
1000
0001
0100
0001
1000
0100
0010
0001
1000
0010
,
0100
0001
1000
0100
1000
0010
0100
0001
0010
0100
1000
0010
0100
0001
1000
0100
,
1000
0010
0100
0001
0010
0001
1000
0100
0010
0001
1000
0010
0100
0001
1000
0100
,
1000
0010
0100
0001
0010
0100
1000
0001
0100
0001
1000
0100
0010
0001
1000
0010
,
0100
0001
0010
0001
1000
0100
0010
0001
1000
0010
0100
0001
0010
0100
1000
0001
,
1000
0000
0100
0000
0010
0000
0001
0000
0000
1000
0000
0000
0010
0000
0000
0100
0000
0000
0001
0000
0000
1000
0000
0000
0100
0000
0000
1000
0000
0000
0010
0000
0000
0100
0000
0000
0001
0000
0000
0010
0000
0000
0100
0000
0000
1000
0000
0000
,
0001
1000
0010
1000
0100
0010
0001
1000
0010
0100
0001
0010
0100
1000
0001
0100
,
0001
1000
0100
0010
0001
1000
0010
0100
0001
0010
0001
1000
0100
0010
0001
1000
,
0010
0100
0001
0010
0001
1000
0100
0010
0001
1000
0010
0100
0001
1000
0100
1000
,
0010
0100
0001
0010
0100
1000
0001
0100
0001
1000
0100
0010
0001
1000
0010
0100
,
0001
1000
0100
1000
0010
0100
0001
0010
0100
1000
0001
0100
0001
1000
0100
0010
,
0001
1000
0010
0100
0001
0010
0001
1000
0100
0010
0001
1000
0010
0100
0001
0010
,
0001
1000
0100
0010
0001
1000
0010
0100
0001
1000
0100
1000
0010
0100
0001
0010
,
0100
1000
0010
0100
0001
1000
0100
1000
0001
0100
0001
1000
0100
0010
0001
1000
,
0010
0100
0001
0010
0100
0010
0001
1000
0100
1000
0010
0100
0001
0010
0100
0010
,
0001
1000
0100
1000
0010
0100
0001
0010
0100
1000
0001
0100
0001
1000
0100
0010
,
0001
1000
0010
0100
0001
0010
0001
1000
0100
0010
0001
1000
0010
0100
0001
0010
,
0001
1000
0100
0010
0001
0100
0001
0010
0100
1000
0010
0100
0001
1000
0100
1000
,
0010
0100
0001
1000
0100
1000
0010
0100
0001
0010
0100
0010
0001
0100
0001
0010
,
0100
0010
0001
1000
0100
0010
0100
1000
0010
0100
0010
1000
0100
0010
0100
1000
,
0010
0100
0001
0010
0100
1000
0001
0100
0001
1000
0100
0010
0001
1000
0010
0100
,
0001
1000
0100
1000
0010
0100
0001
0010
0100
1000
0001
0100
0001
1000
0100
0010
,
0001
1000
0010
0100
0010
1000
0100
1000
0001
0100
0001
0010
0001
0010
0100
1000
,
0001
0010
0001
0010
0100
1000
0010
0100
0001
1000
0100
1000
0100
0010
0001
1000
,
0010
0100
0001
1000
0100
1000
0010
0100
0001
0010
0100
1000
0001
0100
0001
1000
,
0100
1000
0010
0100
0001
0010
0100
1000
0001
0100
0001
1000
0100
0010
0100
1000
,
0010
0100
0001
0010
0001
1000
0100
0010
0001
1000
0010
0100
0001
1000
0100
1000
,
0010
0100
0001
0010
0001
1000
0100
0010
0100
1000
0010
0100
0001
1000
0100
1000
,
0001
0100
0001
1000
0010
0100
0001
0010
0100
1000
0001
0100
0010
1000
0100
0010
,
0001
0100
0001
0100
0001
0010
0100
1000
0001
0100
0001
0100
0001
0010
0100
1000
,
0001
0100
0001
0100
0001
0010
0100
1000
0001
0100
0001
0100
0001
0010
0100
1000
,
0001
0100
0001
0100
0001
0010
0100
1000
0001
0100
0001
0100
0001
0010
0100
1000
,
0010
0100
0010
0100
0010
1000
0100
1000
0010
0100
0010
0100
0010
1000
0100
1000
,
0010
0100
0010
0100
0010
1000
0100
1000
0010
0100
0010
0100
0010
1000
0100
1000
,
0010
0100
0010
0100
0010
1000
0100
1000
0010
0100
0010
0100
0010
1000
0100
1000
,
0001
0100
0010
1000
0001
1000
0100
1000
0001
0100
0010
1000
0001
1000
0100
1000
,
0001
0100
0010
1000
0001
1000
0100
1000
0001
0100
0010
1000
0001
1000
0100
1000
,
0001
0000
1000
0000
0100
0010
0001
1000
0010
0000
0100
0000
0001
1000
0100
1000
,
0010
0000
0100
0000
0001
0100
0001
0010
0100
0000
1000
0000
0001
0100
0001
1000
,
0100
0000
0010
0000
0001
1000
0010
0100
0001
0000
0010
0000
0100
1000
0100
1000
,
0010
0000
0100
0000
0001
1000
0100
1000
0100
0000
0010
0000
0001
1000
0010
0100
,
0001
1000
0100
0010
0001
1000
0100
1000
0010
0100
0001
0010
0100
1000
0001
0100
,
0001
1000
0100
0010
0001
1000
0010
1000
0100
0010
0001
1000
0010
0100
0001
0010
,
0100
0010
0001
1000
0100
1000
0001
0100
0001
1000
0100
1000
0001
0100
0001
1000
,
0100
0010
0001
1000
0010
1000
0001
0100
0001
0010
0100
1000
0010
0100
0001
1000
,
0010
0000
0100
0000
0001
0010
0001
0010
0100
0000
1000
0000
0001
0100
0001
1000
,
0100
0000
0010
0000
0001
1000
0010
0100
0001
0000
0010
0000
0100
1000
0100
1000
,
0010
0000
0100
0000
0001
1000
0100
1000
0001
0000
0100
0000
0001
0010
0100
0010
,
0001
0000
1000
0000
0010
0100
0001
1000
0100
0000
0010
0000
0001
1000
0100
1000
,
0001
0100
0010
1000
0100
0010
0001
1000
0010
1000
0100
0010
0001
1000
0010
0100
,
0001
1000
0100
0010
0001
1000
0010
0100
0001
0010
0100
1000
0010
0100
0001
0010
,
0100
0010
0001
1000
0010
0100
0001
1000
0100
0010
0001
1000
0010
0100
0001
0010
,
0100
1100
1000
1010
0010
0110
0100
0101
,
0001
1000
0100
1000
0010
0100
0001
0010
0001
1000
0100
1000
0010
0100
0001
0010
,
0001
1000
0100
1000
0010
0100
0001
0010
0001
1000
0100
1000
0010
0100
0001
0010
,
0001
1000
0100
1000
0010
0100
0001
0010
0100
1000
0001
0100
0001
1000
0100
0010
,
0001
1000
0010
0100
0001
0010
0001
1000
0100
0010
0001
1000
0010
0100
0001
1000
,
0010
0100
0001
1000
0010
0100
0001
1000
0100
1000
0010
0100
0001
1000
0100
1000
,
0010
0100
0001
1000
0100
1000
0010
0100
0001
1000
0100
1000
0010
0100
0001
1000
,
0100
0010
0001
1000
0100
1000
0010
0100
,
0001
0010
0100
1000
0001
0100
0001
1000
,
0001
1000
0100
1000
0010
0100
0001
0010
0100
1000
0001
0100
0010
1000
0100
1000
,
0010
0100
0001
0010
0100
1000
0001
0100
0001
1000
0100
0010
0001
1000
0010
0100
,
0001
0010
0001
1000
0100
0010
0001
1000
0010
0100
0001
0010
0001
1000
0100
0010
,
0001
1000
0010
1000
0100
0010
0001
1000
0010
0100
0001
0100
0001
0010
0100
1000
,
0010
0100
0001
1000
0100
0010
0001
1000
0100
1000
0010
0100
0001
0010
0100
1000
,
0010
0100
0001
1000
0100
0010
0001
1000
0010
0100
0001
0010
0100
1000
0001
0100
,
0010
1000
0100
1000
0010
0100
0001
0010
0001
1000
0100
0010
0001
1000
0100
0010
,
0001
0000
0000
0001
0000
0000
1000
0000
0000
1000
0000
0000
0001
0000
0000
0001
0000
0000
1000
0001
1000
0001
1000
0001
,
1000
0100
0010
0001
1000
0010
1000
0010
1000
0100
0010
0001
1000
0010
1000
0010
,
1000
0100
0010
0001
1000
0010
1000
0010
1000
0100
0010
0001
1000
0010
1000
0010
,
1000
0001
0100
0010
1000
0001
0100
0001
0100
0010
1000
0001
0100
0001
0100
0010
,
1000
0001
0100
0001
0100
0010
1000
0001
0100
0010
1000
0001
0100
0010
1000
0100
,
0010
0001
1000
0100
1000
0010
0100
0001
0010
0100
1000
0001
0100
0001
1000
0100
,
0010
0001
1000
0010
0100
0001
0010
0001
1000
0100
0010
0001
1000
0010
0100
0001
,
0010
0001
1000
0100
0010
0100
1000
0010
0100
0001
0010
0001
1000
0100
1000
0010
,
0100
0001
0010
0100
1000
0001
0100
0001
1000
0100
0010
0001
1000
0010
0100
0001
,
1000
0001
0100
0001
0010
0001
0010
0001
1000
0001
0100
0001
0010
0001
0010
0001
,
1000
0001
0100
0001
0010
0001
0010
0001
1000
0001
0100
0001
0010
0001
0010
0001
,
1000
0001
0010
0001
1000
0100
1000
0100
1000
0001
0010
0001
1000
0100
1000
0100
,
1000
0001
0010
0001
1000
0100
1000
0100
1000
0001
0010
0001
1000
0100
1000
0100
,
1000
0001
0100
0001
1000
0001
0100
0001
1000
0001
0200
0310
1000
0100
0010
0001
,
1000
0010
0100
0001
1000
0100
1000
0010
0100
0001
0010
0100
1000
0001
0100
0001
,
0010
0100
1000
0010
0100
0001
1000
0100
1000
0010
0100
0001
0010
0100
1000
0001
,
0100
0001
1000
0100
0010
0001
1000
0010
0100
0001
0010
0100
1000
0001
0100
0010
,
1000
0000
0100
0000
0010
0001
1000
0001
1000
0000
0010
0000
0100
0001
0010
0100
,
1000
0000
0001
0000
1000
0100
0010
0001
1000
0000
0010
0000
0100
0001
0100
0001
,
0010
0000
0100
0000
1000
0001
1000
0100
1000
0000
0010
0000
0100
0001
0010
0100
,
1000
0000
0001
0000
1000
0100
1000
0010
0100
0000
0001
0000
0010
0100
1000
0100
,
0010
0000
0001
0000
1000
0100
1000
0010
0100
0000
0001
0000
1000
0100
1000
0001
,
1000
0000
0010
0000
0100
0001
0010
0001
0010
0000
0100
0000
1000
0001
1000
0100
,
0010
0000
0001
0000
1000
0010
1000
0100
0010
0000
0001
0000
0100
0001
0010
0100
,
1000
0100
0010
0001
1000
0010
0100
0001
1000
0100
0010
0001
1000
0010
0100
0001
,
1000
0100
1000
0010
0100
0001
0010
0100
1000
0001
0100
0001
1000
0100
0010
0001
,
1000
0010
0100
0001
0010
0001
1000
0100
0010
0001
1000
0010
0100
0001
0010
0001
,
1000
0100
0010
0100
1000
0010
0100
0001
0010
0001
1000
0100
0010
0001
1000
0010
,
0100
0001
0010
0001
1000
0100
0010
0001
1000
0010
0100
0001
0100
0001
0010
0100
,
1000
0100
0010
0001
1000
0010
0100
0001
1000
0100
0010
0001
1000
0010
0100
0001
,
1000
0100
0010
0001
1000
0010
0100
0001
1000
0100
0010
0001
1000
0010
0100
0001
,
1000
0100
0010
0001
1000
0010
0100
0001
1000
0100
0010
0001
1000
0010
0100
0001
,
1000
0100
0010
0001
1000
0010
0100
0001
1000
0100
0010
0001
1000
0010
0100
0001
,
1000
0100
1000
0010
0100
0001
0010
0100
0010
0001
1000
0100
1000
0010
0100
0001
,
0010
0100
1000
0010
0100
0001
1000
0100
1000
0010
0100
0001
0010
0100
1000
0001
,
0100
0001
1000
0100
0010
0001
1000
0010
0100
0001
0010
0001
1000
0100
0010
0001
,
1000
0010
0100
0001
0010
0001
1000
0100
1000
0010
0100
0001
0010
0100
1000
0001
,
0100
0001
1000
0100
0010
0001
1000
0010
0100
0001
0010
0001
1000
0100
0010
0100
,
1000
0010
0100
0001
0010
0100
0010
0001
1000
0100
1000
0010
1000
0001
1000
0100
,
1000
0001
0100
0001
0010
0001
1000
0001
0100
0001
0010
0100
1000
0001
1000
0100
,
1000
0001
1000
0010
0100
0001
0010
0100
0010
0001
1000
0100
1000
0010
0100
0001
,
0010
0100
1000
0001
0100
0001
1000
0100
1000
0001
1000
0010
1000
0001
0100
0001
,
1000
0001
0010
0001
1000
0100
0010
0001
1000
0010
0100
0001
0010
0001
1000
0100
,
0010
0001
1000
0010
0100
0001
1000
0100
1000
0001
1000
0010
1000
0100
0010
0001
,
1000
0010
1000
0100
0010
0001
1000
0100
1000
0010
1000
0100
0010
0100
1000
0100
,
0010
0001
1000
0010
0100
0001
0010
0001
1000
0100
0010
0001
1000
0010
0100
0001
,
0010
0001
1000
0100
0010
0001
1000
0010
0100
0001
0010
0001
1000
0100
0010
0001
,
1000
0010
0100
0001
0100
0001
0010
0100
1000
0010
0100
0001
1000
0100
0010
0001
,
1000
0010
0100
0001
1000
0100
0010
0001
1000
0010
0100
0001
1000
0100
0010
0001
,
1000
0001
0100
0001
1000
0010
1000
0001
0100
0001
1000
0010
1000
0001
0100
0001
,
1000
0010
1000
0001
0100
0001
1000
0010
1000
0001
0100
0001
1000
0010
1000
0001
,
0100
0001
1000
0010
1000
0001
0100
0001
1000
0010
1000
0001
0100
0001
1000
0010
,
1000
0001
0100
0001
1000
0010
1000
0001
0100
0001
1000
0010
1000
0001
0100
0001
,
1000
0100
0010
0001
1000
0010
0100
0001
0010
0100
1000
0010
0100
0001
1000
0100
,
0010
0100
1000
0010
0100
0001
0010
0100
0010
0001
1000
0010
0100
0001
1000
0100
,
0010
0001
1000
0010
0100
0001
1000
0100
0010
0100
1000
0010
0100
0001
0010
0100
,
0010
0001
1000
0010
0100
0001
1000
0100
0010
0100
1000
0001
0010
0100
0010
0001
,
1000
0100
0010
0001
1000
0010
1000
0010
1000
0100
0010
0001
1000
0010
1000
0010
,
1000
0100
0010
0001
1000
0010
1000
0010
1000
0100
0010
0001
1000
0010
1000
0010
,
1000
0100
0010
0001
1000
0010
1000
0010
1000
0100
0010
0001
1000
0010
1000
0010
,
1000
0100
0010
0001
1000
0010
1000
0010
1000
0100
0010
0001
1000
0010
1000
0010
,
1000
0100
0010
0001
1000
0010
1000
0010
1000
0100
0010
0001
1000
0010
1000
0010
,
0100
0001
0010
0100
1000
0010
0100
0001
1000
0100
0010
0001
1000
0010
0100
0001
,
0010
0100
1000
0001
0100
0010
1000
0100
0010
0001
1000
0010
0100
0001
0010
0100
,
2000
3000
1001
1100
,
1000
0001
0100
0001
1000
0010
1000
0010
1000
0001
0100
0001
1000
0010
1000
0010
,
1000
0001
0100
0001
1000
0010
1000
0010
1000
0001
0100
0001
1000
0010
1000
0010
,
1000
0100
0010
0001
1000
0100
1000
0100
1000
0100
0010
0001
1000
0100
1000
0100
,
1000
0100
0010
0001
1000
0100
1000
0100
1000
0100
0010
0001
1000
0100
1000
0100
,
1000
0010
0100
0001
0010
0100
0010
0001
1000
0010
0100
0001
0010
0100
0010
0001
,
1000
0010
0100
0001
0010
0100
0010
0001
1000
0010
0100
0001
0010
0100
0010
0001
,
1000
0010
0100
0001
0010
0100
0010
0001
1000
0010
0100
0001
0010
0100
0010
0001
,
1000
0100
1000
0001
0010
0100
1000
0010
0100
0001
1000
0100
1000
0010
0100
0001
,
0010
0001
1000
0100
0010
0100
1000
0010
1000
0010
0100
0001
0010
0100
1000
0010
,
0100
0001
0100
0001
0010
0100
1000
0010
0100
0001
1000
0001
1000
0100
1000
0010
,
0100
0001
1000
0100
1000
0010
0100
0001
0010
0100
0010
0001
1000
0100
0010
0001
,
1000
0010
0100
0001
0010
0001
1000
0100
0010
0001
1000
0010
0100
0001
1000
0100
,
0010
0001
1000
0010
1000
0100
0010
0001
1000
0010
0100
0001
0010
0001
1000
0100
,
0010
0001
1000
0010
0100
0001
0010
0001
1000
0100
0010
0001
1000
0010
0100
0001
,
0100
0010
1000
0100
0010
0100
1000
0010
0100
0001
0010
0001
1000
0100
0010
0001
,
1000
0010
0100
0001
1000
0100
1000
0010
0100
0001
0010
0001
1000
0100
0010
0001
,
0010
0100
1000
0001
0100
0001
1000
0100
0010
0001
1000
0010
0100
0001
0010
0001
,
1000
0100
0010
0001
1000
0010
0100
0001
0010
0001
1000
0100
0010
0001
1000
0010
,
0200
0000
0000
0000
,
0000
0000
0000
0000
,
0320
0000
0000
0000
,
0000
0000
0000
0000
,
0000
0000
0000
0000
,
0000
0000
0000
0000
,
2030
0000
0000
0000
,
0000
0000
0000
0000
,
3200
0000
0000
0000
,
0000
0000
0000
0000
,
0320
0000
0000
0000
,
0000
0000
0000
0000
,
0000
0000
0000
0000
,
0000
0000
0000
0000
,
003M
0000
0000
0000
,
MMMM
0000
0000
0000
;

//---------------dance-single - ----------------
#NOTES:
     dance-single:
     :
     Challenge:
     17:
     1.000,1.000,0.000,0.069,1.000,3507.000,0.000,20.000,5.000,0.000:
0000
0000
0000
0000
,
1000
0000
0001
0000
0100
0001
0010
0100
1000
0000
0010
0000
0100
0001
1000
0100
,
0010
0000
0001
0000
1000
0100
1000
0010
0100
0000
0001
0000
0010
0100
1000
0100
,
0010
0000
0001
0000
1000
0100
1000
0010
0100
0000
0001
0000
1000
0100
0010
0001
,
1000
0000
0010
0000
0100
0001
1000
0100
1000
0000
0010
0000
0100
0001
0010
0100
,
1000
0000
0010
0000
1000
0100
0010
0001
1000
0000
0010
0000
0100
0001
0010
0001
,
0010
0000
0100
0000
1000
0001
1000
0100
1000
0000
0010
0000
0100
0001
1000
0100
,
1000
0000
0010
0000
0100
0001
0100
0001
0010
0000
0100
0000
1000
0001
1000
0100
,
1000
0000
0010
0000
0100
0001
1000
0100
0010
0000
0001
0000
1000
0010
0100
0001
,
1000
0100
1000
0010
0100
0001
0010
0100
1000
0001
0100
0001
1000
0100
0010
0001
,
1000
0010
0100
0001
0010
0001
1000
0100
0010
0001
1000
0010
0100
0001
1000
0100
,
1000
0001
0100
0001
1000
0010
0100
0001
0010
0100
1000
0001
0100
0001
1000
0100
,
0010
0001
1000
0010
0100
0001
0010
0001
1000
0100
0010
0001
1000
0010
0100
0001
,
1000
0100
1000
0010
0100
0010
1000
0100
1000
0010
0100
0001
0010
0100
0010
0001
,
1000
0100
1000
0010
0100
0001
0010
0100
1000
0001
0100
0001
1000
0100
0010
0001
,
1000
0010
0100
0001
0010
0001
1000
0100
0010
0001
1000
0100
1000
0010
0100
0001
,
0010
0001
1000
0001
0100
0001
1000
0100
1000
0010
0100
0001
0010
0100
1000
0001
,
0100
0001
1000
0010
0100
0001
0010
0100
1000
0001
0100
0001
1000
0100
0010
0001
,
1000
0010
0100
0001
1000
0100
1000
0010
0100
0001
0010
0100
0010
0001
1000
0010
,
0100
0001
1000
0100
1000
0010
0100
0001
0010
0100
1000
0001
0100
0001
1000
0100
,
0010
0100
1000
0010
0100
0001
0010
0100
0010
0001
1000
0100
1000
0010
0100
0001
,
1000
0100
1000
0010
0100
0001
0010
0100
1000
0001
0100
0001
1000
0100
0010
0001
,
1000
0010
1000
0001
0100
0001
1000
0100
0010
0001
1000
0010
0100
0001
0010
0001
,
1000
0100
0010
0001
1000
0010
0100
0001
1000
0100
1000
0010
0100
0001
0010
0100
,
1000
0001
0100
0001
1000
0100
0010
0100
1000
0010
0100
0001
1000
0001
0010
0100
,
1000
0001
0100
0001
1000
0100
0010
0001
1000
0010
0100
0001
0010
0001
1000
0100
,
0010
0001
1000
0010
0100
0001
0010
0001
1000
0100
0010
0001
1000
0010
0100
0001
,
1000
0100
1000
0010
0100
0001
0010
0100
0010
0001
1000
0100
1000
0010
0100
0001
,
0010
0100
1000
0001
0100
0001
1000
0100
0010
0001
1000
0010
0100
0001
0010
0100
,
1000
0001
0100
0001
1000
0100
1000
0010
0100
0001
0010
0100
0010
0001
1000
0010
,
1000
0001
0100
0010
1000
0100
1000
0001
0010
0100
1000
0010
0100
0001
1000
0100
,
0010
0001
1000
0010
0100
0001
0010
0100
1000
0001
0100
0001
1000
0100
0010
0001
,
1000
0010
1000
0100
0010
0001
1000
0010
0100
0001
0010
0100
0010
0001
1000
0100
,
1000
0001
0010
0100
0010
0001
1000
0100
1000
0010
0100
0001
0010
0100
0010
0001
,
1000
0100
1000
0010
0100
0001
0010
0100
1000
0001
0100
0001
1000
0100
0010
0001
,
1000
0010
0100
0001
1000
0100
1000
0001
0010
0100
1000
0001
0100
0001
1000
0100
,
0010
0001
1000
0010
0100
0001
0010
0100
1000
0001
0100
0001
1000
0100
0010
0001
,
1000
0010
0100
0010
1000
0100
0010
0001
0100
0010
0100
0001
0010
0100
1000
0001
,
0100
0001
1000
0100
0010
0001
1000
0010
0100
0001
1000
0100
1000
0010
0100
0001
,
0100
0010
1000
0100
0010
0001
1000
0010
0100
0001
0010
0001
1000
0100
0010
0001
,
0010
0100
1000
0001
0100
0001
1000
0100
1000
0010
0100
0001
0100
0010
1000
0100
,
0010
0001
1000
0100
0010
0001
1000
0010
0100
0001
1000
0100
1000
0010
0100
0001
,
0010
0100
0010
0001
1000
0100
1000
0010
0100
0001
0010
0100
1000
0001
0100
0001
,
1000
0100
0010
0001
1000
0010
0100
0001
0010
0001
1000
0100
0010
0001
1000
0010
,
0100
0001
1000
0100
1000
0010
0100
0001
0010
0100
0010
0001
1000
0100
1000
0010
,
0100
0001
0010
0100
1000
0001
0100
0001
1000
0100
0010
0001
1000
0010
1000
0100
,
0010
0001
1000
0010
0100
0001
0010
0001
1000
0100
0010
0001
1000
0010
0100
0001
,
1000
0100
1000
0010
0100
0001
0010
0100
0010
0001
1000
0100
1000
0010
0100
0010
,
1000
0100
0010
0001
1000
0010
0100
0010
1000
0100
0010
0001
1000
0010
0100
0001
,
0010
0100
1000
0001
0100
0001
1000
0100
0010
0001
1000
0010
0100
0001
0010
0001
,
1000
0100
0010
0001
1000
0010
1000
0100
0010
0001
1000
0010
0100
0001
0010
0001
,
1000
0100
0010
0001
1000
0010
0100
0001
0010
0100
1000
0010
0100
0001
1000
0100
,
1000
0010
0100
0001
0010
0100
1000
0001
0100
0001
1000
0100
0010
0001
1000
0010
,
0200
0301
0010
0100
1000
0001
1000
0100
0020
0031
1000
0010
0100
0001
0010
0100
,
2000
3001
0100
0001
1000
0010
0100
0001
0020
0130
1000
0001
0100
0001
1000
0100
,
0020
0031
1000
0010
1000
0100
0010
0001
2000
3010
0100
0001
1000
0100
0010
0001
,
2000
3010
0100
0001
0010
0100
1000
0001
0100
0010
1000
0100
0010
0001
1000
0100
,
0010
0001
1000
0100
1000
0010
0100
0001
0010
0100
1000
0001
0010
0001
1000
0100
,
1000
0010
0100
0001
0010
0100
1000
0001
0100
0001
1000
0100
0010
0001
1000
0010
,
0100
0001
1000
0100
1000
0010
0100
0001
0010
0100
0010
0001
1000
0100
1000
0010
,
0100
0001
1000
0100
1000
0010
0100
0001
0010
0100
1000
0010
0100
0001
1000
0100
,
1000
0010
0100
0001
0010
0100
1000
0001
0100
0001
1000
0100
0010
0001
1000
0010
,
0100
0001
1000
0100
1000
0010
0100
0001
0010
0100
1000
0010
0100
0001
1000
0100
,
1000
0010
0100
0001
0010
0001
1000
0100
0010
0001
1000
0010
0100
0001
1000
0100
,
1000
0010
0100
0001
0010
0100
1000
0001
0100
0001
1000
0100
0010
0001
1000
0010
,
0100
0001
0010
0001
1000
0100
0010
0001
1000
0010
0100
0001
0010
0100
1000
0001
,
1000
0000
0100
0000
0010
0000
0001
0000
0000
1000
0000
0000
0010
0000
0000
0100
0000
0000
0001
0000
0000
1000
0000
0000
0100
0000
0000
1000
0000
0000
0010
0000
0000
0100
0000
0000
0001
0000
0000
0010
0000
0000
0100
0000
0000
1000
0000
0000
,
0001
1000
0010
1000
0100
0010
0001
1000
0010
0100
0001
0010
0100
1000
0001
0100
,
0001
1000
0100
0010
0001
1000
0010
0100
0001
0010
0001
1000
0100
0010
0001
1000
,
0010
0100
0001
0010
0001
1000
0100
0010
0001
1000
0010
0100
0001
1000
0100
1000
,
0010
0100
0001
0010
0100
1000
0001
0100
0001
1000
0100
0010
0001
1000
0010
0100
,
0001
1000
0100
1000
0010
0100
0001
0010
0100
1000
0001
0100
0001
1000
0100
0010
,
0001
1000
0010
0100
0001
0010
0001
1000
0100
0010
0001
1000
0010
0100
0001
0010
,
0001
1000
0100
0010
0001
1000
0010
0100
0001
1000
0100
1000
0010
0100
0001
0010
,
0100
1000
0010
0100
0001
1000
0100
1000
0001
0100
0001
1000
0100
0010
0001
1000
,
0010
0100
0001
0010
0100
0010
0001
1000
0100
1000
0010
0100
0001
0010
0100
0010
,
0001
1000
0100
1000
0010
0100
0001
0010
0100
1000
0001
0100
0001
1000
0100
0010
,
0001
1000
0010
0100
0001
0010
0001
1000
0100
0010
0001
1000
0010
0100
0001
0010
,
0001
1000
0100
0010
0001
0100
0001
0010
0100
1000
0010
0100
0001
1000
0100
1000
,
0010
0100
0001
1000
0100
1000
0010
0100
0001
0010
0100
0010
0001
0100
0001
0010
,
0100
0010
0001
1000
0100
0010
0100
1000
0010
0100
0010
1000
0100
0010
0100
1000
,
0010
0100
0001
0010
0100
1000
0001
0100
0001
1000
0100
0010
0001
1000
0010
0100
,
0001
1000
0100
1000
0010
0100
0001
0010
0100
1000
0001
0100
0001
1000
0100
0010
,
0001
1000
0010
0100
0010
1000
0100
1000
0001
0100
0001
0010
0001
0010
0100
1000
,
0001
0010
0001
0010
0100
1000
0010
0100
0001
1000
0100
1000
0100
0010
0001
1000
,
0010
0100
0001
1000
0100
1000
0010
0100
0001
0010
0100
1000
0001
0100
0001
1000
,
0100
1000
0010
0100
0001
0010
0100
1000
0001
0100
0001
1000
0100
0010
0100
1000
,
0010
0100
0001
0010
0001
1000
0100
0010
0001
1000
0010
0100
0001
1000
0100
1000
,
0010
0100
0001
0010
0001
1000
0100
0010
0100
1000
0010
0100
0001
1000
0100
1000
,
0001
0100
0001
1000
0010
0100
0001
0010
0100
1000
0001
0100
0010
1000
0100
0010
,
0001
0100
0001
0100
0001
0010
0100
1000
0001
0100
0001
0100
0001
0010
0100
1000
,
0001
0100
0001
0100
0001
0010
0100
1000
0001
0100
0001
0100
0001
0010
0100
1000
,
0001
0100
0001
0100
0001
0010
0100
1000
0001
0100
0001
0100
0001
0010
0100
1000
,
0010
0100
0010
0100
0010
1000
0100
1000
0010
0100
0010
0100
0010
1000
0100
1000
,
0010
0100
0010
0100
0010
1000
0100
1000
0010
0100
0010
0100
0010
1000
0100
1000
,
0010
0100
0010
0100
0010
1000
0100
1000
0010
0100
0010
0100
0010
1000
0100
1000
,
0001
0100
0010
1000
0001
1000
0100
1000
0001
0100
0010
1000
0001
1000
0100
1000
,
0001
0100
0010
1000
0001
1000
0100
1000
0001
0100
0010
1000
0001
1000
0100
1000
,
0001
0100
0010
1000
0100
1000
0010
0100
0001
0010
0100
1000
0001
0100
0001
1000
,
0100
0010
0001
1000
0010
1000
0001
0010
0001
1000
0100
0010
0001
1000
0010
0100
,
0001
0010
0001
1000
0100
0010
0001
1000
0010
0100
0001
1000
0100
1000
0010
0100
,
0001
0010
0001
1000
0100
0010
0001
1000
0010
0100
0001
1000
0100
1000
0010
0100
,
0001
1000
0100
0010
0001
1000
0100
1000
0010
0100
0001
0010
0100
1000
0001
0100
,
0001
1000
0100
0010
0001
1000
0010
1000
0100
0010
0001
1000
0010
0100
0001
0010
,
0100
0010
0001
1000
0100
1000
0001
0100
0001
1000
0100
1000
0001
0100
0001
1000
,
0100
0010
0001
1000
0010
1000
0001
0100
0001
0010
0100
1000
0010
0100
0001
1000
,
0010
0100
0001
1000
0100
1000
0001
0100
0001
1000
0100
0010
0001
1000
0010
1000
,
0001
0010
0001
1000
0100
0010
0001
1000
0010
0100
0001
0010
0001
1000
0100
0010
,
0001
1000
0010
0100
0010
1000
0100
0010
0001
0100
0010
0100
0001
0010
0100
1000
,
0001
0100
0001
1000
0100
1000
0010
0100
0001
0010
0100
1000
0001
1000
0100
1000
,
0001
0100
0010
1000
0100
0010
0001
1000
0010
1000
0100
0010
0001
1000
0010
0100
,
0001
1000
0100
0010
0001
1000
0010
0100
0001
0010
0100
1000
0010
0100
0001
0010
,
0100
0010
0001
1000
0010
0100
0001
1000
0100
0010
0001
1000
0010
0100
0001
0010
,
0200
1300
0020
0130
0002
1003
0200
1300
0020
0130
0002
1003
0200
0310
0002
1003
,
0001
1000
0100
1000
0010
0100
0001
0010
0001
1000
0100
1000
0010
0100
0001
0010
,
0001
1000
0100
1000
0010
0100
0001
0010
0001
1000
0100
1000
0010
0100
0001
0010
,
0001
1000
0100
1000
0010
0100
0001
0010
0100
1000
0001
0100
0001
1000
0100
0010
,
0001
1000
0010
0100
0001
0010
0001
1000
0100
0010
0001
1000
0010
0100
0001
1000
,
0010
0100
0001
1000
0010
0100
0001
1000
0100
1000
0010
0100
0001
1000
0100
1000
,
0010
0100
0001
1000
0100
1000
0010
0100
0001
1000
0100
1000
0010
0100
0001
1000
,
0001
0100
0001
0010
0100
1000
0010
0100
0001
1000
0100
1000
0010
0100
0001
0010
,
0100
1000
0100
0010
0001
1000
0010
0100
0001
0010
0001
1000
0100
0010
0001
1000
,
0010
1000
0100
1000
0010
0100
0001
0010
0100
1000
0001
0100
0010
1000
0100
1000
,
0010
0100
0001
0010
0100
1000
0001
0100
0001
1000
0100
0010
0001
1000
0010
0100
,
0001
0010
0001
1000
0100
0010
0001
1000
0010
0100
0001
0010
0001
1000
0100
0010
,
0001
1000
0010
1000
0100
0010
0001
1000
0010
0100
0001
0100
0001
0010
0100
1000
,
0010
0100
0001
1000
0100
0010
0001
1000
0100
1000
0010
0100
0001
0010
0100
1000
,
0010
0100
0001
1000
0100
0010
0001
1000
0010
0100
0001
0010
0100
1000
0001
0100
,
0010
1000
0100
1000
0010
0100
0001
0010
0001
1000
0100
0010
0001
1000
0100
0010
,
0001
0000
0000
1000
0000
0000
0100
0000
0000
1000
0000
0000
0010
0000
0000
0100
0000
0000
0001
0000
0000
0010
0000
0000
0100
0000
0000
1000
0000
0000
0001
0000
0010
0000
0100
0000
1000
0000
0001
0000
1000
0000
0001
0000
1000
0000
0001
0000
,
1000
0100
0010
0001
1000
0010
1000
0010
1000
0100
0010
0001
1000
0010
1000
0010
,
1000
0100
0010
0001
1000
0010
1000
0010
1000
0100
0010
0001
1000
0010
1000
0010
,
1000
0001
0100
0010
1000
0001
0100
0001
0100
0010
1000
0001
0100
0001
0100
0010
,
1000
0001
0100
0001
0100
0010
1000
0001
0100
0010
1000
0001
0100
0010
1000
0100
,
0010
0001
1000
0100
1000
0010
0100
0001
0010
0100
1000
0001
0100
0001
1000
0100
,
0010
0001
1000
0010
0100
0001
0010
0001
1000
0100
0010
0001
1000
0010
0100
0001
,
0010
0001
1000
0100
0010
0100
1000
0010
0100
0001
0010
0001
1000
0100
1000
0010
,
0100
0001
0010
0100
1000
0001
0100
0001
1000
0100
0010
0001
1000
0010
0100
0001
,
1000
0001
0100
0001
0010
0001
0010
0001
1000
0001
0100
0001
0010
0001
0010
0001
,
1000
0001
0100
0001
0010
0001
0010
0001
1000
0001
0100
0001
0010
0001
0010
0001
,
1000
0001
0010
0001
1000
0100
1000
0100
1000
0001
0010
0001
1000
0100
1000
0100
,
1000
0001
0010
0001
1000
0100
1000
0100
1000
0001
0010
0001
1000
0100
1000
0100
,
1000
0001
0100
0001
1000
0001
0100
0001
1000
0001
0200
0310
1000
0100
0010
0001
,
1000
0010
0100
0001
1000
0100
1000
0010
0100
0001
0010
0100
1000
0001
0100
0001
,
0010
0100
1000
0010
0100
0001
1000
0100
1000
0010
0100
0001
0010
0100
1000
0001
,
0100
0001
1000
0100
0010
0001
1000
0010
0100
0001
0010
0100
1000
0001
0100
0010
,
1000
0100
1000
0010
0100
0001
0010
0001
1000
0100
1000
0010
0100
0001
0010
0001
,
1000
0100
1000
0010
0100
0001
0010
0001
1000
0100
1000
0010
0100
0001
0010
0001
,
1000
0100
1000
0010
0100
0001
0010
0001
1000
0100
1000
0010
0100
0001
0010
0001
,
1000
0100
0010
0001
1000
0010
0100
0001
1000
0100
0010
0001
1000
0010
0100
0001
,
1000
0100
0010
0001
1000
0010
0100
0001
1000
0100
0010
0001
1000
0010
0100
0001
,
1000
0100
1000
0010
0100
0001
0010
0001
1000
0100
0010
0001
1000
0010
0100
0001
,
0010
0001
1000
0100
1000
0010
0100
0001
0010
0100
1000
0001
0100
0001
0010
0100
,
1000
0100
0010
0001
1000
0010
0100
0001
1000
0100
0010
0001
1000
0010
0100
0001
,
1000
0100
1000
0010
0100
0001
0010
0100
1000
0001
0100
0001
1000
0100
0010
0001
,
1000
0010
0100
0001
0010
0001
1000
0100
0010
0001
1000
0010
0100
0001
0010
0001
,
1000
0100
0010
0100
1000
0010
0100
0001
0010
0001
1000
0100
0010
0001
1000
0010
,
0100
0001
0010
0001
1000
0100
0010
0001
1000
0010
0100
0001
0100
0001
0010
0100
,
1000
0100
0010
0001
1000
0010
0100
0001
1000
0100
0010
0001
1000
0010
0100
0001
,
1000
0100
0010
0001
1000
0010
0100
0001
1000
0100
0010
0001
1000
0010
0100
0001
,
1000
0100
0010
0001
1000
0010
0100
0001
1000
0100
0010
0001
1000
0010
0100
0001
,
1000
0100
0010
0001
1000
0010
0100
0001
1000
0100
0010
0001
1000
0010
0100
0001
,
1000
0100
1000
0010
0100
0001
0010
0100
0010
0001
1000
0100
1000
0010
0100
0001
,
0010
0100
1000
0010
0100
0001
1000
0100
1000
0010
0100
0001
0010
0100
1000
0001
,
0100
0001
1000
0100
0010
0001
1000
0010
0100
0001
0010
0001
1000
0100
0010
0001
,
1000
0010
0100
0001
0010
0001
1000
0100
1000
0010
0100
0001
0010
0100
1000
0001
,
0100
0001
1000
0100
0010
0001
1000
0010
0100
0001
0010
0001
1000
0100
0010
0100
,
1000
0010
0100
0001
0010
0100
0010
0001
1000
0100
1000
0010
1000
0001
1000
0100
,
1000
0001
0100
0001
0010
0001
1000
0001
0100
0001
0010
0100
1000
0001
1000
0100
,
1000
0001
1000
0010
0100
0001
0010
0100
0010
0001
1000
0100
1000
0010
0100
0001
,
0010
0100
1000
0001
0100
0001
1000
0100
1000
0001
1000
0010
1000
0001
0100
0001
,
1000
0001
0010
0001
1000
0100
0010
0001
1000
0010
0100
0001
0010
0001
1000
0100
,
0010
0001
1000
0010
0100
0001
1000
0100
1000
0001
1000
0010
1000
0100
0010
0001
,
1000
0010
1000
0100
0010
0001
1000
0100
1000
0010
1000
0100
0010
0100
1000
0100
,
0010
0001
1000
0010
0100
0001
0010
0001
1000
0100
0010
0001
1000
0010
0100
0001
,
0010
0001
1000
0100
0010
0001
1000
0010
0100
0001
0010
0001
1000
0100
0010
0001
,
1000
0010
0100
0001
0100
0001
0010
0100
1000
0010
0100
0001
1000
0100
0010
0001
,
1000
0010
0100
0001
1000
0100
0010
0001
1000
0010
0100
0001
1000
0100
0010
0001
,
1000
0001
0100
0001
1000
0010
1000
0001
0100
0001
1000
0010
1000
0001
0100
0001
,
1000
0010
1000
0001
0100
0001
1000
0010
1000
0001
0100
0001
1000
0010
1000
0001
,
0100
0001
1000
0010
1000
0001
0100
0001
1000
0010
1000
0001
0100
0001
1000
0010
,
1000
0001
0100
0001
1000
0010
1000
0001
0100
0001
1000
0010
1000
0001
0100
0001
,
1000
0100
0010
0001
1000
0010
0100
0001
0010
0100
1000
0010
0100
0001
1000
0100
,
0010
0100
1000
0010
0100
0001
0010
0100
0010
0001
1000
0010
0100
0001
1000
0100
,
0010
0001
1000
0010
0100
0001
1000
0100
0010
0100
1000
0010
0100
0001
0010
0100
,
0010
0001
1000
0010
0100
0001
1000
0100
0010
0100
1000
0001
0010
0100
0010
0001
,
1000
0100
0010
0001
1000
0010
1000
0010
1000
0100
0010
0001
1000
0010
1000
0010
,
1000
0100
0010
0001
1000
0010
1000
0010
1000
0100
0010
0001
1000
0010
1000
0010
,
1000
0100
0010
0001
1000
0010
1000
0010
1000
0100
0010
0001
1000
0010
1000
0010
,
1000
0100
0010
0001
1000
0010
1000
0010
1000
0100
0010
0001
1000
0010
1000
0010
,
1000
0100
0010
0001
1000
0010
1000
0010
1000
0100
0010
0001
1000
0010
1000
0010
,
0100
0001
0010
0100
1000
0010
0100
0001
1000
0100
0010
0001
1000
0010
0100
0001
,
0010
0100
1000
0001
0100
0010
1000
0100
0010
0001
1000
0010
0100
0001
0010
0100
,
2000
3001
0100
0001
0010
0100
1000
0010
0200
0301
0010
0001
0200
0000
0001
0000
,
1300
0001
0100
0001
1000
0010
1000
0010
1000
0001
0100
0001
1000
0010
1000
0010
,
1000
0001
0100
0001
1000
0010
1000
0010
1000
0001
0100
0001
1000
0010
1000
0010
,
1000
0100
0010
0001
1000
0100
1000
0100
1000
0100
0010
0001
1000
0100
1000
0100
,
1000
0100
0010
0001
1000
0100
1000
0100
1000
0100
0010
0001
1000
0100
1000
0100
,
1000
0010
0100
0001
0010
0100
0010
0001
1000
0010
0100
0001
0010
0100
0010
0001
,
1000
0010
0100
0001
0010
0100
0010
0001
1000
0010
0100
0001
0010
0100
0010
0001
,
1000
0010
0100
0001
0010
0100
0010
0001
1000
0010
0100
0001
0010
0100
0010
0001
,
1000
0100
1000
0001
0010
0100
1000
0010
0100
0001
1000
0100
1000
0010
0100
0001
,
0010
0001
1000
0100
0010
0100
1000
0010
1000
0010
0100
0001
0010
0100
1000
0010
,
0100
0001
0100
0001
0010
0100
1000
0010
0100
0001
1000
0001
1000
0100
1000
0010
,
0100
0001
1000
0100
1000
0010
0100
0001
0010
0100
0010
0001
1000
0100
0010
0001
,
1000
0010
0100
0001
0010
0001
1000
0100
0010
0001
1000
0010
0100
0001
1000
0100
,
0010
0001
1000
0010
1000
0100
0010
0001
1000
0010
0100
0001
0010
0001
1000
0100
,
0010
0001
1000
0010
0100
0001
0010
0001
1000
0100
0010
0001
1000
0010
0100
0001
,
0100
0010
1000
0100
0010
0100
1000
0010
0100
0001
0010
0001
1000
0100
0010
0001
,
1000
0010
0100
0001
1000
0100
1000
0010
0100
0001
0010
0001
1000
0100
0010
0001
,
0010
0100
1000
0001
0100
0001
1000
0100
0010
0001
1000
0010
0100
0001
0010
0001
,
1000
0100
0010
0001
1000
0010
0100
0001
0010
0001
1000
0100
0010
0001
1000
0010
,
0100
0001
1000
0100
1000
0010
0100
0001
0010
0100
1000
0001
0100
0001
1000
0100
,
0010
0001
1000
0010
0100
0001
0010
0001
1000
0100
0010
0001
1000
0010
0100
0001
,
0010
0100
1000
0001
0100
0001
1000
0100
0010
0100
1000
0010
0100
0001
0010
0001
,
1000
0100
0010
0001
1000
0010
1000
0100
0010
0001
1000
0010
1000
0100
0010
0001
,
1000
0010
1000
0100
0010
0001
1000
0010
1000
0100
0010
0001
1000
0010
1000
0100
,
0010
0001
1000
0010
1000
0100
0010
0001
1000
0010
1000
0100
0010
0001
1000
0010
,
0100
0001
1000
0100
1000
0010
0100
0001
0010
0100
1000
0001
0100
0001
1000
0100
,
0010
0001
1000
0010
0100
0001
0010
0001
1000
0100
0010
0001
1000
0010
0100
0001
,
0010
0100
1000
0001
0100
0001
1000
0100
1000
0010
0100
0001
0010
0100
1000
0010
,
0100
0001
1000
0100
1000
0010
0100
0001
0010
0001
1000
0100
0010
0001
1000
0010
,
0200
0000
0000
0000
,
0000
0000
0000
0000
,
0000
0000
0000
0000
,
0000
0000
0000
0000
,
030M
0000
0000
0000
,
MMMM
0000
0000
0000
;
