#TITLE:PARANOiA DisKConnEcTed;
#SUBTITLE:(Clean Mobius Mix);
#ARTIST:2MB vs Inspector K;
#TITLETRANSLIT:;
#SUBTITLETRANSLIT:;
#ARTISTTRANSLIT:;
#CREDIT:;
#BANNER:PARANOiA DisKConnEcTed-banner.PNG;
#BACKGROUND:PARANOiA DisKConnEcTed-bg.PNG;
#LYRICSPATH:;
#CDTITLE:CMGtitle.PNG;
#MUSIC:PARANOiA DisKConnEcTed (Clean Mobius Mix).mp3;
#OFFSET:0.000;
#SAMPLESTART:53.220;
#SAMPLELENGTH:10.500;
#SELECTABLE:YES;
#BPMS:0.000=178.000,8.000=179.500,16.000=180.500,108.000=182.500,112.000=180.500,144.000=90.500,160.000=180.500;
#STOPS:;
#BGCHANGES:;
// cache tags:
#FIRSTBEAT:8.000;
#LASTBEAT:319.500;
#SONGFILENAME:Songs/juju steps/PARANOiA DisKConnEcTed (Clean Mobius Mix)/PARANOiA DisKConnEcTed (Clean Mobius Mix).sm;
#HASMUSIC:1;
#HASBANNER:1;
#MUSICLENGTH:113.809;
// end cache tags

//---------------dance-single - ----------------
#NOTES:
     dance-single:
     :
     Beginner:
     1:
     0.161,0.245,0.185,0.000,0.000,107.000,21.000,0.000,0.000,0.000:
0000
0000
0000
0000
,
0000
0000
0000
0000
,
1000
0000
1000
1000
,
1000
1000
0000
1000
,
1000
0000
0000
0000
,
1000
0000
0000
0000
,
0001
0000
0000
0000
,
0001
0000
0000
0000
,
0100
0000
0000
0000
,
0100
0000
0000
0000
,
0010
0000
0000
0000
,
0010
0000
0000
0000
,
1000
0000
1000
0000
,
0001
0000
0001
0000
,
0100
0000
0100
0000
,
0010
0000
0010
0000
,
0001
0000
0001
0000
,
1000
0000
1000
0000
,
0010
0000
0010
0000
,
0100
0000
0100
0000
,
1001
0000
0000
0000
,
1000
0000
0000
0000
,
1001
0000
0000
0000
,
0001
0000
0000
0000
,
0110
0000
0000
0000
,
0100
0000
0000
0000
,
0110
0000
0000
0000
,
0010
0000
0000
0000
,
1001
0000
0000
0000
,
0001
0000
0000
0000
,
1001
0000
0000
0000
,
1000
0000
0000
0000
,
0110
0000
0000
0000
,
0010
0000
0000
0000
,
0110
0000
0000
0000
,
0100
0000
0000
0000
,
1000
1000
1000
0000
,
0001
0001
0001
0000
,
0100
0100
0100
0000
,
0010
0010
0010
0000
,
0001
0000
0000
0000
,
0001
0000
0000
0000
,
1000
0000
0000
0000
,
1000
0000
0000
0000
,
0010
0000
0000
0000
,
0010
0000
0000
0000
,
0100
0000
0000
0000
,
0100
0000
0000
0000
,
0110
0000
0000
0000
,
0110
0000
0000
0000
,
1001
0000
0000
0000
,
1001
0000
0000
0000
,
0110
0000
0000
0000
,
1001
0000
0000
0000
,
0110
0000
0000
0000
,
1001
0000
0000
0000
,
1000
0000
0001
0000
,
1000
1000
1000
0000
,
0001
0000
1000
0000
,
0001
0001
0001
0000
,
0100
0000
0010
0000
,
0100
0100
0100
0000
,
0010
0000
0100
0000
,
0010
0010
0010
0000
,
1000
0000
0000
0000
,
0001
0000
0000
0000
,
0100
0000
0000
0000
,
0010
0000
0000
0000
,
0001
0000
0000
0000
,
1000
0000
0000
0000
,
0010
0000
0000
0000
,
0100
0000
0000
0000
,
1001
0000
0000
0000
,
0000
0000
0000
0000
,
0110
0000
0000
0000
,
0000
0000
0000
0000
,
1001
0000
0000
0000
,
0000
0000
0000
0000
,
0110
0000
0000
0000
,
0000
0000
0000
1001
;

//---------------dance-single - ----------------
#NOTES:
     dance-single:
     :
     Easy:
     5:
     0.480,0.491,0.220,0.721,0.000,275.000,25.000,82.000,0.000,0.000:
0000
0000
0000
0000
,
0000
0000
0000
0000
,
2000
3000
0001
1000
,
0001
2000
3000
0001
,
1000
1000
0001
0001
,
1000
1000
0001
0001
,
2000
3001
0002
1003
,
2000
3001
0002
1003
,
0100
0100
0010
0010
,
0100
0100
0010
0010
,
0200
0310
0020
0130
,
0200
0310
0020
0130
,
0001
0001
1000
1000
,
0001
0001
1000
1000
,
0002
1003
2000
3001
,
0002
1003
2000
3001
,
0010
0010
0100
0100
,
0010
0010
0100
0100
,
0020
0130
0200
0310
,
0020
0130
0200
0310
,
2002
3003
1001
1001
,
1000
0001
1000
0001
,
0220
0330
0110
0110
,
0100
0010
0100
0010
,
2002
3003
1001
1001
,
0001
1000
0001
1000
,
0220
0330
0110
0110
,
0100
0010
0100
0010
,
2000
0000
0001
3001
,
0002
1003
2000
3001
,
0200
0000
0010
0310
,
0020
0130
0200
0310
,
0002
0000
1000
1003
,
2000
3001
0002
1003
,
0020
0000
0100
0130
,
0200
0310
0020
0130
,
1000
1001
0001
1001
,
0100
0110
0010
0110
,
1000
0001
0100
0010
,
0001
1000
0010
0100
,
2001
0001
0001
3001
,
0210
0010
0010
0310
,
1002
1000
1000
1003
,
0120
0100
0100
0130
,
2000
3100
0002
0103
,
0020
1030
0200
1300
,
0002
0013
2000
3010
,
0200
0301
0020
0031
,
2100
0100
0100
3100
,
0021
0001
0001
0031
,
1200
1000
1000
1300
,
0012
0010
0010
0013
,
2000
3010
0002
0013
,
0200
0301
0020
0031
,
2000
3100
0002
0103
,
0020
1030
0200
1300
,
0010
0010
0100
0100
,
0010
0010
0100
0100
,
0020
0130
0200
0310
,
0020
0130
0200
0310
,
0001
0001
1000
1000
,
0001
0001
1000
1000
,
0002
1003
2000
3001
,
0002
1003
2000
3001
,
0100
0100
0010
0010
,
0100
0100
0010
0010
,
0200
0310
0020
0130
,
0200
0310
0020
0130
,
1000
1000
0001
0001
,
1000
1000
0001
0001
,
2000
3001
0002
1003
,
2000
3001
0002
1003
,
0020
0000
0000
0000
,
0030
0000
0000
0000
,
0200
0000
0000
0000
,
0300
0000
0000
0000
,
0002
0000
0000
0000
,
0003
0000
0000
0000
,
2000
0000
0000
0000
,
3000
0000
0000
1001
;

//---------------dance-single - ----------------
#NOTES:
     dance-single:
     :
     Medium:
     6:
     0.595,0.666,0.633,0.580,0.000,336.000,72.000,66.000,0.000,0.000:
0000
0000
0000
0000
,
0000
0000
0000
0000
,
2002
3003
1100
0011
,
0101
1010
0220
0330
,
1000
0001
0100
0010
,
1000
0001
0100
0010
,
0001
1000
0010
0100
,
0001
1000
0010
0100
,
1000
0100
0010
0110
,
0001
0010
0100
0110
,
0100
0010
0001
1001
,
0010
0100
1000
1001
,
1000
0100
1000
0010
,
1000
0100
1000
0010
,
0001
0100
0001
0010
,
0001
0100
0001
0010
,
1000
0100
0001
0010
,
1000
0100
0001
0010
,
0001
0100
1000
0010
,
0001
0100
1000
0010
,
0001
1000
0001
0000
1000
0001
1000
0000
,
1001
1100
1001
0101
,
0010
0100
0010
0000
0100
0010
0100
0000
,
0110
0011
0110
1010
,
1000
0001
1000
0000
0001
1000
0001
0000
,
1001
1010
1001
0011
,
0100
0010
0100
0000
0010
0100
0010
0000
,
0110
0101
0110
1100
,
1000
0100
1000
0000
0001
0100
0001
0000
,
1000
0010
1000
0000
0001
0010
0001
0000
,
0100
1000
0100
0000
0010
1000
0010
0000
,
0100
0001
0100
0000
0010
0001
0010
0000
,
2000
3100
2000
3010
,
2000
3001
1001
1001
,
0002
0013
0002
0103
,
0002
1003
1001
1001
,
1000
0100
0010
0001
0001
0010
0100
1000
,
1000
0001
0100
0010
0001
1000
0010
0100
,
1000
0010
1000
0100
0001
0010
0001
0100
,
1000
0010
0001
0100
1000
0100
0001
0010
,
2000
0001
0010
3100
,
0002
1000
0100
0013
,
0200
0001
0010
1300
,
0020
1000
0100
0031
,
0002
0010
0100
1003
,
2000
0100
0010
3001
,
0020
0001
1000
0130
,
0200
1000
0001
0310
,
2000
0100
0001
3010
,
0002
0010
1000
0103
,
0200
1000
0010
0301
,
0020
0001
0100
1030
,
0002
0100
1000
0013
,
2000
0010
0001
3100
,
0020
1000
0100
0031
,
0200
0001
0010
1300
,
1000
1100
0001
0101
,
1000
1100
0001
0101
,
1100
0101
1100
0101
,
1001
0110
2002
3003
,
0001
0011
1000
1010
,
0001
0011
1000
1010
,
0011
1010
0011
1010
,
0110
1001
0220
0330
,
1000
0100
0010
0001
,
0001
0010
0100
1000
,
1000
0100
0010
0001
,
0001
0010
0100
1000
,
2000
3000
0002
0003
0200
0300
0020
0030
,
2000
3000
0002
0003
0200
0300
0020
0030
,
0002
0003
2000
3000
0020
0030
0200
0300
,
0002
0003
2000
3000
0020
0030
0200
0300
,
1001
1001
0000
0000
2000
0000
3100
0000
,
2200
3300
0000
2200
3300
0000
1100
0000
,
0110
0110
0000
0000
0002
0000
0013
0000
,
0022
0033
0000
0022
0033
0000
0011
0000
,
1001
1001
0000
0000
0200
0000
0301
0000
,
0202
0303
0000
0202
0303
0000
0101
0000
,
0110
0110
0000
0000
0020
0000
1030
0000
,
2020
3030
0000
2020
3030
0000
1010
0000
;

//---------------dance-single - ----------------
#NOTES:
     dance-single:
     :
     Hard:
     8:
     0.768,0.876,0.589,0.844,0.018,449.000,67.000,96.000,16.000,0.000:
0000
0000
0000
0000
,
0000
0000
0000
0000
,
1000
0100
0001
0000
0001
1000
0010
0100
,
0001
0010
1000
0000
1000
0010
0001
0100
,
1000
0001
0020
0000
0031
1000
0020
0000
,
1030
0001
0200
0000
0301
1000
0200
0000
,
0301
0010
0100
0000
1000
0100
0010
0000
,
0101
1010
0101
1010
,
0100
0010
2000
0000
3010
0100
2000
0000
,
3100
0010
0002
0000
0013
0100
0002
0000
,
0103
0010
0001
0000
0010
0100
1000
0000
,
0101
1010
0101
1010
,
2000
0000
0000
0000
0002
0000
3003
0000
1001
0000
0000
1000
0001
0000
1000
0000
,
0002
0000
2000
3003
2002
0000
3003
0000
,
0200
0000
0000
0000
0020
0000
0330
0000
0110
0000
0000
0100
0010
0000
0100
0000
,
0020
0000
0200
0330
0220
0000
0330
0000
,
0002
0000
0000
0000
2000
0000
3003
0000
1001
0000
0000
0001
1000
0000
0001
0000
,
2000
0000
0002
3003
2002
0000
3003
0000
,
0020
0000
0000
0000
0200
0000
0330
0000
0110
0000
0000
0010
0100
0000
0010
0000
,
0200
0000
0020
0330
0220
0000
0330
0000
,
1000
0100
0001
0000
0001
0100
1000
0000
,
1000
0100
0001
0100
1000
0100
0001
0000
,
0001
0010
1000
0000
1000
0010
0001
0000
,
0001
0010
1000
0010
0001
0010
1000
0000
,
1000
0100
1000
0010
0001
0100
0001
0010
,
1000
0100
1000
0010
1000
0100
1000
0010
,
0001
0100
0001
0010
0001
0100
0001
0010
,
0022
0033
0220
0330
2200
3300
0220
0330
,
0100
1000
0010
0000
0010
1000
0100
0000
,
0100
1000
0010
1000
0100
1000
0010
0000
,
0010
0001
0100
0000
0100
0001
0010
0000
,
0010
0001
0100
0001
0010
0001
0100
0000
,
0100
1000
0100
0001
0010
1000
0010
0001
,
0100
1000
0010
1000
0100
1000
0010
1000
,
0100
0001
0010
0001
0100
0001
0010
0001
,
0200
0000
0020
0300
2000
0030
0002
3000
,
1003
0100
0001
0010
1000
0100
0001
0010
,
0001
0100
1000
0010
0001
0100
1000
0010
,
1000
0100
0010
0001
1000
0010
0100
0001
,
0010
0100
1000
0001
0100
0010
1001
0110
,
1000
0100
0010
0001
1000
0100
0010
0001
,
1000
2000
3100
0200
0310
0020
0031
0001
,
1100
0110
0101
0110
,
1010
0110
0011
0110
,
0001
0010
0100
1000
0001
0010
0100
1000
,
0001
0002
0013
0020
0130
0200
1300
1000
,
0101
1001
1100
1001
,
0011
1001
1010
1001
,
1000
0001
0100
0010
1000
0001
0100
0010
,
1000
2000
3001
0002
0103
0200
0310
0010
,
0110
1010
0110
0011
,
0110
1100
0110
0101
,
0001
1000
0010
0100
0001
1000
0010
0100
,
0001
0002
1003
2000
3010
0020
0130
0100
,
1001
0011
1001
1010
,
1001
0101
1001
1100
,
2000
0000
3002
0000
1003
0001
0000
0001
,
1000
0100
0020
0000
0002
0000
0033
00MM
,
0200
0000
0320
0000
0130
0010
0000
0010
,
0100
0001
2000
0000
0020
0000
3030
M0M0
,
0002
0000
2003
0000
3001
1000
0000
1000
,
0001
0010
0200
0000
2000
0000
3300
MM00
,
0020
0000
0230
0000
0310
0100
0000
0100
,
0010
1000
0002
0000
0200
0000
0303
0M0M
,
2000
0000
3200
0000
0310
0001
0000
0001
,
0010
0100
2000
0000
0002
0000
3003
M00M
,
0200
0000
2300
0000
3001
0010
0000
0010
,
0001
1000
0020
0000
0200
0000
0330
0MM0
,
0002
0000
0023
0000
0130
1000
0000
1000
,
0100
0010
0002
0000
2000
0000
3003
M00M
,
0020
0000
0032
0000
1003
0100
0000
0100
,
1000
0001
0020
0000
0200
0000
0330
0MM0
,
1001
0100
0010
0100
0220
0000
0330
0000
,
0110
1000
0001
1000
2002
0000
3003
0000
,
1001
0010
0100
0010
0220
0000
0330
0000
,
0110
0001
1000
0001
2002
0000
3003
0000
,
1100
0001
0010
0000
0101
1000
0010
0000
,
1010
0001
0100
0000
0011
1000
0100
0000
,
1000
0100
0010
0001
1000
0010
0100
0001
,
0010
0100
1000
0001
0100
0010
0110
0000
;

//---------------dance-single - ----------------
#NOTES:
     dance-single:
     :
     Challenge:
     11:
     0.860,0.912,0.589,1.000,0.163,445.000,67.000,173.000,153.000,70.000:
0000
0000
0000
0000
,
0000
0000
0000
0000
,
2002
0000
0000
0000
3113
1000
0011
0100
,
1010
0001
2200
0000
0022
0000
3333
MMMM
,
2000
0000
0000
0000
0002
0000
0000
0000
3113
0000
0000
0100
0010
0000
1000
0000
,
0001
0100
0010
1000
0001
0100
0010
1000
,
0002
0000
0000
0000
2000
0000
0000
0000
3113
0000
0000
0010
0100
0000
0001
0000
,
1000
0010
0100
0001
1000
0010
0100
0001
,
2000
0000
0000
0000
0200
0000
0000
0000
3311
0000
0000
0001
0010
0000
0100
0000
,
1000
0100
0010
0001
0010
0100
1000
0100
,
0020
0000
0000
0000
0002
0000
0000
0000
1133
0000
0000
1000
0100
0000
0010
0000
,
0001
0010
0100
1000
0100
0010
0001
0010
,
0200
0000
0000
0000
0020
0000
0000
0000
1331
0000
0000
0100
1000
0000
0010
0000
,
1000
0100
1000
0010
1000
0100
1000
0010
,
0200
0000
0000
0000
0020
0000
0000
0000
1331
0000
0000
0010
0001
0000
0100
0000
,
0001
0010
0001
0100
0001
0010
0001
0100
,
1000
0000
0100
0000
0001
0000
0100
0000
1000
0000
0000
1000
0001
0000
0100
0000
,
1000
0010
0001
0010
2000
0010
3001
0000
,
1000
0000
0010
0000
0001
0000
0010
0000
1000
0000
0000
1000
0001
0000
0010
0000
,
1000
0100
0001
0100
2000
0100
3001
0000
,
2200
0010
3301
0000
1100
0001
0010
1000
,
2020
0000
3030
0100
0001
0010
0110
0000
,
0202
0010
1303
0000
0101
1000
0010
0001
,
0011
MMM1
MM1M
0000
M1MM
0000
1MMM
0000
,
1000
0100
0010
MMMM
0001
0010
0100
MMMM
,
1000
0100
0010
0001
0010
0100
1000
MMMM
,
0011
1000
0101
0010
1100
0001
1010
0100
,
2002
0000
0220
0000
,
3333
MMMM
MMMM
1000
0100
0001
0010
1000
,
1001
M00M
0000
1001
0100
0010
1001
0000
,
0220
1000
0331
0000
0011
1000
0100
0001
,
0101
MM1M
1MMM
0000
MMM1
0000
M1MM
0000
,
0100
0010
0001
MMMM
0010
0100
1000
MMMM
,
0001
0010
0100
M010
0M01
10M0
010M
0010
,
010M
10M0
MM00
0100
0001
0M0M
0010
1000
,
M0M0
0010
0001
00MM
1100
0010
0101
1000
,
0001
0100
0010
1000
0100
0010
0000
0001
0100
0000
0000
0001
0010
0100
1000
0000
,
0010
0000
0100
0010
0100
0001
0000
1000
0000
0100
0010
0000
0001
0000
0000
0000
,
0100
0010
0100
0010
0000
1000
0010
0000
0100
0000
0000
0001
0010
0001
0010
0000
,
0100
0000
1000
0010
1000
0010
0000
0100
0000
0001
0010
0100
0010
1000
0010
0001
,
0220
0000
0000
0030
0020
0000
0000
0030
0020
0030
0020
0000
0000
0000
0330
0000
,
2100
0000
0000
3000
2001
0000
0000
3000
2010
0000
0000
3000
2001
0000
0000
0000
,
0002
0000
0000
0003
0002
0000
0000
0003
0002
0003
0002
0000
0000
0000
3003
0000
,
1020
0000
0000
0030
0120
0000
0000
0030
0021
0000
0000
0030
0120
0000
0000
0000
,
0200
0000
0000
0300
0200
0000
0000
0300
0200
0300
0200
0000
0000
0000
0330
0000
,
0102
0000
0000
0003
1002
0000
0000
0003
0012
0000
0000
0003
1002
0000
0000
0000
,
2000
0000
0000
3000
2000
0000
0000
3000
2000
3000
2000
0000
0000
0000
3003
0000
,
0201
0000
0000
0300
0210
0000
0000
0300
1200
0000
0000
0300
0210
0000
0000
0000
,
0302
0000
0203
0000
2300
3002
0000
2003
,
3200
0302
0023
2030
,
3002
0000
2003
0000
3002
0203
0000
2300
,
3002
0203
2300
3002
,
2003
0000
3200
0000
0302
0203
0000
2300
,
3002
2003
3020
0032
,
0203
0000
2300
0000
3200
0302
0000
2003
,
3M2M
MM0M
MM0M
MM0M
2M0M
0M0M
0M0M
3M0M
2M0M
0M0M
0M0M
3M0M
2M0M
0M0M
3M3M
0000
,
2020
0000
0032
0000
0103
0002
0000
0013
,
0002
0023
0230
0320
,
0032
0000
0203
0000
0301
0020
0000
0031
,
0200
0000
0320
0000
0032
0000
3003
MMMM
,
0202
0000
2300
0000
3010
2000
0000
3100
,
2000
3200
0320
0230
,
2300
0000
3020
0000
1030
0200
0000
1300
,
0020
0000
0230
0000
2300
0000
3003
MMMM
,
0202
0000
2003
0000
3010
0002
0000
0013
,
2000
3020
0032
0023
,
2030
0000
3002
0000
0013
2000
0000
3010
,
0002
0000
2003
0000
3020
0000
0330
MMMM
,
2020
0000
3002
0000
0103
2000
0000
3100
,
0002
0203
2300
3200
,
0302
0000
2003
0000
3100
0002
0000
0103
,
2000
0000
3002
0000
0203
0000
0330
MMMM
,
2200
3311
MMMM
0000
1000
0100
0010
0001
,
1000
0010
0100
2002
0000
0000
3113
MMMM
,
0202
1313
MMMM
0000
0001
0010
0100
1000
,
0001
0100
0010
1000
0200
0020
0330
MMMM
,
2002
3113
MMMM
0000
0001
0010
0100
1000
,
0001
0100
0010
2002
0000
0000
3113
MMMM
,
0220
1331
MMMM
0000
1000
0100
0010
0001
,
1000
0010
0100
0002
2000
0000
3113
MMMM
;
