#TITLE:The Harvest;
#SUBTITLE:Unia;
#ARTIST:Sonata Arctica;
#TITLETRANSLIT:;
#SUBTITLETRANSLIT:;
#ARTISTTRANSLIT:;
#CREDIT:Shirogitsune;
#BANNER:The Harvest-bn.png;
#BACKGROUND:The Harvest-bg.png;
#LYRICSPATH:;
#CDTITLE:!ShiroTitle.PNG;
#MUSIC:09-the_harvest-qtxmp3.mp3;
#OFFSET:-0.361;
#SAMPLESTART:101.120;
#SAMPLELENGTH:9.900;
#SELECTABLE:YES;
#DISPLAYBPM:165.000;
#BPMS:0.000=165.000,342.500=82.500,343.500=165.000,482.000=82.500,544.000=165.000;
#STOPS:216.000=0.182
,217.000=0.182
,218.000=0.182
,219.000=0.182
,342.500=2.545
,544.000=1.091
,617.000=0.180
,618.000=0.180
,619.000=0.180
,620.000=0.180
,676.000=0.182
,677.000=0.182
,678.000=0.182
,679.000=0.182
;
#BGCHANGES:;
// cache tags:
#FIRSTBEAT:7.000;
#LASTBEAT:626.000;
#SONGFILENAME:Songs/toune 4/The Harvest/The Harvest.dwi.sm;
#HASMUSIC:1;
#HASBANNER:1;
#MUSICLENGTH:258.977;
// end cache tags

//---------------dance-single - ----------------
#NOTES:
     dance-single:
     :
     Hard:
     12:
     1.000,1.000,1.000,1.000,1.000,1798.000,474.000,530.000,0.000,0.000:
0000
0000
0000
0000
,
0000
0000
0000
0000
0000
0000
0000
0000
0000
0000
0000
0000
0000
0000
0000
0000
0000
0000
0000
0000
0000
0000
0000
0000
0020
0030
0000
0000
0000
0000
0000
0000
,
0102
0003
0100
0000
0001
0000
0100
0000
0001
0000
0000
0000
0100
0000
0000
0000
0101
0000
0000
0000
0010
0000
0000
0000
0101
0000
0000
0000
0001
0000
0000
0000
,
0110
0000
0000
0000
0010
0000
0000
0000
0101
0000
0000
0000
0001
0000
0000
0000
0110
0000
0000
0000
2001
3000
0000
0000
1100
0000
0000
0000
0120
0030
0000
0000
,
0100
0000
1000
0000
0210
0300
0001
0000
0010
0000
0000
0000
0210
0300
0000
0000
1100
0000
0000
0000
1000
0000
0000
0000
0110
0000
0000
0000
0100
0000
0000
0000
,
1100
1000
0110
0100
1100
1000
0110
0100
,
1000
0100
1000
0100
1001
0000
0010
0100
0010
0100
0010
0100
0011
0000
0001
0100
,
0001
0100
0001
0100
1010
0000
0010
0100
0001
0000
0000
0000
0110
0000
0000
0000
,
0200
0300
0010
0000
0200
0300
1000
0000
1200
0300
0000
0000
0010
0000
0000
0000
0200
0300
0001
0000
0200
0300
0010
0000
0200
0300
0000
0000
0020
0030
2000
3000
,
0200
0300
0010
0000
0200
0300
1000
0000
0210
0300
0000
0000
0001
0000
0000
0000
0020
0030
0001
0000
0020
0030
0100
0000
0020
0030
0000
0000
0002
0003
0200
0300
,
0020
0030
1000
0000
0020
0030
0100
0000
0120
0030
0000
0000
0100
0000
0000
0000
0002
0003
0100
0000
0002
0003
0010
0000
0002
0003
0000
0000
0020
0030
0200
0300
,
2000
3000
0010
0000
2000
3000
0100
0000
2100
3000
0000
0000
0010
0000
0000
0000
0200
0300
0001
0000
0200
0300
0010
0000
0200
0300
0000
0000
0002
0003
2000
3000
,
0020
0030
0100
0000
0020
0030
1000
0000
0120
0030
0000
0000
0001
0000
0000
0000
2000
3000
0001
0000
2000
3000
0100
0000
2000
3000
0000
0000
0200
0300
0020
0030
,
0002
0003
1000
0000
0002
0003
0010
0000
0012
0003
0000
0000
0010
0000
0000
0000
0200
0300
1000
0000
0200
0300
0010
0000
0200
0300
0000
0000
0020
0030
0002
0003
,
0200
0300
0010
0000
0200
0300
0001
0000
0201
0300
0000
0000
0001
0000
0000
0000
0020
0030
0001
0000
0020
0030
0100
0000
0020
0030
0000
0000
0200
0300
2000
3000
,
0020
0030
1000
0000
0020
0030
0100
0000
0120
0030
0000
0000
0100
0000
0000
0000
0020
0030
0100
0000
0020
0030
1000
0000
0020
0030
0000
0000
0100
0000
0002
0003
,
0020
0030
0002
0003
0200
0300
0002
0003
0210
0300
0000
0000
0200
0300
0000
0000
2000
3000
0100
0000
2000
3000
0001
0000
0200
0300
0000
0000
0020
0030
2000
3000
,
0200
0300
2000
3000
0002
0003
2000
3000
0210
0300
0000
0000
0002
0003
0000
0000
0020
0030
0100
0000
2000
3000
0001
0000
0020
0030
0000
0000
0020
0030
0200
0300
,
2000
3000
0200
0300
0020
0030
0200
0300
2001
3000
0000
0000
0020
0030
0000
0000
0200
0300
0001
0000
0020
0030
0001
0000
0200
0300
0000
0000
0020
0030
0200
0300
,
0002
0003
0200
0300
0020
0030
0200
0300
0021
0030
0000
0000
0002
0003
0000
0000
0020
0030
0100
0000
2000
3000
0010
0000
0200
0300
0000
0000
0002
0003
2000
3000
,
0002
0003
2000
3000
0020
0030
2000
3000
0201
0300
0000
0000
0020
0030
0000
0000
2000
3000
0100
0000
0020
0030
0001
0000
0020
0030
0000
0000
0020
0030
0002
0003
,
0200
0300
0002
0003
2000
3000
0002
0003
1200
0300
0000
0000
2000
3000
0000
0000
0020
0030
0100
0000
0002
0003
0100
0000
0020
0030
0000
0000
0200
0300
0000
0000
,
0002
0003
0000
0000
2000
3000
0000
0000
0002
0003
0000
0000
0000
0000
0000
0000
0020
0030
0000
0000
0000
0000
0000
0000
0020
0030
0000
0000
0200
0300
0000
0000
,
0000
0000
0100
0000
1000
0001
0010
0100
1100
0000
1000
0000
1100
0000
0000
0000
,
0110
0000
0011
0000
0120
0030
0012
0003
0000
0000
2100
3000
0110
0000
1200
0300
,
0000
0000
2100
3000
1001
0000
0102
0003
1001
0000
0210
0300
2100
3000
0002
0003
,
0101
0000
0110
0000
2001
3000
0102
0003
0000
0000
0210
0300
1001
0000
0120
0030
,
0000
0000
2100
3000
1010
0000
0110
0000
0102
0003
0011
0000
2001
3000
0000
0000
,
2200
3300
0022
0033
0220
0330
2002
3003
0000
0000
0220
0330
2002
3003
0220
0330
,
0000
0000
0022
0033
1001
0000
0202
0303
0110
0000
1001
0000
2100
3000
0020
0030
,
0210
0300
0102
0003
0011
0000
0210
0300
0000
0000
0021
0030
1001
0000
2100
3000
,
1001
0010
0100
1000
0010
0100
0001
0010
1100
0000
0010
0000
0120
0030
0000
0000
,
1001
0000
2020
3030
0202
0303
2020
3030
0000
0000
2200
3300
0022
0033
2200
3300
,
0000
0000
0220
0330
0022
0033
2200
3300
2002
3003
0220
0330
0202
0303
2020
3030
,
2200
3300
2002
3003
0202
0303
0220
0330
0000
0000
0202
0303
2020
3030
0202
0303
,
0000
0000
2200
3300
0220
0330
2200
3300
0202
0303
2002
3003
2200
3300
0220
0330
,
0022
0033
0220
0330
2002
3003
2020
3030
0000
0000
2002
3003
0220
0330
2002
3003
,
0000
0000
0220
0330
2002
3003
2020
3030
2200
3300
2020
3030
0220
0330
0101
0000
,
0220
0330
2020
3030
0202
0303
0022
0033
0000
0000
0220
0330
1100
0000
2200
3300
,
0000
0000
0220
0330
0022
0033
2002
3003
0201
0310
1000
0002
0013
0100
2000
3010
,
0100
0001
0200
0310
1010
0000
1000
0100
0010
0001
0100
0010
1010
0000
0100
0001
,
0010
0100
1000
0010
0101
0000
0001
0010
0100
1000
0010
0100
0101
0000
0010
0100
,
1000
0010
1000
0100
1100
0000
1000
0100
0010
0001
0100
0010
1100
0000
0100
1000
,
0010
0100
0001
0010
0011
0000
0100
1000
0001
0100
0001
0010
0011
0000
0001
1000
,
0100
1000
0010
0100
1001
0000
0100
1000
0001
0100
0001
1000
1001
0000
0001
0100
,
0010
1000
0100
0010
0110
0000
0001
1000
0100
0010
0100
1000
0110
0000
0001
0010
,
0100
1000
0100
0010
0101
0000
0001
0100
0010
1000
0001
0100
0101
0000
0010
1000
,
0001
0100
0010
1000
1100
0000
0100
0010
0001
0100
0010
1000
1100
0000
1000
0010
,
0110
0000
0101
0000
2010
3000
0120
0030
0000
0000
0102
0003
1001
0000
2010
3000
,
0000
0000
2100
3000
1001
0000
0210
0300
0101
0000
0012
0003
2001
3000
0200
0300
,
0011
0000
0101
0000
0210
0300
0102
0003
0000
0000
2100
3000
0110
0000
0012
0003
,
0000
0000
0101
0000
0210
0300
1010
0000
1200
0300
2001
3000
0102
0003
0000
0000
,
0202
0303
1001
0000
0022
0033
0220
0330
2200
3300
0110
0000
0101
0000
0220
0330
,
0000
0000
2020
3030
0202
0303
2002
3003
0220
0330
1100
0000
0202
0303
0220
0330
,
2020
3030
0000
0000
2002
3003
0000
0000
0202
0303
0000
0000
0220
0330
0010
0100
,
1001
0000
1001
0000
1001
0000
0000
0000
0011
0000
0210
0300
2100
3000
1002
0003
,
0000
0000
0210
0300
1002
0003
0210
0300
0000
0000
2100
3000
2001
3000
0210
0300
,
1001
0000
0021
0030
0110
0000
0000
0000
2100
3000
2010
3000
0210
0300
0102
0003
,
0000
0000
0012
0003
1200
0300
0012
0003
0000
0000
1200
0300
1100
0000
1002
0003
,
0101
0000
0110
0000
2002
3003
2002
3003
2020
3030
0202
0303
2002
3003
0220
0330
,
0000
0000
2200
3300
0022
0033
2200
3300
0000
0000
2020
3030
0220
0330
2002
3003
,
2200
3300
0022
0033
0220
0330
1001
0000
1100
0000
0012
0003
0101
0000
0120
0030
,
2000
3000
1020
0030
1001
0000
1200
0300
2000
3010
0100
0001
0020
0030
0100
1000
,
0020
0130
0002
0013
0220
0000
0000
0330
2000
3001
0100
0010
1010
0000
1000
0100
,
0010
0001
0100
0010
1010
0000
0100
0001
0010
0100
1000
0010
0101
0000
0001
0010
,
0100
1000
0010
0100
0101
0000
0010
0100
1000
0010
1000
0100
1100
0000
1000
0100
,
0010
0001
0100
0010
1100
0000
0100
1000
0010
0100
0001
0010
0011
0000
0100
1000
,
0001
0100
0001
0010
0011
0000
0001
1000
0100
1000
0010
0100
1001
0000
0100
1000
,
0001
0100
0001
1000
1001
0000
0001
0100
0010
1000
0100
0010
0110
0000
0001
1000
,
0100
0010
0100
1000
0110
0000
0001
0010
0100
1000
0100
0010
0101
0000
0001
0100
,
0010
1000
0001
0100
0101
0000
0010
1000
0001
0100
0010
1000
1100
0000
0100
0010
,
0001
0100
0010
1000
2200
0000
3300
0000
1000
0100
1000
0100
0010
0001
0010
0001
,
0100
0010
0100
0010
1000
0100
1000
0100
0011
0100
0010
0100
0001
1000
0001
1000
,
0010
0100
0010
0100
0001
0010
0001
0010
1001
0100
1000
0100
0010
0100
0010
0100
,
1000
0001
1000
0001
0100
0010
0100
0010
0100
0001
0100
0001
0010
0100
0010
0100
,
1001
0010
1000
0010
0100
0001
0100
0001
0101
0010
0001
0010
0110
0100
1000
0100
,
0011
0100
0010
0100
0101
0001
1000
0001
1100
0010
0001
0010
0100
0010
0001
1000
,
1100
0010
1000
0010
0100
0010
1000
0001
1001
0010
0100
1000
0010
1000
0100
0010
,
0001
1000
0100
0010
0001
0100
0010
1000
0001
0100
0001
1000
0100
0010
0001
0010
,
0100
1000
0010
0100
0010
0100
0001
0010
0100
1000
0100
0010
0001
0100
0001
0100
,
0010
1000
0100
1000
0100
0010
0100
1000
0010
0100
0001
0100
0010
1000
0010
1000
,
0100
1000
0010
0100
0001
0010
0001
0100
0010
0100
0001
1000
1001
0100
0010
0001
,
1000
0100
1000
0010
0110
1000
0100
1000
0001
0100
0001
0010
0011
0100
1000
0001
,
0010
0100
0010
0001
0101
1000
0001
0100
0010
1000
0100
0010
1001
0100
0010
1000
,
0001
0100
0010
0100
1001
0100
0010
0001
0100
0010
1000
0100
0110
1000
0010
0100
,
0001
1000
0100
0010
1001
0010
0100
0001
0102
0000
0100
0003
0000
0000
0000
0000
,
0100
0000
0110
0000
0001
0000
0101
0000
0100
0010
1000
0010
0100
0001
0100
0010
,
1000
0100
0010
0100
1000
0001
0010
0001
0100
0010
0100
0010
1000
0100
1000
0100
,
0010
0001
0010
0100
0010
0001
0100
0010
1001
0010
0100
0000
0010
0000
0000
0000
,
0110
0001
0100
0000
0010
0000
0000
0000
0110
1000
0100
0000
0100
0010
0100
0000
,
0100
1000
0100
0000
0000
0000
0100
0000
1001
0100
0010
0000
0010
0000
0010
1000
,
1010
0100
0001
0000
1000
0000
0000
0000
1100
0010
0100
0000
0010
0100
0001
0010
,
1100
0010
0100
0000
0000
0000
0010
0000
0010
1000
0001
0100
0010
1000
0100
1000
,
0001
0100
0001
1000
0010
0100
0010
1000
0001
0010
0100
1000
0001
0100
0001
0000
,
0001
0100
0010
0100
0001
0000
0000
0000
0010
0001
0010
0100
0000
0100
0010
0000
,
0001
0100
0010
1000
0000
1000
0100
0000
0010
0001
1000
0100
0000
0100
1000
0000
,
0110
0000
1010
0000
0110
0000
0101
0000
0001
0100
0001
0000
0011
0000
0011
0000
,
0010
0100
0010
0000
0110
0000
1100
0000
1000
0001
1000
0000
1100
0000
1100
0000
,
0100
0000
0011
0000
0100
0000
0100
0000
0101
0010
0100
0000
0100
0000
1100
0000
,
1001
0001
0010
0000
0001
0000
0010
0000
0011
0100
1000
0010
0100
0000
0110
0000
,
0110
0001
1000
0000
0100
0000
0100
0000
1100
0000
1000
0010
1000
0000
1100
0000
,
2100
0000
3010
0000
1020
0000
0130
0000
0010
1000
0010
0100
0001
0010
0001
0100
,
0010
0100
0001
0010
0001
1000
0100
0010
0001
0100
0010
0100
0001
0100
0010
1000
,
0100
1000
0010
0100
0010
1000
0010
0100
0001
0010
0100
1000
0010
0100
0010
1000
,
0100
1000
0001
0010
0001
0100
0001
0010
0100
1000
0100
0010
0001
0100
0010
1000
,
0001
0010
0100
1000
0001
0100
0010
1000
0001
0010
0100
1000
0010
0100
0001
0100
,
0010
1000
0100
1000
0010
0100
0001
0100
0020
1030
0200
0000
2300
3000
0002
0003
,
0022
0030
0203
0300
0020
0030
2000
3000
0200
0310
0220
0030
2300
3000
2000
3000
,
0020
0030
0200
0300
0002
0000
0203
0300
0020
1030
1002
0203
0320
2030
3002
0023
,
0230
2300
3020
0230
0302
2003
3200
0320
0032
0010
0023
0000
0130
0000
0210
0320
,
0032
0000
0000
0000
2003
0000
3020
0230
0302
1000
2000
0000
3003
0000
2100
3020
,
0230
0000
0300
0000
2020
0000
3000
0000
0230
0302
0023
0230
0320
0032
2003
3200
,
0320
0032
0203
0320
0230
0302
0023
0230
2300
3200
0320
0032
0203
0320
2030
3020
,
0230
0302
0203
0320
2030
3200
2300
3020
0230
0302
0023
0032
0203
0320
2030
3200
,
0320
0000
0230
0000
2300
0000
3002
0000
0203
0000
0320
0000
2030
0000
3200
0000
0320
0000
0230
0000
2300
0000
3002
0000
0023
0000
0230
0000
2300
0000
3002
0003
,
0210
0000
2300
0000
3002
0000
0203
0000
0320
0000
2030
0000
3002
0000
0203
0300
0102
0000
0023
0000
2030
0000
3200
0000
0320
0000
0032
0000
2003
0000
3200
0300
,
0021
0000
0000
0230
0000
0000
0320
0000
0000
2030
0000
0000
3020
0000
0200
0030
0302
0000
0203
0000
0320
0000
2030
0000
3020
0000
0030
0100
0000
0000
0001
0000
0000
0100
0000
0000
0101
0000
0000
0000
0000
0000
0000
0000
0000
0000
0000
0000
,
1000
0100
1000
0100
1100
0000
0000
0000
1001
0000
0010
0000
0110
0000
1000
0000
,
0001
0000
0010
0000
0100
0000
1000
0000
0100
1000
0100
1000
1100
0000
0000
0000
,
0001
0100
0001
0100
0101
0000
0000
0000
1001
0000
1000
0000
0100
0000
0010
0000
,
0001
0100
0010
1000
1100
0000
0100
0000
1001
0000
0010
0101
0000
0001
0011
1001
,
0100
0000
1100
1000
0010
0100
0110
0101
1001
0000
0001
1100
0000
1000
0110
1001
,
0100
0000
0110
0010
0001
1000
0101
0110
1010
0000
0100
0110
0000
1000
1100
0110
,
0001
0000
0011
0100
0010
0100
0101
1001
1100
0000
1000
1001
0000
0001
1001
0110
,
1000
0000
1010
0100
0001
0010
0011
0100
1001
0000
0010
0101
0010
0000
0110
1100
,
0010
0000
0000
0100
0000
0000
0110
0000
0000
0001
0000
0000
1000
0000
0000
0100
0000
0000
0011
0000
0000
0101
0000
0000
0110
0000
0000
1000
0100
0010
0001
0000
0000
0011
0000
0000
0000
0000
0000
0000
0000
0000
0011
0000
0000
1100
0000
0000
,
0000
0000
1100
0010
0110
1000
1100
1001
0001
0000
0001
0011
0000
0000
1001
0110
,
0000
0000
0110
1000
0100
0000
1100
0011
0101
0000
0010
0101
0000
0000
1001
0101
,
0000
0000
0000
0000
1001
0000
0100
0000
0010
0000
0001
0100
0101
0000
0110
0000
1001
0000
0000
0000
0000
0000
1100
0000
0100
0000
1000
0000
0010
0000
0110
0000
,
0000
0000
0110
0000
0101
0010
0110
1000
0010
0000
0000
1010
0000
0100
0001
0101
,
0000
0001
1000
0001
0010
0001
1001
1000
0010
0000
0000
0110
1010
0000
1100
1001
,
0000
0101
1000
1100
0010
0101
0010
1100
0001
0000
0000
0101
0010
1000
0100
0110
,
1000
0000
0010
0000
0100
0000
0001
0000
0011
0000
0010
0100
0110
0000
1000
0000
1001
0000
0000
0000
0000
0000
1001
0000
0100
0000
0000
0000
0110
0000
1100
0000
,
0000
0000
1001
0000
1010
0100
0101
0001
0010
0000
0000
0110
0001
0000
0011
1100
,
0000
1000
0010
1000
0001
0100
0101
0001
1000
0000
0000
1100
0011
0000
0101
1010
,
0100
1100
0010
0011
0001
0101
0010
2001
0002
0000
3000
0000
0000
0000
0000
0000
,
0003
0000
0000
0000
0010
0100
0010
0100
1000
0010
1000
0010
0100
0001
0100
0001
,
0010
0100
0010
0100
1000
0010
1000
0010
0100
0001
0100
0001
0101
0010
0100
1000
,
0100
0010
0001
0100
0101
0010
1000
0100
1100
0010
0001
0100
0110
0001
0010
0100
,
1100
1000
0010
0100
0101
0001
0010
0100
1000
0010
0100
0001
1001
0010
0001
0100
,
0010
0100
0001
0010
0011
0100
1000
0010
0100
0010
0100
0001
1000
0100
1000
0100
,
0010
0100
1000
0010
0100
0001
0100
0010
1000
0100
1000
0001
0100
0010
1000
0100
,
0010
0001
0100
0010
0100
0001
1000
0100
0010
0001
0010
0001
0100
0010
1000
0100
,
1000
0001
0100
0001
0010
0001
0100
0010
1000
0100
1000
0010
0100
0010
1000
0100
,
0010
0001
0100
0010
1000
0100
1000
0010
0101
0010
0100
1000
0001
0010
0001
1000
,
1100
0010
0100
0001
0100
0010
1000
0100
0110
0010
0001
0010
0100
1000
0001
0010
,
0011
0001
0100
0010
0100
0001
1000
0010
1010
0100
0001
0100
0010
1000
0001
0010
,
0011
0100
1000
0010
1000
0100
0010
0001
0110
1000
0100
0010
0001
0010
0100
1000
,
0110
0100
0001
0010
0011
0000
1100
0000
0010
0000
1010
0000
0100
0000
0001
0000
,
1000
0000
0110
0000
0001
0000
0011
0000
0100
0000
1100
0010
0100
0000
0101
0000
,
0110
0010
1010
1000
1001
0110
0000
1001
,
0001
0011
0100
1000
1100
0010
0101
0000
,
0011
0000
0110
0100
1100
0110
0000
0101
,
0001
0000
0011
0000
0000
0000
0011
0000
1001
0000
1000
0000
1000
0000
1000
0010
,
0100
0100
0101
0000
0011
0000
1100
0000
,
1010
0000
0110
0001
0110
0000
0100
0100
,
0100
0100
0100
0100
0100
0000
0000
0000
;
