#TITLE:Vertex GAMMA;
#SUBTITLE:;
#ARTIST:Silvia;
#TITLETRANSLIT:;
#SUBTITLETRANSLIT:;
#ARTISTTRANSLIT:;
#CREDIT:;
#BANNER:vertexgamma-bn.png;
#BACKGROUND:vertexgamma-bg.png;
#LYRICSPATH:;
#CDTITLE:!HSTTitle.png;
#MUSIC:vertexgamma.mp3;
#OFFSET:-0.220;
#SAMPLESTART:65.716;
#SAMPLELENGTH:12.000;
#SELECTABLE:YES;
#BPMS:0.000=300.000;
#STOPS:;
#BGCHANGES:;
// cache tags:
#FIRSTBEAT:4.000;
#LASTBEAT:600.000;
#SONGFILENAME:Songs/hard shit/Vertex GAMMA/vertexgamma.sm;
#HASMUSIC:1;
#HASBANNER:1;
#MUSICLENGTH:122.911;
// end cache tags

//---------------dance-single - ----------------
#NOTES:
     dance-single:
     :
     Hard:
     15:
     1.000,1.000,1.000,0.024,1.000,1669.000,365.000,3.000,0.000,0.000:
0000
0000
0000
0000
,
1001
0010
0001
0100
0000
0010
1000
0100
,
0011
0001
0100
0010
1010
0000
0000
0000
,
0110
0000
0000
0000
,
0101
0000
0011
0000
,
1001
1000
0001
0100
0000
0100
0010
1000
,
1100
0010
0001
0100
1010
0100
0010
0001
,
0110
1000
0100
0010
0000
0000
1000
0001
,
1000
0000
0000
0000
,
1001
0100
0010
0001
0000
0001
1000
0010
,
0101
0010
0100
1000
0110
0001
1000
0010
,
1001
0010
1000
0100
0000
0100
1000
0100
,
0011
0100
1000
0001
0110
1000
0100
0010
,
1001
0010
0001
0010
0000
0010
0001
1000
,
0011
1000
0001
1000
0110
0001
0010
0100
,
1001
0010
0001
1000
0000
0010
1000
0001
,
0101
0000
0010
0000
1000
0000
0001
0000
0020
0000
0000
0000
0130
1000
0100
1000
,
0011
0100
1000
0001
0100
0010
0100
0001
0010
0001
0100
0010
1000
0100
1000
0001
,
0100
0010
1000
0100
1000
0001
0100
0001
0010
0001
0100
0010
1000
0010
0100
0001
,
0010
0001
0100
0010
1000
0100
0010
0001
0100
0001
0010
0001
1000
0100
1000
0001
,
1000
0010
0100
0010
0100
0001
0010
0001
0100
0010
1000
0100
1000
0010
1000
0001
,
0100
0010
1000
0100
1000
0001
0100
0001
0010
0100
1000
0001
0100
0001
1000
0010
,
1000
0001
0010
0001
0100
0010
1000
0100
1000
0001
0010
0001
0010
0100
1000
0001
,
0100
0010
0100
0010
1000
0100
1000
0100
0010
0001
0010
0001
0100
0010
1000
0100
,
1000
0010
1000
0001
0100
0010
1000
0100
0010
0001
0100
0010
1000
0100
0010
0001
,
1001
1010
1001
0011
0000
0110
1100
0110
,
0011
1001
1100
1001
0011
1100
0110
1100
,
0110
1001
0110
1001
0000
0011
1001
1100
,
1001
0011
1001
1100
0110
0011
1001
0011
,
1100
1010
1100
1010
0000
0011
0110
1100
,
0110
0011
0110
1100
0110
1100
0110
0011
,
1001
0110
0000
1001
0000
0101
1001
1010
,
1001
0101
1010
1100
0011
0110
1001
0110
,
1001
0010
0001
0010
0100
1000
0100
1000
0001
0100
0010
1000
0010
1000
0100
0010
,
0100
0010
0100
1000
0001
0100
0001
0010
0001
0100
0010
1000
0010
0100
0010
1000
,
0100
0010
0001
0010
0001
0010
0100
1000
0100
1000
0100
0010
0001
0100
0010
1000
,
0100
0010
0100
1000
0001
1000
0001
0100
0010
1000
0100
0010
0001
0010
0001
0010
,
0100
1000
0100
1000
0001
0100
0001
0010
0001
0100
0010
1000
0100
0010
0001
0010
,
0001
0100
0010
1000
0010
1000
0100
0010
0001
0010
0001
0100
0010
1000
0100
0010
,
0001
0010
0001
1000
0010
1000
0001
0100
0001
1000
0100
1000
0010
0100
0001
0010
,
0001
0100
0010
1000
0100
1000
0001
0010
0001
1000
0001
1000
0001
1000
0001
1000
,
0010
1000
0001
0010
0001
0100
0010
1000
0010
0100
0001
0010
0001
0100
0010
1000
,
0100
1000
0001
0100
0010
1000
0100
0010
0001
0100
0010
1000
0100
0010
0001
1000
,
0001
0010
0001
1000
0010
0100
0001
0010
0001
1000
0010
0100
0001
0010
0001
0100
,
0010
1000
0100
1000
0010
0100
0001
0010
0001
1000
0010
0100
0001
0010
0001
1000
,
0010
0100
0001
1000
0010
0100
0010
1000
0100
1000
0001
0010
0001
1000
0010
0100
,
0001
1000
0010
0100
0001
1000
0100
1000
0010
1000
0100
0010
0001
1000
0001
0100
,
0010
0100
0001
0100
0001
0010
0100
0010
0100
1000
0100
1000
0010
0100
0001
0010
,
0001
1000
0001
1000
0001
1000
0001
1000
0100
0010
0100
0010
0100
0010
0100
0010
,
1001
0110
1001
0110
0000
0101
0011
0110
,
1100
0110
1100
1001
0101
0110
1010
1100
,
0110
0011
0110
1100
0000
0011
0110
0011
,
0101
0110
1010
1100
0110
0011
0110
1100
,
1001
0011
1001
1010
0000
1001
0011
1001
,
1100
1001
0101
0110
1010
1100
0110
0011
,
1001
1100
0000
0011
0000
0110
1100
0110
,
0011
0000
0101
0000
0001
1000
0001
1000
0110
0000
1100
0000
1001
0000
0110
0000
,
0001
0010
0001
0100
0010
1000
0100
1000
0001
0100
0010
1000
0100
1000
0001
0100
,
0001
0010
0001
1000
0001
0010
0001
0100
0010
1000
0100
1000
0010
0100
0001
0010
,
0001
0100
0010
1000
0100
1000
0001
0100
0010
1000
0100
0010
0001
0100
0010
1000
,
0001
0100
0001
0010
0100
1000
0001
1000
0001
0100
0010
1000
0001
0010
0001
0100
,
0010
1000
0100
1000
0001
0100
0010
1000
0100
0010
0001
0010
0001
0100
0010
1000
,
0100
0010
0001
0010
0001
0100
0010
1000
0100
0010
0001
0100
0010
0100
0001
0010
,
0001
0100
0010
1000
0100
1000
0001
0100
0010
1000
0100
0010
0001
1000
0001
0100
,
0001
1000
0001
1000
0001
0100
0001
0100
0001
0010
0100
1000
0001
0100
0010
1000
,
1001
0010
0001
1001
0000
0001
0101
0000
,
1010
0100
0001
0011
0000
0010
0011
0000
,
1001
0010
0100
1100
0000
1000
1100
0000
,
0101
0010
1000
1010
0000
1000
1001
0000
,
0101
0010
0100
0101
0000
0001
0101
0000
,
0011
0010
0100
1100
0000
1000
1100
0000
,
1001
0010
0100
1001
0000
0001
1001
0000
,
0011
0000
0100
0000
1000
0000
0011
0000
0000
0000
0010
0001
0010
0000
0000
0000
,
0011
0000
0110
0000
1100
1100
1010
0000
,
0101
0000
0011
0110
0000
0110
1100
0000
,
1001
0000
0110
0000
0000
1100
0011
0000
,
0101
0000
0101
0000
1001
0000
1010
0000
0000
0000
1010
0000
1001
0000
0001
1000
,
0001
0000
1001
0000
0000
0011
1100
0000
,
1001
0000
0101
0110
0000
0110
1001
0010
,
0001
0100
0010
1000
0000
0100
1000
0100
,
0010
0000
0001
0010
0001
0000
0001
0000
0011
0000
0010
0100
0010
0000
0110
0000
,
0100
1000
0100
1000
0100
1000
0100
1000
0001
0010
0001
0010
0001
0010
0001
0010
,
0100
1000
0001
0100
0001
1000
0010
1000
0001
0010
0001
0100
0010
1000
0100
1000
,
0001
0100
0010
1000
0001
0010
0001
1000
0010
1000
0100
1000
0010
0100
0001
0010
,
0001
1000
0001
0010
0100
1000
0001
0100
0010
1000
0100
0010
0001
0010
0001
0100
,
0010
1000
0100
1000
0001
0100
0010
1000
0100
1000
0001
0010
0001
0100
0010
1000
,
0100
1000
0001
0100
0010
1000
0010
1000
0001
0010
0001
0100
0010
1000
0100
0010
,
0001
0010
0001
0100
0001
1000
0100
1000
0001
0010
0001
1000
0010
1000
0001
0010
,
0001
0100
0001
1000
0001
1000
0010
1000
0100
1000
0100
0010
0001
0010
0001
0100
,
0010
1000
0010
0100
0001
0010
0001
0010
0001
1000
0001
1000
0001
1000
0001
1000
,
0100
0010
0001
1000
0001
0010
0001
0100
0010
1000
0100
1000
0001
0100
0010
1000
,
0100
1000
0001
0100
0010
1000
0100
1000
0001
0100
0010
1000
0100
1000
0001
0010
,
0001
0100
0010
1000
0100
1000
0001
0010
0001
1000
0001
1000
0100
1000
0001
0100
,
0010
1000
0100
1000
0001
0010
0001
0100
0010
1000
0100
1000
0001
0010
0001
0100
,
0010
1000
0001
0010
0001
0100
0010
1000
0100
1000
0001
0010
0001
0010
0100
1000
,
0001
0100
0010
1000
0001
0010
0001
0100
0010
1000
0010
0100
0001
0010
0001
0100
,
0001
0010
0100
1000
0001
0100
0010
1000
0100
0010
0001
0010
0001
0100
0010
1000
,
0001
0010
0001
0010
0001
0010
0001
0010
0100
1000
0100
1000
0100
1000
0100
1000
,
0001
0010
0001
1000
0010
1000
0100
1000
0001
0100
0010
1000
0100
0010
0001
0010
,
0001
1000
0100
1000
0001
0010
0001
0100
0010
1000
0100
1000
0001
0010
0001
0100
,
0010
1000
0100
0010
0001
1000
0001
0010
0001
0100
0010
1000
0100
1000
0001
0010
,
0001
0100
0010
1000
0010
1000
0100
0010
0001
0010
0001
0100
0010
1000
0100
1000
,
0001
0010
0001
0100
0010
1000
0100
1000
0010
1000
0001
0010
0001
0100
0010
1000
,
0100
0010
0001
0010
0001
0100
0010
1000
0100
1000
0001
0010
0001
0100
0010
1000
,
0100
1000
0100
1000
0001
0010
0001
0100
0010
1000
0100
0010
0001
0100
0010
1000
,
0100
0010
0001
0010
0001
0100
0010
1000
0001
1000
0001
1000
0001
1000
0001
1000
,
0001
0010
0001
0010
0100
1000
0100
1000
0001
0100
0010
1000
0100
0010
0001
0100
,
0010
1000
0010
1000
0100
1000
0001
0010
0001
0100
0010
1000
0010
1000
0001
0010
,
0001
0100
0010
1000
0100
0010
0001
0010
0001
0100
0010
1000
0100
1000
0001
0100
,
0001
0010
0100
1000
0001
0010
0001
0100
0010
1000
0100
1000
0001
0010
0001
0100
,
0010
1000
0100
1000
0001
0010
0001
0100
0010
1000
0100
1000
0001
0010
0001
0100
,
0010
1000
0010
1000
0100
0010
0001
0010
0001
0100
0010
1000
0100
1000
0001
0010
,
0001
1000
0100
1000
0001
0010
0001
0100
0010
1000
0100
1000
0001
0010
0001
0100
,
0010
1000
0100
1000
0100
1000
0001
0010
0001
1000
0001
1000
0001
1000
0001
1000
,
1001
0011
1001
1010
0000
1010
1100
0110
,
0011
1001
1100
0110
1100
0011
0000
0000
,
0110
1100
0110
0011
0000
0011
0101
0110
,
1010
1100
0110
0011
0110
1100
0110
0011
,
0101
0110
1010
0110
0000
0110
0101
0011
,
0110
1100
0110
0011
0110
1100
1001
0101
,
1001
0011
1001
1010
0000
1010
1001
0011
,
0101
0000
0110
0000
0010
1000
0010
1000
0001
0010
0001
1000
0001
0010
0001
1000
,
0001
0010
0001
0100
0010
1000
0100
1000
0100
0010
0001
0010
0001
0100
0010
1000
,
0100
1000
0001
0010
0001
0100
0010
1000
0100
1000
0001
0010
0001
0100
0010
1000
,
0100
1000
0001
0010
0001
0100
0010
1000
0100
0010
0001
0010
0001
0100
0010
1000
,
0010
1000
0100
1000
0001
0010
0001
0100
0010
0100
0001
0010
0001
0010
0100
1000
,
0010
0100
0010
1000
0100
0010
0001
0010
0001
0100
0010
1000
0100
1000
0010
0100
,
0001
0010
0100
1000
0001
0100
0010
1000
0100
1000
0001
0010
0001
0100
0010
1000
,
0100
1000
0001
0010
0001
0100
0010
1000
0100
1000
0001
0010
0001
0100
0010
1000
,
0100
1000
0100
1000
0001
0010
0001
0010
0001
1000
0001
1000
0001
1000
0001
1000
,
1001
0011
1001
1010
0000
1010
1001
0011
,
0101
0110
1010
1100
1010
0110
0101
0011
,
0110
1100
0110
0011
0000
0011
0110
1100
,
0110
0011
0101
1010
1100
1010
0101
0011
,
0110
1100
0110
0011
0000
0011
1001
1010
,
1100
0110
0011
0101
0110
1010
1100
0110
,
0011
1001
1010
1001
0000
0011
0101
0110
,
1010
1100
0110
0011
1001
1010
1001
0011
,
1001
1100
1001
0011
0000
0011
1001
1010
,
1100
0110
0011
1001
1010
1001
0011
1001
,
1100
0011
0101
1010
0000
1010
1001
0101
,
0011
0110
1100
0110
0011
0110
1100
1010
,
0101
0011
0110
1100
0000
1100
1001
0101
,
0011
1001
1010
1100
1001
0011
0101
0110
,
1010
1001
0011
1001
0000
1001
0110
1001
,
0101
1010
1100
0011
1001
1100
0011
0110
,
2002
0000
0000
0000
,
0000
0000
0000
0000
,
0000
0000
0000
0000
,
0000
0000
0000
0000
,
3003
0000
0000
0000
;
