#TITLE:Max ReBorn part 2;
#SUBTITLE:;
#ARTIST:Omega vs Z vs DM Ashura vs 2mb;
#TITLETRANSLIT:;
#SUBTITLETRANSLIT:;
#ARTISTTRANSLIT:;
#CREDIT:;
#BANNER:MAX ReBorn part 2-bn.png;
#BACKGROUND:MAX ReBorn part 2-bg.JPG;
#LYRICSPATH:;
#CDTITLE:cdtitle.png;
#MUSIC:Max ReBorn part 2.mp3;
#OFFSET:0.380;
#SAMPLESTART:52.060;
#SAMPLELENGTH:12.000;
#SELECTABLE:YES;
#BPMS:0.000=300.000,132.000=280.000,164.000=300.000,196.000=75.000,204.000=300.000,236.000=75.000,248.000=150.000,256.000=300.000,320.000=290.000,320.500=274.999,321.000=255.000,321.500=245.000,322.000=240.000,322.500=235.000,323.000=200.000,324.000=140.000,325.000=90.000,326.000=75.000,326.500=85.000,327.000=140.000,327.500=160.000,328.000=299.999,392.000=599.995,516.000=150.000;
#STOPS:;
#BGCHANGES:;
// cache tags:
#FIRSTBEAT:20.000;
#LASTBEAT:525.000;
#SONGFILENAME:Songs/toune 3/Max ReBorn part 2/Max ReBorn part 2.sm;
#HASMUSIC:1;
#HASBANNER:1;
#MUSICLENGTH:126.623;
// end cache tags

//---------------dance-single - ----------------
#NOTES:
     dance-single:
     :
     Easy:
     8:
     0.407,0.880,0.087,0.308,0.012,311.000,11.000,39.000,0.000,0.000:
0000
0000
0000
0000
,
0000
0000
0000
0000
,
0000
0000
0000
0000
,
0000
0000
0000
0000
,
0000
0000
0000
0000
,
0001
0000
0100
0000
,
1000
0000
0100
0000
,
0010
0000
0100
0000
,
1000
0010
0002
0000
,
1003
0000
0010
0000
,
0100
0000
0010
0000
,
1000
0000
0100
0000
,
0010
0000
0100
0000
,
0001
0000
0100
0000
,
0010
0000
1000
0000
,
0010
0100
0001
0100
,
1000
0010
0200
0000
,
0301
0000
0100
0000
,
1000
0000
0100
0000
,
0001
0100
0001
0000
,
0010
1000
0010
1000
,
0100
0000
1000
0000
,
0100
0000
0001
0000
,
0010
1000
0010
0000
,
0100
0001
0100
0001
,
0010
0000
1000
0000
,
0001
0000
0100
0000
,
0010
0100
0010
0000
,
0001
1000
0001
1000
,
0001
0000
0100
0000
,
0010
0000
1000
0000
,
0010
0100
1000
0010
,
0100
0001
0200
0300
,
0002
0000
0000
0000
,
0000
0000
0000
0000
,
2003
0000
0000
3020
,
0000
0000
0230
0000
,
0302
0000
0000
0000
,
0000
0000
0000
0000
,
2003
0000
0000
3200
,
0000
0000
0320
0000
,
1030
0000
0010
0000
,
0100
0000
0001
0000
,
1000
0000
0010
0000
,
0100
0001
0100
0010
,
1000
0000
0010
0000
,
0100
0000
0001
0000
,
1000
0000
0010
0100
,
0001
1000
0010
0100
,
0002
0023
0230
2300
,
3020
0230
2300
3200
,
0301
0000
0101
0000
,
1000
0000
1100
0000
,
0010
0000
0110
0000
,
1000
0000
1001
0000
,
0010
0000
1100
0000
,
0100
0000
0011
0000
,
1000
0010
0100
0001
,
1000
0010
0100
0010
,
2000
0000
0000
0000
0000
0000
0000
0000
3002
0000
0000
0023
0000
0000
0230
0000
,
2300
0000
0000
0000
0000
0000
0000
0000
3020
0000
0000
0230
0000
0000
0302
0000
,
0023
0000
0000
0000
0000
0000
0000
0000
0230
0000
0000
2300
0000
0000
3020
0000
,
2030
0000
0000
0000
,
3020
0000
0000
0230
0000
0000
0302
0000
,
1003
0000
0010
0000
,
0100
0000
0001
0000
,
0100
0000
0010
0000
,
1000
0000
0100
0000
,
0010
0000
0100
0000
,
1000
0000
0100
0000
,
0001
0000
0010
0000
,
0100
1000
0010
0100
,
0001
0000
0100
0000
,
0010
0000
1000
0000
,
0010
0000
0100
0000
,
0001
0000
0100
0000
,
1000
0000
0010
0000
,
0100
0000
0001
0000
,
1000
0010
0100
0010
,
0001
0100
0010
1000
,
0220
0000
0000
0000
,
0000
0000
0000
0000
0000
0000
0000
0330
,
1000
0010
0100
0001
,
1000
0010
0100
0010
,
0100
1000
0100
0010
,
0100
0001
0100
0010
,
1000
0001
0100
0010
,
1000
0100
0010
0100
,
0010
0001
1000
0010
,
0100
0001
1000
0010
,
0100
1000
0010
0100
,
0001
0100
0010
1000
,
0010
0100
0001
1000
,
0001
0010
0100
1000
,
1100
0010
0100
0010
,
0101
0010
1000
0010
,
1100
0001
0100
0010
,
1000
0100
0010
0001
,
1000
0000
0010
0000
,
1000
0000
0010
0000
,
0100
0000
0001
0000
,
0100
0000
0001
0000
,
1000
0000
0001
0000
,
1000
0000
0001
0000
,
0010
0000
0100
0000
,
0010
0000
0100
0000
,
0001
0000
0010
0000
,
0100
0000
1000
0000
,
1000
0000
0100
0000
,
0010
0000
0001
0000
,
1000
0000
0010
0000
,
0100
0000
0001
0000
,
0001
0000
0100
0000
,
0010
0000
1000
0000
,
0001
0000
0010
0000
,
0100
0000
0010
0000
,
0001
0000
0010
0000
,
0100
0000
1000
0000
,
0100
0000
0010
0000
,
0001
0000
0010
0000
,
0100
0000
0010
0000
,
1000
0000
0010
0000
,
0100
0000
0010
0000
,
1000
0000
0001
0000
,
0100
0000
0010
0000
,
1000
0000
0010
0000
,
0100
0000
0100
0000
,
0010
0000
0010
0000
,
0001
0000
0001
0000
,
2002
0000
0000
0000
,
0000
0000
0000
0000
,
0000
3003
0000
0000
0000
0000
0000
0000
;

//---------------dance-single - ----------------
#NOTES:
     dance-single:
     :
     Medium:
     9:
     0.625,1.000,0.103,0.411,0.075,489.000,13.000,52.000,0.000,2.000:
0000
0000
0000
0000
,
0000
0000
0000
0000
,
0000
0000
0000
0000
,
0000
0000
0000
0000
,
0000
0000
0000
0000
,
0001
0010
0100
1000
,
0001
0100
0010
1000
,
0100
1000
0010
0001
,
0010
0100
0020
0000
,
1030
0010
0100
0001
,
0100
0010
1000
0001
,
0100
0010
1000
0010
,
1000
0100
0002
0000
,
0013
1000
0001
0100
,
0010
1000
0001
1000
,
0100
0010
0001
0100
,
0001
0010
0100
1000
0001
0100
0010
1000
,
0100
0010
1000
0001
,
0100
0010
1000
0010
,
0100
0001
1000
0010
,
1000
0100
0010
0001
,
1000
0010
0100
0001
,
0100
0010
0100
0001
,
1000
0010
0100
0001
,
1000
0000
0010
0000
0100
0001
0100
0001
,
0010
1000
0010
0100
,
0001
0010
0100
0010
,
0001
1000
0001
1000
,
0010
0100
0010
0100
,
0010
0010
0100
0100
,
1000
1000
0001
0001
,
1010
0000
0000
0101
0000
0000
0010
0000
,
1000
0010
0100
0001
1000
0010
0100
0001
,
2000
0000
0000
0000
,
0000
0000
0000
0000
,
3002
0000
0000
0203
,
0000
0000
0321
0001
,
2030
0000
0010
0010
,
0000
0000
0001
0001
,
3020
0000
0000
0230
,
0000
0010
1302
0100
,
1003
0010
0100
0001
,
1000
0010
0100
0001
,
1000
0100
0010
0001
,
1000
0000
0010
0000
0202
0000
0000
0303
,
0010
0100
1010
0000
,
0100
0010
0110
0000
,
1000
0010
0100
0010
,
0001
0010
0100
1000
0001
0010
0100
1000
,
0000
0000
0002
0000
0000
0023
0000
0000
0230
0000
0000
2300
0000
0000
3200
0000
0000
0300
0020
0000
0000
0032
0000
0000
0203
0000
0000
0320
0000
0000
2030
0000
,
3000
0000
0002
0000
0000
0203
0000
0000
0320
0000
0000
2030
0000
0000
3200
0000
0000
0300
0020
0000
0000
0032
0000
0000
0203
0000
0000
2300
0000
0000
3020
0000
,
1030
0010
0100
0001
,
1000
0010
0100
0001
,
1000
0100
0010
0001
,
1000
0100
0010
0000
0100
0000
0001
0000
,
0010
0100
1000
0010
,
0100
0001
0010
0100
,
0001
0100
0010
1000
,
0010
0100
0010
0100
0010
0100
0010
0100
,
0020
0000
0000
0000
0000
0000
0000
0000
2030
0000
0000
3020
0000
0000
0230
0000
,
0302
0000
0000
0000
0000
0000
0000
0000
2003
0000
0000
3020
0000
0000
0230
0300
,
1002
0000
0000
0000
1000
0000
0000
0000
2003
0000
0000
3020
0000
0000
0230
0300
,
2001
0001
0001
0001
,
3020
0000
0000
0230
0000
0000
0302
0000
,
1003
0010
0100
0001
,
0010
0100
0010
0001
,
0100
0010
1000
0001
,
0100
0010
1000
0010
,
0100
0001
1000
0010
,
0100
0001
1000
0010
,
0100
0010
1000
0010
,
0100
0001
1000
0010
,
0100
0100
1000
1000
,
0001
0001
0010
0010
,
0100
0100
0001
0001
,
0010
0010
1000
1000
,
0010
0010
0010
0010
,
0100
0100
0100
0100
,
0001
0001
0001
0001
,
1000
0001
1000
0001
1000
0001
1000
0001
,
0220
0000
0000
0000
,
0000
0000
0000
0000
0000
0000
0000
0330
,
1000
0001
0010
0001
1000
0000
0010
0100
,
1000
0010
0000
0000
1000
0010
0100
0001
,
0010
0000
0100
0010
1000
0000
0010
0100
,
0010
1000
0100
0010
0100
0010
0001
0010
,
0100
0010
0100
0010
,
1000
0001
1000
0001
,
1000
0100
0010
0001
,
1000
0010
0100
0001
0010
0100
0010
0100
,
0001
0100
0010
1000
,
0001
0100
1000
0100
,
0010
0100
1000
0010
,
1000
0010
0100
0001
0100
0010
0100
0010
,
1000
0010
0010
0100
,
0011
1000
1000
0010
,
1100
0010
0010
0100
,
0001
0100
0010
1000
,
0010
0000
0100
0000
,
0001
1000
0100
0000
,
0010
0000
0100
0000
,
1000
0010
0100
0001
,
0010
0000
0100
0000
,
0010
0000
1000
0010
,
0100
0000
0001
0000
,
0100
0010
1000
0010
,
0100
0000
0001
0100
,
0010
0000
1000
0000
,
0010
0000
0100
0000
,
0001
0100
0010
1000
,
0010
0000
0100
0000
,
0010
0000
0100
0000
,
0001
1000
0010
0100
,
0001
0010
1000
0000
,
0010
0000
0001
0000
,
0100
0000
0010
0000
,
0001
0100
0010
0001
,
1000
0100
0010
0001
,
0100
0000
0010
0000
,
1000
0000
0010
0000
,
0100
0010
0001
0100
,
1000
0010
0100
0001
,
0010
0000
0100
0000
,
0010
0001
1000
0100
,
0001
1000
0010
0001
,
0100
0000
0010
0000
,
1000
0010
1000
0010
,
0100
0001
0100
0001
,
0010
1000
0010
1000
,
0202
0000
0000
0000
,
0000
0000
0000
0000
,
0000
0303
0000
0000
;

//---------------dance-single - ----------------
#NOTES:
     dance-single:
     :
     Hard:
     11:
     0.821,1.000,0.158,0.450,0.087,651.000,20.000,57.000,0.000,8.000:
0000
0000
0000
0000
,
0000
0000
0000
0000
,
0000
0000
0000
0000
,
0000
0000
0000
0000
,
0000
0000
0000
0000
,
0001
0000
0100
0000
0010
1000
0000
0010
,
1000
0000
0100
0000
0010
0001
0000
0010
,
0001
0000
0100
0000
0001
0100
0000
0010
,
1000
0000
0010
0000
0200
0000
0000
0300
,
0001
0000
0100
0000
0010
1000
0000
0100
,
0001
0000
0100
0000
0010
0001
0000
0100
,
1000
0000
0010
0000
0100
0010
0000
1000
,
0001
0000
0010
0000
0200
0000
0000
0300
,
0001
0000
1000
0010
1000
0010
1000
0010
,
1000
0000
0001
0100
0001
0100
0001
0100
,
0010
1000
0010
0000
0100
0010
0100
0000
,
0001
0010
0100
1000
0010
0100
0001
1000
,
0001
0100
0010
0100
,
1000
0100
0010
0100
,
0001
0100
0010
1000
,
0010
0100
0001
0010
,
1000
0100
1000
0100
1000
0100
1000
0100
,
0001
0010
0001
0010
0001
0010
0001
0010
,
1000
0100
0010
0001
0100
0010
1000
0001
,
1000
0100
0010
0001
0010
0100
0001
1000
,
0010
0100
1000
0100
,
0010
0001
0010
0100
,
0010
0001
0100
1000
,
0100
0001
0010
1000
,
0100
0010
0100
0010
0100
0001
0100
0001
,
0100
1000
0100
1000
0100
0010
0100
0001
,
2200
0000
0000
0000
0000
3300
0022
0000
0000
0000
0000
0033
1100
0000
0000
0000
,
0001
0100
0010
1000
0001
0100
0010
1000
,
0001
0020
0000
1030
0200
0000
0301
0020
,
0000
0130
2000
0000
3100
0000
0010
0000
,
0001
0200
0000
0310
2000
0000
3010
0200
,
0000
0310
0002
0000
1003
0000
0100
0000
,
0010
0002
0000
0103
0020
0000
1030
0200
,
0000
0310
2000
0000
3100
0000
0010
0000
,
0001
0200
0000
0310
2000
0000
3100
0002
,
0000
0013
0200
0000
0310
0100
1000
0010
,
0100
1000
0100
0000
0001
0010
0001
0000
,
0010
0100
0010
0000
0100
0010
0100
0000
,
0001
0100
0001
0000
0010
1000
0010
0000
,
1000
0001
1000
0000
0001
1000
0001
0000
,
1000
0100
1000
0000
0010
0001
0010
0000
,
1000
0010
1000
0000
0001
0100
0001
0000
,
0010
0100
1000
0000
0100
0010
0001
0010
,
0100
1000
0100
0010
0100
1000
0100
0010
,
0001
0000
0020
0000
0000
0230
0000
0000
2300
0000
0000
3020
0000
0000
0130
0000
0001
0000
0020
0000
0000
0230
0000
0000
2300
0000
0000
3020
0000
0000
0130
0000
,
0001
0000
0020
0000
0000
0230
0000
0000
0320
0000
0000
0032
0000
0000
0103
0000
0010
0000
2000
0000
0000
3200
0000
0000
0320
0000
0000
0230
0000
0000
0310
0000
,
0001
0000
0010
0100
0000
0100
1000
0000
,
1000
0100
0000
0100
0010
0000
0001
0000
,
0101
0000
0010
0100
0000
0100
1000
0000
,
1000
0100
0000
0100
1000
0000
0010
0000
,
0110
0000
1000
0010
0000
0010
0100
0000
,
0100
0001
0000
0001
0010
0000
0110
0000
,
0001
1000
0001
0000
1000
0001
1000
0000
,
0001
0100
0010
1000
0010
0100
0001
1000
,
0021
0000
0000
0000
0000
0000
0000
0000
2031
0000
0000
3200
0000
0000
0320
0001
,
2031
0000
0000
0000
0000
0000
0000
0000
3021
0000
0000
0230
0000
0000
0302
1000
,
1023
0000
0000
0000
0100
0000
0000
0000
2031
0000
0000
3200
0001
0000
2300
0001
,
3120
0100
0100
0100
,
2130
0000
0100
3020
0100
0000
0231
0000
,
0310
0000
0100
0000
1000
0100
1000
0000
,
0010
0000
0100
0000
0001
0010
0001
0000
,
0010
0000
0100
0000
0010
0100
0010
0000
,
1000
0000
0010
0100
0000
0100
0001
0000
,
0010
0000
0100
0000
0001
0100
0001
0000
,
0010
0000
0100
0000
1000
0010
1000
0000
,
0010
0000
0100
0000
0010
0100
0010
0000
,
1000
0000
0010
0100
0000
0100
0001
0000
,
0010
0000
0100
0000
1000
0010
1000
0000
,
0100
0000
0010
0000
0100
0001
0100
0000
,
0010
0000
0100
0000
0010
0100
0010
0000
,
1000
0000
0010
0100
0000
0100
0001
0000
,
0010
0000
0100
0000
0001
0100
0010
0000
,
1000
0000
1000
0000
0001
0010
0001
0000
,
0001
0100
0010
0000
1000
0010
0100
0000
,
0010
0100
0001
1000
0010
0100
0001
1000
,
0220
0000
0000
0000
,
0000
0000
0000
0000
0000
0000
0000
0000
0000
0000
0000
0000
0000
0000
0000
0330
,
1000
0010
0100
0010
0001
0000
0010
0100
,
1000
0010
0000
0000
0100
0010
1000
0010
,
0100
0000
0001
0010
0100
0000
0000
0010
,
0100
0010
1000
0010
0000
0100
0000
0001
,
0100
0001
0000
0100
0000
0010
1000
0010
,
0000
0100
0001
0000
0010
0100
0010
0000
,
0100
0000
0010
0001
0000
0010
0000
0100
,
0010
1000
0010
0100
0010
0100
0010
0001
,
0010
0000
0100
0000
0010
0000
1000
0010
,
0100
0000
0001
0000
0010
0000
0100
0010
,
0100
0000
1000
0000
0010
0000
0100
0010
,
0100
1000
0100
0010
0100
0001
0100
0010
,
1100
0000
0010
0000
0010
0100
0010
0000
,
0101
0000
0010
0000
0010
1000
0010
0000
,
1100
0000
0001
0000
0010
0100
0010
0000
,
1000
0010
0100
0001
1000
0010
0100
0001
,
1000
0010
1000
0010
,
0100
0001
0100
0001
,
0100
1000
0100
1000
,
0010
0001
0010
0001
,
1000
0001
1000
0001
,
0010
0100
0010
0100
,
1000
0100
0010
0001
,
0010
0100
0010
0001
,
0010
0100
1000
0100
,
0010
0100
1000
0100
,
0010
0100
0010
0100
,
1000
0001
1000
0001
,
1000
0100
0010
0100
,
1000
0010
0001
0010
,
0100
0010
0001
0010
,
1000
0100
0001
0100
,
1000
0100
0010
0100
,
1000
0010
1000
0010
,
0100
0001
0100
0001
,
0010
1000
0010
1000
,
0001
1000
0001
1000
,
0010
0100
0010
0100
,
0001
0010
0001
0010
,
0100
1000
0100
1000
,
0001
0100
0010
0100
,
1000
0100
0010
0100
,
0001
0100
0010
1000
,
0100
0010
0100
0010
,
0001
0010
0100
1000
,
0001
0010
0100
1000
,
0001
0010
0100
1000
,
0210
0010
0010
0000
,
0010
0000
0010
0000
,
0010
0300
0000
0000
;
