#TITLE:MaxX Delusion;
#SUBTITLE:;
#ARTIST:Unknown artist;
#TITLETRANSLIT:;
#SUBTITLETRANSLIT:;
#ARTISTTRANSLIT:;
#CREDIT:;
#BANNER:maxxdbn.png;
#BACKGROUND:maxxdbg.png;
#LYRICSPATH:;
#CDTITLE:catCD.png;
#MUSIC:Max Delusion.mp3;
#OFFSET:0.000;
#SAMPLESTART:90.400;
#SAMPLELENGTH:14.000;
#SELECTABLE:YES;
#BPMS:0.000=200.000,96.000=100.000,128.000=200.000;
#STOPS:192.250=0.150
,194.500=0.150
;
#BGCHANGES:;
// cache tags:
#FIRSTBEAT:0.000;
#LASTBEAT:424.000;
#SONGFILENAME:Songs/dragon force/maxdelusion/max delusion.sm;
#HASMUSIC:1;
#HASBANNER:1;
#MUSICLENGTH:139.266;
// end cache tags

//---------------dance-single - ----------------
#NOTES:
     dance-single:
     :
     Challenge:
     10:
     1.000,1.000,1.000,1.000,0.097,694.000,264.000,147.000,0.000,0.000:
1100
1100
0000
0011
0011
0000
0110
0110
,
0000
0101
0101
0000
0011
0110
1010
0000
,
1100
1100
0000
0101
0101
0000
1010
1010
,
0000
0000
1100
0000
0011
0000
0000
0000
0022
0000
0000
0033
2200
0000
0000
3300
,
0001
0011
0000
1000
0110
0000
0100
0011
,
0000
0000
0110
0000
0011
0000
0000
0000
0110
0000
0000
0000
0202
0000
0000
0303
,
0010
0020
0000
1030
2000
0000
3001
2002
,
0000
3003
1100
0000
0011
0000
0000
0000
0101
0000
0000
0000
0011
0000
0000
0000
,
1000
0100
0000
0001
0010
0000
1000
0100
,
0010
0000
0001
0000
0010
0000
0001
0000
0010
0000
0100
0000
0020
0000
0000
0030
,
1000
0100
0010
0100
0010
0001
0010
0100
,
1000
0100
0010
0001
0010
0001
0011
0000
,
1000
0100
0000
0100
1000
0100
0010
0001
,
0010
0000
0100
0000
1000
0000
0100
0000
1000
0000
0001
0000
0022
0000
0000
0033
,
1000
1000
0000
0001
0001
1000
0100
0000
,
1000
0100
0010
0001
0010
0100
0010
0000
,
0011
0011
0000
1100
1100
0000
0110
0011
,
1100
0110
0000
1001
1001
0000
1010
0101
,
0110
0011
0000
0101
0101
0000
0101
1010
,
1100
0000
0011
0000
0000
0000
0200
0000
0020
0000
0300
0030
1001
0000
0000
0000
,
0011
0020
0000
0130
1100
0000
1100
0100
,
0010
0001
0000
0100
0001
0010
0100
1000
,
0100
0010
0100
1000
0100
1000
0001
0100
,
0010
0100
0001
1000
0010
0000
0011
2010
,
0200
0000
0300
0020
0000
0030
0002
0000
0003
0020
0000
0030
0001
0000
3100
0000
,
1002
0000
0000
0100
0000
0000
0010
0000
0000
1000
0000
0000
0200
0003
0310
0000
,
1020
0000
0000
1000
0000
0000
0100
0000
0000
0001
0000
0000
1000
0000
1030
0200
,
0020
0000
0300
0002
0000
0030
0200
0000
0000
0003
2000
0300
0200
3000
0020
0300
,
1000
1030
0000
0011
1100
0000
0110
0101
0000
0101
0110
1100
1001
0000
0110
0000
,
1100
0110
0000
1001
0011
0000
1100
1001
0000
0100
0020
0000
0001
0000
1000
0000
,
0100
0100
0000
0001
0001
0000
0100
0000
0000
1000
0100
0000
0100
0030
0100
0010
,
0201
0000
0000
0001
0000
0000
0010
0000
0000
1000
0000
0300
0010
0000
1000
0000
,
0011
0000
0000
0101
0000
0000
0011
0000
,
0000
0110
1100
0010
0101
0000
1100
0000
,
0011
1100
0000
0110
0000
0000
1010
0000
,
0000
0011
1010
1001
0110
0000
0011
0000
,
1010
0000
0000
0011
0000
0000
1100
0000
,
0000
0011
1100
0010
2002
0003
0020
3030
,
1002
1000
0000
1000
1000
0003
1200
1000
,
0000
1000
1000
0300
0012
0000
1000
0003
,
2200
3000
1300
0001
0000
1000
0001
0010
,
0100
1000
0100
0010
0100
0010
0001
0010
,
0101
0010
1000
0100
0010
0001
0010
1001
,
0010
1000
0010
0100
0001
1010
1000
0100
,
1001
0001
0010
0001
1000
0100
0010
0001
,
0010
0100
0010
0001
0010
0100
1000
0100
,
0010
0100
1000
0100
1000
0100
0010
0001
,
1000
0010
0100
0001
1000
0100
1000
0001
,
2002
0000
0000
0000
0000
3003
0000
0000
1000
0000
0000
0000
0000
0000
0000
0000
0100
0000
0000
0000
0000
0000
0000
0000
1000
0000
0000
0000
0000
0000
0000
0000
0200
0000
0000
0000
0000
0000
0000
0000
0000
0300
0000
0000
0000
0000
0000
0000
0001
0000
0000
0000
0000
0000
0000
0000
0010
0000
0000
0000
0000
0000
0000
0000
,
0001
0000
0010
0000
0001
0010
0001
0010
0001
0010
0001
0010
0011
0000
0000
0000
,
1010
1100
0000
0110
0101
0101
0000
1100
,
0110
1010
0101
0000
1010
0000
0011
0000
,
1001
0110
0000
1100
0011
0011
0000
0011
,
0110
1100
0011
1000
1001
0001
1100
0000
,
0001
1100
0000
1000
0110
0010
0000
1001
,
1010
1100
1010
0000
0011
0000
1100
0000
,
0011
1100
0000
0110
0101
1010
0000
1010
,
0110
0011
0110
0000
1100
0000
1001
1000
,
0100
0010
0100
0010
0001
0010
1000
0010
,
0001
0010
0100
0010
1100
0000
1001
0010
,
0100
0010
0001
0010
0100
1000
0010
0100
,
0001
0010
0100
0010
1100
0000
0011
0010
,
0100
1000
0100
0010
0001
0100
0010
1000
,
0100
0010
0100
0010
0101
0000
0011
0010
,
0100
1000
0100
0010
0100
0010
0001
1000
,
0010
0100
0001
0010
0100
1000
2002
0000
,
3003
0000
0220
0330
0000
0000
0100
0000
1000
0000
0001
0000
0100
0000
0010
0000
,
1000
0100
0010
0001
0220
0330
2002
0000
,
3003
0220
0300
1030
2200
3300
0220
0030
,
0301
0022
0000
0033
0220
0330
2200
0300
,
3001
1001
0000
0100
1000
0100
0010
0001
,
0010
0001
1000
0010
2020
3030
0022
0000
,
0033
2002
0000
3003
0220
0330
0202
0000
,
0303
2200
3300
0110
1100
0011
2002
0000
,
3003
0000
2200
3300
0001
0000
0010
0000
0001
0000
1000
0000
0010
0000
0100
0000
,
0001
0010
0100
1000
1100
0100
0110
1000
,
0001
0101
0010
1000
0011
0010
0110
0010
,
0001
0011
0010
0100
1100
0010
0011
0001
,
1000
1100
0010
0001
0010
0100
1000
0001
,
0010
0001
1000
0100
2002
3003
0022
0000
,
0033
2200
0000
3300
0220
0330
0022
0000
,
0033
0000
2200
0000
0000
3300
2002
3003
0022
0033
1100
0000
0011
0000
1100
0000
,
0000
0000
2100
0000
0010
0000
0000
0000
0002
3000
0100
0000
0000
0000
2000
0003
,
0020
0000
0000
3030
0022
0033
2020
3030
0202
0000
0000
0303
1002
0000
2000
0000
,
0000
3000
1000
0000
2000
0000
0000
3003
2001
0000
0002
0000
0000
0003
0001
0000
,
0002
0000
0000
3003
1001
0000
0011
0000
2200
0000
0000
3300
0011
0000
0001
0000
,
0010
1100
1000
0100
0010
0100
1000
0010
,
0100
0001
0010
0100
0011
1000
1100
0010
,
0001
0101
1000
0010
0101
0100
1010
0100
,
0001
0101
0010
0100
1100
0100
0011
0001
,
0010
1001
1000
0010
0100
0010
1000
0001
,
0010
0100
0010
0001
0011
1000
1010
0001
,
1000
1100
1000
0001
0011
0010
1100
0001
,
1000
1001
0001
0011
1100
1001
0011
0010
,
0100
1100
1000
0100
0010
0100
1000
0001
,
1000
0010
0100
0001
1100
0010
0110
0010
,
0100
1001
0010
0100
0110
0001
0101
0100
,
1000
1100
1000
0001
0101
0010
0011
0100
,
1000
1100
0001
0010
0001
0010
0001
1000
,
0100
0010
0001
1000
0011
0001
1100
1000
,
0001
0101
0010
0100
0110
0010
1010
1000
,
0010
1010
0100
0011
0110
1010
0001
0022
,
0030
0000
0023
0000
0200
0000
0030
0000
0310
0000
0220
0000
0330
0000
2002
3003
,
2200
0000
0000
3300
0022
0000
0000
0033
2002
0000
0000
3003
0022
0033
2020
0000
,
0000
3030
2200
3300
0022
0000
0000
0033
0220
0330
2020
0000
0000
3030
0202
0303
,
0022
0000
0000
0033
0202
0000
0000
0300
0020
0000
0000
0000
0000
0000
0000
0000
,
0033
0000
0000
0000
;
