#TITLE:Will I?;
#SUBTITLE:(Long Ver.);
#ARTIST:Ian Van Dahl;
#TITLETRANSLIT:;
#SUBTITLETRANSLIT:;
#ARTISTTRANSLIT:;
#CREDIT:;
#BANNER:Will I (Long Ver)-banner.png;
#BACKGROUND:Will I (Long Ver)-bg.png;
#LYRICSPATH:;
#CDTITLE:;
#MUSIC:Will I - IAN VAN DAHL.mp3;
#OFFSET:-0.280;
#SAMPLESTART:91.140;
#SAMPLELENGTH:14.080;
#SELECTABLE:YES;
#BPMS:0.000=140.001;
#STOPS:;
#BGCHANGES:;
// cache tags:
#FIRSTBEAT:8.000;
#LASTBEAT:503.000;
#SONGFILENAME:Songs/longs versions/1/Will I (long ver).sm;
#HASMUSIC:1;
#HASBANNER:1;
#MUSICLENGTH:220.037;
// end cache tags

//---------------dance-single - ----------------
#NOTES:
     dance-single:
     :
     Hard:
     7:
     0.435,0.486,0.232,0.386,0.030,534.000,51.000,85.000,0.000,0.000:
0000
0000
0000
0000
,
0000
0000
0000
0000
,
1000
0000
0000
0000
0100
0010
0001
0100
,
0000
0010
0000
0000
0000
0000
1000
0100
,
0020
0000
1000
0000
,
0001
0000
1000
0030
,
0001
0000
0000
0000
0100
0010
1000
0100
,
0000
0010
0100
0000
0000
0000
0001
0010
,
0200
0000
1000
0000
,
0001
0000
1000
0300
,
0101
0010
0000
1000
,
1100
0001
0100
0000
0010
1000
0001
0000
,
0200
0000
0001
0300
,
0020
0000
1000
1030
,
2100
0000
0001
3000
,
0102
0000
1000
1003
,
1002
0103
2001
3000
,
0120
0000
0100
0030
,
0101
0000
0000
0000
,
0100
0000
0000
0100
0000
0000
0000
0010
,
0200
0000
2300
0000
,
3002
0000
0100
0000
,
0010
0000
1000
0103
,
0010
0000
0000
0010
0000
0000
0000
0100
,
0020
0000
0032
0000
,
2003
0000
0100
0100
,
0000
0001
0001
3000
,
1001
0000
0000
0100
0000
0000
0000
0010
,
2000
0000
3002
0000
,
0203
0000
0001
1000
,
0001
0000
0320
0000
,
2030
0000
0100
0001
,
3200
0000
0320
0000
,
0032
0000
0100
0100
,
1000
1000
0010
0013
,
2002
0000
0000
0000
,
0000
0000
3003
1001
,
1100
0000
0010
0001
0100
0000
0010
0001
,
0100
0000
0110
0000
1000
0100
0001
0000
,
1000
0100
0001
0100
1000
0100
0001
0000
,
0001
0100
1000
0000
0010
0000
0110
0000
,
0011
0000
0100
1000
0010
0000
0100
1000
,
0010
0000
0110
0000
0001
0010
1000
0000
,
0001
0010
1000
0010
0001
0010
1000
0000
,
1000
0010
0001
0000
0100
0000
0110
0000
,
1000
0100
1000
0001
0100
0010
1000
0000
,
0001
0000
0100
0001
1000
0000
0100
0001
,
1000
0000
0100
1000
0001
0000
0100
1000
,
0010
0000
0100
0010
1000
0010
0100
0000
,
0101
0000
1000
0100
0010
0000
0001
0100
,
0010
0010
0100
0000
0200
0000
0310
0000
,
1001
0000
0100
1000
0010
0000
0100
1000
,
0010
0000
0100
1000
0010
0000
0101
0000
,
2000
3100
0002
0103
,
1000
0010
0000
0010
0100
0000
0100
0001
,
1000
0101
1000
0101
,
0010
1000
0100
0000
0010
0001
0100
0000
,
0020
1030
0002
0013
,
1000
0100
0000
0100
0010
0000
0010
0001
,
0100
1010
0100
1010
,
0100
0001
0010
0000
0100
0010
1000
0000
,
0010
0001
0200
0000
0320
0000
0130
0000
,
2000
0000
3002
0000
0103
0000
0000
1000
,
0100
0011
0100
1001
,
0100
0010
1000
0010
0001
0010
0100
0000
,
0002
0000
1003
0100
2000
0000
3000
0000
,
0200
0000
0302
0000
1003
0000
0001
0100
,
0010
1100
0101
0000
,
0100
0010
1000
0100
0001
0100
1000
0000
,
0201
0310
1020
0130
,
0001
0100
1000
0000
0001
0100
1000
0100
,
0010
1010
0100
0110
,
0002
0000
2003
0000
,
3100
0010
0001
0000
0100
0010
1000
0000
,
0001
0100
1000
0100
0001
0000
1100
0000
,
0012
0100
1000
0023
,
1000
0100
0031
1001
,
0200
0000
0000
0020
0000
0300
0000
1030
,
0200
0000
0320
0000
,
0032
0000
0000
0100
0000
0100
0000
0010
,
0000
0010
0000
0100
0000
0100
0003
0000
,
0020
0000
0000
0200
0000
0030
0000
1300
,
0002
0000
0203
0000
,
0320
0000
0000
1000
0000
1000
0000
0100
,
0000
0100
0000
1000
0000
1000
0030
0000
,
2000
0000
0000
0002
0000
3000
0000
0103
,
0020
0000
2030
0000
,
3200
0000
0000
0010
0000
0010
0000
0010
,
0000
0010
0000
0000
0320
0000
0000
0000
,
0032
0000
0000
1000
0000
1000
0000
1000
,
2003
0000
3020
0000
,
0230
0000
0000
0000
,
0020
0000
0000
0330
,
1001
0100
1000
0010
0100
0001
1000
0100
,
1000
1000
1000
0000
0001
0001
0001
0000
,
0200
0310
0020
0130
,
0001
1000
0100
0000
1000
0001
0100
0000
,
1001
0010
0001
0100
0010
1000
0001
0010
,
0001
0001
0001
0000
1000
1000
1000
0000
,
0020
0130
0200
0310
,
1000
0000
0001
0000
0010
0000
0000
0000
0001
0000
1000
0000
0010
0000
0000
0100
,
0001
1000
0100
0000
0020
0000
0130
0000
,
1000
0000
0100
0000
0001
0000
0100
0000
1000
0000
0000
0010
0100
0000
0001
0000
,
0010
0000
0000
0100
1000
0000
0001
0000
0100
0000
0000
0010
1000
0000
0100
0000
,
0010
0000
0000
0001
0100
0000
0000
0010
1000
0000
0000
0000
1001
0000
0000
0100
,
0010
0000
1000
0000
0100
0000
0000
0010
0001
0000
0100
0000
1000
0000
0000
1000
,
0100
0010
1000
0000
1001
0000
1001
0000
,
0110
0000
0000
1000
0100
0000
0010
0000
0001
0000
0000
1000
0100
0000
0010
0000
,
0001
0000
0000
1000
0010
0000
0100
0000
0001
0000
0001
0000
1000
0000
0000
0000
,
1001
0001
0100
0010
0000
0010
1000
0000
,
1000
0100
0020
0000
0130
1000
0020
0000
,
0130
0001
2000
0000
3001
0000
0101
0000
,
0010
1000
0002
0000
1003
0000
1100
0000
,
1001
1000
0010
0100
0000
0100
0001
0000
,
0001
0010
0200
0000
0310
0001
0200
0000
,
0310
1000
0002
0000
1003
0000
1010
0000
,
0100
0001
2000
0000
3001
0000
0011
0000
,
0100
1000
0001
0100
0000
0010
0100
0010
,
0000
1000
0000
0001
0000
1001
0000
0101
,
0000
2020
0000
0000
0000
0000
3030
0000
,
0100
0000
1000
0000
0001
0000
0000
0000
0100
0000
0010
0000
1000
0000
0100
0010
,
0200
0000
0000
0000
,
0320
0000
0032
0000
,
1003
0100
0010
0100
1000
0100
0010
0010
,
0001
0100
1000
0100
0010
1000
0001
0000
,
2002
0000
0000
3003
;

//---------------dance-single - ----------------
#NOTES:
     dance-single:
     :
     Medium:
     5:
     0.331,0.371,0.077,0.391,0.000,407.000,17.000,86.000,0.000,0.000:
0000
0000
0000
0000
,
0000
0000
0000
0000
,
0001
0000
0000
0000
1000
0100
1000
0000
,
0100
0010
0000
1000
,
0002
0000
2003
0000
,
3200
0000
0010
0310
,
0010
0000
0000
0000
0001
0100
0001
0000
,
0100
0010
1000
0000
0000
0000
1000
0000
,
0200
0000
0000
0300
,
0020
0000
0001
0031
,
0001
0100
0000
0010
,
1000
0000
0100
0000
0010
0000
0001
0100
,
0020
0230
0000
0300
,
0110
0000
0000
0000
1000
0100
0001
0000
,
0100
0010
0100
0010
,
2000
0000
0100
3001
,
0010
0100
0010
0100
,
0002
0000
1000
1003
,
1001
0000
0000
0000
,
0100
0000
0000
0001
0000
0000
0000
0100
,
0020
0030
2000
3000
,
0002
0000
0100
0000
,
0100
0000
0100
0003
,
0010
0000
0000
1000
0000
0000
0000
0010
,
0200
0300
0002
0003
,
2000
0000
0100
0000
,
0001
0001
0001
3000
,
0001
0000
0000
1000
0000
0000
0000
0001
,
0200
0300
0020
0030
,
0200
0000
0001
0000
,
0001
0300
0002
0003
,
2000
0000
0010
3010
,
0020
0030
0200
0300
,
0002
1000
1000
0000
,
0000
1000
1000
0003
,
2002
0000
0000
0000
,
0000
0000
3003
1001
,
0100
0000
0010
0000
1000
0000
0100
0010
,
0100
1000
0001
0000
,
0200
0310
0020
0130
,
0100
0001
1000
0000
0001
0000
0000
0000
,
0010
0000
0100
0000
0001
0000
0010
0100
,
0010
0001
1000
0000
,
0020
0130
0200
0300
,
0002
1003
2000
3000
,
0100
1000
0100
0000
1000
0000
0001
0100
,
0001
1000
0001
0200
,
0010
0010
0010
0310
,
0020
1030
1010
0000
,
2000
0001
0001
3001
,
0001
1000
0100
0000
1000
0000
0000
0000
,
0201
0310
0100
0001
,
1200
0310
0100
0000
,
0100
1000
0100
1000
0100
0000
0000
0000
,
0010
0010
0100
0100
,
0010
0001
0100
0001
,
2000
3002
0203
0300
,
0010
0001
0010
0001
0010
0000
0000
0000
,
0100
0100
0010
0010
,
0100
1000
0010
1000
,
0002
2003
3020
0030
,
0100
0000
0001
0100
0001
0000
0000
0000
,
1000
0001
1001
0000
,
0100
0010
0100
0010
,
1000
0001
1001
0000
,
0010
0000
1000
0010
1000
0000
0000
0000
,
0001
0000
1000
0000
1001
0000
0000
1000
,
0001
0100
0010
0100
,
0002
2003
3200
0300
,
2000
3002
2003
3000
,
0020
0130
0200
0310
,
2000
0000
0100
3000
,
0001
0000
0100
0000
0010
1000
0100
0000
,
0020
0230
0320
0030
,
0002
1003
2000
3001
,
0100
0010
1000
1100
,
0001
0000
0011
0000
0001
1000
0100
0000
,
1000
0000
0001
0000
,
0100
0000
0010
1000
,
0200
0000
0000
0300
,
0020
0000
0000
0030
,
0001
0000
1000
0000
,
0010
0000
0100
0001
,
0020
0000
0000
0000
,
0230
0000
0000
0300
,
1000
0000
0000
1000
0000
0000
0000
0001
,
0200
0300
0020
0030
,
2000
0000
0000
0000
,
0000
3000
0200
0300
,
0020
0000
0000
0030
,
0002
0003
2000
3000
,
0020
0000
0000
0000
,
0200
0000
0000
0330
,
0110
0000
0100
0010
0100
0000
0010
0100
,
0001
1000
0100
0001
,
0100
1000
0100
0000
0020
0000
0030
0000
,
0001
0010
0001
0000
0200
0000
0300
0000
,
0110
0000
0010
0100
0010
0000
0100
0010
,
1000
0001
0010
1000
,
0010
0001
0010
0000
0100
0000
0010
0000
,
1000
0100
1000
0000
0020
0000
0030
0000
,
0100
0001
0000
0100
0000
0000
0010
1000
,
0200
0310
0020
0130
,
0001
0100
0001
0100
,
0010
1000
0010
1000
0100
0000
0000
0000
,
1000
0010
1000
0010
,
0100
0001
0100
0000
0010
0000
1000
0000
,
0002
0000
0100
0103
,
2000
0100
0002
3003
,
1001
0000
1000
0001
0000
1000
0000
0000
,
0100
0010
1000
0001
,
0100
0010
0100
0000
0002
0000
1003
0000
,
2000
0000
3001
0000
0100
0001
1000
0000
,
1001
0000
0001
1000
0000
0001
0000
0000
,
0100
0010
0001
1000
,
0100
0010
0100
0000
0010
0100
0010
0000
,
2000
3020
0130
0000
,
0001
0001
0000
0100
,
0010
0000
1000
0000
0100
0010
0100
1000
,
0200
0000
0000
0000
,
0320
0000
0032
0003
,
0100
0001
0000
0000
0100
1000
0100
0000
,
0010
1000
0001
0000
,
0100
0100
0100
0100
,
0010
0000
0010
0000
0010
0100
0010
0000
,
2002
0000
0000
3003
;

//---------------dance-single - ----------------
#NOTES:
     dance-single:
     :
     Easy:
     2:
     0.192,0.257,0.073,0.227,0.000,230.000,16.000,50.000,0.000,0.000:
0000
0000
0000
0000
,
0000
0000
0000
0000
,
1000
0000
1000
0000
,
0001
0001
0000
0100
,
0020
0000
0000
0030
,
2000
0000
0000
3000
,
0001
0000
0001
0000
,
1000
1000
0000
0010
,
0020
0000
0000
0030
,
0200
0000
0000
0300
,
0001
0001
0000
1000
,
1000
0000
0010
0000
,
0200
0000
0300
0000
,
0002
0000
0003
1000
,
2000
0000
3000
0000
,
0020
0000
0030
0100
,
0001
0000
1000
0000
,
0010
0000
0100
0000
,
1001
0000
0000
0000
,
0100
0000
0100
0000
,
0010
0000
1000
1000
,
2000
0000
0000
3000
,
0002
0000
0000
0003
,
0010
0000
0010
0000
,
0100
0000
0001
0001
,
0002
0000
0000
0003
,
2000
0000
0000
3000
,
0100
0000
0001
0000
,
0100
0100
0100
0100
,
0020
0000
0000
0030
,
0100
0000
0001
0000
,
2000
0000
0000
3000
,
0010
0000
0010
0000
,
0200
0000
0000
0000
,
0300
0100
0000
0100
,
0220
0000
0000
0000
,
0000
0000
0000
0330
,
1000
0100
1000
0000
,
0001
0000
0001
0000
,
0200
0000
0300
0000
,
0020
0000
0030
0000
,
0001
0010
0001
0000
,
1000
0000
1000
0000
,
0020
0000
0130
0000
,
0200
0000
0000
0000
0000
0000
0000
0000
0010
0300
0000
0000
0000
0000
0000
0000
,
0010
0100
0010
0000
,
0100
0000
0001
0000
,
2000
0000
0000
3000
,
1000
0000
0010
0000
,
0200
0000
0000
0300
,
0100
0000
0001
0000
,
1002
0000
0003
0000
,
0210
0000
0300
0000
,
0001
0000
0000
0000
,
0100
0100
0010
0010
,
1000
0000
0000
0000
,
0100
0100
0200
0300
,
1000
0000
0000
0000
,
0010
0010
0100
0100
,
0001
0000
0000
0000
,
0010
0010
0020
0030
,
0001
0000
0100
0100
,
0100
0000
0000
0010
,
2000
0000
0000
3000
,
0002
0000
0000
0003
,
1000
0000
0010
0010
,
0010
0010
0000
0100
,
0002
0003
1000
0000
,
2000
3000
0001
0000
,
0100
0000
0100
0000
,
0010
0010
0010
0000
,
1000
0000
1000
0000
,
0001
0001
0001
0000
,
1001
0000
0100
0000
,
0110
0000
1000
1000
,
0002
0000
0103
0000
,
2000
0000
3100
0000
,
1000
0000
0000
0000
,
0001
0000
0001
0000
,
0200
0000
0000
0000
,
0000
0000
0300
0000
,
0001
0000
0000
0000
,
1000
0000
1000
0000
,
0020
0000
0000
0000
,
0000
0000
0000
0030
,
0100
0000
0100
0000
,
0001
0001
0001
0000
,
2000
0000
0000
0000
,
3000
0000
0100
0000
,
0020
0000
0030
0000
,
0001
0000
1000
0000
,
0200
0000
0000
0300
,
0020
0000
0000
0030
,
1000
0001
1000
0000
,
0001
0000
0100
0000
,
0010
0100
0010
0000
,
2000
0000
3000
0000
,
0001
1000
0001
0000
,
1000
0000
0010
0100
,
0010
0000
0100
0000
,
0002
0000
0000
0003
,
0100
0000
0100
0000
,
0010
0000
0010
0000
,
1000
0000
1000
1000
,
0000
0001
0001
0000
,
0200
0000
0000
0300
,
0010
0000
1000
0000
,
0001
0000
0000
0000
,
0001
0001
0001
0001
,
1001
0000
0100
0000
,
0010
0010
0010
0000
,
0200
0000
0300
0000
,
0002
0000
0003
0000
,
1001
0000
0010
0000
,
0100
0100
0100
0000
,
2000
0000
3000
0000
,
0020
0000
0030
0000
,
0100
0010
0000
0100
,
0100
0000
0010
0000
,
2001
0000
3000
0000
,
0120
0000
0130
0000
,
1001
1001
0000
0000
,
0100
0100
0100
0000
,
0110
0000
0100
0000
,
1001
0000
1001
0000
,
2002
0000
3003
0000
;
