#TITLE:Whazamup;
#SUBTITLE:Causality Violation;
#ARTIST:TheBoxX;
#TITLETRANSLIT:;
#SUBTITLETRANSLIT:;
#ARTISTTRANSLIT:;
#CREDIT:Mad Matt;
#BANNER:../Tachyon Spectrum-bn.png;
#BACKGROUND:../Tachyon Spectrum-bg.png;
#LYRICSPATH:;
#CDTITLE:;
#MUSIC:Whazamup.OGG;
#OFFSET:-0.527;
#SAMPLESTART:39.717;
#SAMPLELENGTH:9.980;
#SELECTABLE:YES;
#DISPLAYBPM:230.000;
#BPMS:0.000=115.000,30.000=230.000;
#STOPS:;
#BGCHANGES:;
// cache tags:
#FIRSTBEAT:15.000;
#LASTBEAT:491.000;
#SONGFILENAME:Songs/Tachyon Spectrum/Whazamup - [Mad Matt]/Whazamup.SM;
#HASMUSIC:1;
#HASBANNER:1;
#MUSICLENGTH:136.798;
// end cache tags

//---------------dance-single - Mad Matt----------------
#NOTES:
     dance-single:
     Mad Matt:
     Hard:
     18:
     1.000,1.000,0.168,0.665,1.000,1316.000,23.000,91.000,0.000,0.000:

0000
0000
0000
0000
,
0000
0000
0000
0000
,
0000
0000
0000
0000
,
0000
0000
0000
1001
,
0010
0000
1100
0000
0002
0100
0103
0000
,
0001
0000
0000
0000
0000
0000
0000
0000
1000
0000
0000
0000
0100
0000
0000
0000
0000
0000
0000
0000
0010
0100
0010
0100
0010
0000
0000
0000
0000
0000
0000
0000
,
0001
0000
0101
0000
0001
1000
1001
0000
,
1001
0000
0000
0000
0100
0000
1001
0000
1000
0010
0100
0001
1000
0010
0100
0001
,
1000
0010
1000
0010
0100
0001
0100
0001
1000
0010
1000
0010
0100
0001
0100
0001
,
1000
0100
0010
0001
1000
0001
0010
0100
1000
0001
1000
0100
0010
0001
1000
0001
,
0100
0010
0100
0010
1000
0001
1000
0001
0100
0010
0100
0010
1000
0001
1000
0001
,
0010
0100
1000
0100
0010
0001
1000
0100
1000
0001
0100
0001
1000
0100
0010
0100
,
2000
0000
0010
0000
3001
0010
0100
1000
,
0010
0100
0010
0000
0100
0010
0100
0000
0001
0000
1000
0000
0100
0000
0010
0000
,
0001
1000
0001
0000
1000
0001
1000
0000
0010
0000
0100
0000
0001
0000
1000
0000
,
0010
0100
0010
0000
1000
0100
0010
0100
1000
0001
0100
0010
1000
0001
0010
0100
,
2000
0000
0100
0000
3001
0100
0010
1000
,
0001
0010
0001
0000
0010
0001
0010
0000
0100
0000
1000
0000
0001
0000
0100
0000
,
0010
1000
0010
0000
1000
0010
1000
0000
0001
0000
0010
0000
0100
0000
1000
0000
,
0001
0100
0001
0000
1000
0100
1000
0001
0100
0001
0100
0010
1000
0001
1000
0100
,
1000
0001
0100
0010
1000
0001
0100
0001
1000
0001
1000
0100
0010
0001
1000
0001
,
1000
0010
1000
0001
1000
0100
0010
0001
1000
0010
1000
0001
0100
0001
1000
0100
,
0010
0001
0010
0100
1000
0001
0100
0001
1000
0010
1000
0001
0010
0100
1000
0001
,
0100
0010
1000
0001
0010
0001
1000
0010
1000
0001
0010
0100
1000
0001
0100
0001
,
2000
0000
3020
0000
0130
0001
1000
0200
,
0000
0000
2300
0000
3010
0100
0001
2000
,
0000
0000
3200
0000
0310
0001
0100
0020
,
0000
1000
1000
1000
1000
1000
1030
1000
,
1001
0002
0023
0230
0300
0000
0000
0000
,
1001
2000
3020
0230
0300
0000
0000
0000
,
0101
0002
2003
3200
0300
0000
0000
0000
,
0110
0020
0032
2003
3000
0000
0000
0000
,
1010
0020
0230
0302
0003
0000
0000
0000
,
1001
2000
3200
0320
0030
0000
0000
0000
,
0110
0200
2300
3002
0003
0000
0000
0000
,
0101
0200
0320
2030
3000
0000
0000
0000
,
0001
0010
0100
1000
0001
0010
0100
1000
0001
1000
0100
0010
0001
1000
0100
0010
,
0001
1000
0010
1000
0001
0100
0001
1000
0100
1000
0001
0010
0100
1000
0001
0100
,
0001
1000
0010
0100
0001
1000
0100
1000
0001
0100
0010
1000
0001
0100
0001
1000
,
0001
0010
0100
1000
0100
0010
0001
1000
0100
0010
0001
1000
0001
0100
0010
0100
,
0002
0000
0000
0000
1003
0001
1000
0001
0100
0010
1000
0010
0100
0001
1000
0100
,
0020
0000
0000
0000
0130
1000
0001
0100
0010
1000
0010
1000
0001
0010
0100
1000
,
0002
0000
0000
0000
0013
0100
0010
0001
1000
0010
1000
0010
0100
0001
1000
0100
,
0020
0000
0000
0000
0130
1000
0010
0100
0001
0010
0100
1000
0010
0100
0001
0010
,
0200
0000
0000
0000
1300
0001
1000
0100
1000
0001
0100
0010
1000
0010
0100
0001
,
2000
0000
0000
0000
3100
0010
0001
0010
0100
0010
0001
1000
0010
0100
0010
1000
,
0002
0000
0000
0000
1003
0100
1000
0001
0010
0100
1000
0001
0100
0010
1000
0010
,
0200
0000
0000
0000
0301
0010
0100
1000
0010
0100
0001
0010
0100
1000
0001
0100
,
0020
0000
0000
0000
1030
0100
1000
0001
0010
0001
1000
0010
1000
0001
0100
0001
,
2000
0000
0000
0000
3100
0010
0100
1000
0001
0100
0001
0100
0010
0100
0001
1000
,
0002
0000
0000
0000
1003
0100
1000
0001
0100
0010
1000
0001
1000
0100
0010
0001
,
2000
0000
0000
0000
3010
0100
0001
0010
0100
1000
0010
0100
0001
1000
0100
1000
,
0002
0000
0203
0000
0301
0010
0100
2000
,
0000
0000
3020
0000
0130
0001
1000
0200
,
0000
0000
2300
0000
3001
0100
0010
2000
,
0000
0100
0100
0100
0100
0100
3100
0100
,
1000
0001
1000
0100
1000
0001
0010
0100
1000
0001
0100
0001
1000
0010
1000
0001
,
0010
0001
1000
0100
1000
0001
0100
0010
1000
0001
1000
0100
1000
0001
0100
0001
,
1000
0001
0010
0001
1000
0100
0010
0001
1000
0001
0010
0100
1000
0001
0100
0001
,
1000
0010
1000
0001
0010
0100
1000
0100
0010
0001
1000
0001
0100
0001
1000
0100
,
0010
0001
1000
0010
1000
0001
0100
0001
1000
0100
1000
0001
0100
0010
1000
0001
,
0010
0001
1000
0100
0010
0001
1000
0010
0100
0010
0100
0001
0100
0010
1000
0001
,
1000
0100
1000
0001
0010
0001
1000
0010
1000
0010
0100
0001
1000
0100
1000
0001
,
0100
0010
0100
0001
0100
0010
0100
0001
0100
0010
0100
0001
0100
0010
1000
0001
,
1000
0100
1000
0001
0010
0100
1000
0001
0100
0001
1000
0010
1000
0001
0010
0100
,
0010
0001
1000
0010
1000
0001
0100
0001
1000
0100
0010
0100
1000
0001
0010
0100
,
1000
0001
1000
0100
0010
0001
1000
0010
1000
0010
0100
0001
0100
0001
1000
0100
,
1000
0001
0100
0001
1000
0010
0100
0001
1000
0100
1000
0001
0010
0100
1000
0001
,
0100
0001
1000
0100
0010
0100
0010
0001
0010
0100
1000
0001
0100
0001
0100
0010
,
0100
0001
1000
0100
1000
0001
0100
0001
1000
0100
0010
0001
1000
0001
0010
0100
,
1000
0001
0100
0001
0100
0010
0100
0001
1000
0010
0100
0001
0100
0010
1000
0001
,
1000
0100
0010
0100
1000
0100
0010
0100
1000
0100
0010
0100
1000
0100
0010
0001
,
1000
0010
1000
0001
0010
0001
1000
0010
0100
0001
1000
0100
1000
0001
0100
0001
,
1000
0100
0010
0001
1000
0010
1000
0001
0010
0001
1000
0010
0100
0001
1000
0100
,
0010
0001
1000
0010
0100
0010
1000
0001
0010
0100
1000
0001
1000
0010
0100
0001
,
0100
0010
0100
0001
1000
0100
1000
0001
0100
0010
1000
0001
0010
0001
1000
0100
,
1000
0001
0100
0010
1000
0001
1000
0100
0010
0001
1000
0100
1000
0001
0010
0100
,
1000
0001
0100
0001
0100
0010
1000
0010
1000
0001
0010
0001
1000
0010
1000
0001
,
0010
0100
1000
0001
1000
0100
1000
0001
0100
0010
1000
0010
1000
0001
0010
0100
,
1000
0001
0100
0001
1000
0001
0010
0001
1000
0001
0100
0001
1000
0001
0010
0100
,
1000
0001
1000
0100
1000
0001
0100
0010
1000
0100
1000
0001
0100
0010
1000
0100
,
1000
0001
0010
0001
1000
0010
0100
0001
1000
0010
0100
0001
0010
0001
1000
0010
,
1000
0001
0010
0100
1000
0010
0100
0001
1000
0100
1000
0010
0100
0001
1000
0100
,
0010
0001
1000
0010
1000
0001
0010
0100
1000
0010
1000
0100
0010
0001
1000
0010
,
0100
0001
0010
0001
0010
0100
1000
0001
0100
0010
1000
0010
1000
0100
0010
0001
,
1000
0010
0100
0010
1000
0100
0010
0001
1000
0010
0100
0001
0100
0010
1000
0001
,
1000
0100
1000
0001
0100
0010
1000
0001
0010
0100
0010
0001
1000
0010
0100
0001
,
1000
0010
1000
0001
1000
0100
1000
0001
1000
0010
1000
0001
1000
0100
1000
0001
,
1000
0002
0023
0230
0300
0000
0000
0000
,
1001
2000
3020
0230
0300
0000
0000
0000
,
0101
0002
2003
3200
0300
0000
0000
0000
,
0110
0020
0032
2003
3000
0000
0000
0000
,
1010
0020
0230
0302
0003
0000
0000
0000
,
1001
2000
3200
0320
0030
0000
0000
0000
,
0110
0200
2300
3002
0003
0000
0000
0000
,
0101
0200
0320
2030
3000
0000
0000
0000
,
0001
0100
0010
1000
0010
0100
0001
1000
0001
1000
0010
0100
0010
0100
0001
1000
,
0100
0010
0001
0010
0100
1000
0001
1000
0100
0010
0001
1000
0010
1000
0010
0100
,
0001
0100
0001
1000
0001
0010
0001
1000
0010
1000
0001
0100
0001
1000
0100
0010
,
0001
0010
0100
1000
0001
1000
0100
0010
0001
1000
0001
0100
0010
1000
0001
1000
,
0200
0000
0010
0000
1300
0001
0010
0100
,
1000
0001
1000
0000
0001
1000
0001
0000
0010
0000
0100
0000
1000
0000
0001
0000
,
0100
0010
0100
0000
0010
0100
0010
0000
1000
0000
0001
0000
0010
0000
0100
0000
,
1000
0001
1000
0000
0100
0010
0001
0010
0100
1000
0001
0100
0010
1000
0001
0010
,
0200
0000
1000
0000
0310
0001
0100
0001
,
1000
0100
1000
0000
0100
1000
0100
0000
0010
0000
0001
0000
1000
0000
0100
0000
,
0010
0001
0010
0000
0001
0010
0001
0000
1000
0000
0010
0000
0100
0000
0001
0000
,
1000
0010
1000
0000
0001
0010
0100
1000
0001
1000
0100
0010
0001
0100
0001
1000
,
0200
0000
0010
0000
1300
0010
0100
0001
,
1000
0100
1000
0000
0100
1000
0100
0000
1000
0000
0001
0000
0100
0000
0010
0000
,
1000
0010
1000
0000
0010
1000
0010
0000
0100
0000
0001
0000
0010
0000
0001
0000
,
1000
0100
1000
0000
0001
0010
0100
0010
0001
0100
0010
1000
0001
1000
0100
0010
,
0002
0000
0203
0000
0310
1000
0001
0020
,
0000
0000
0230
0000
1300
0001
0100
0020
,
0000
0000
0230
0000
0301
1000
0100
0020
,
0000
0001
0001
0001
0001
0001
0001
0031
,
0000
0000
0000
0000
0000
0000
0000
0000
0000
0000
0000
0000
0000
0000
0000
0000
0000
0000
1000
0001
1000
0001
1000
0001
,
4000
0004
0000
0000
0000
0000
0000
0000
0000
0000
0000
0000
0000
0000
0000
0000
0000
0000
0000
0000
0000
0000
3003
0000
,
1002
0000
0000
0000
0000
0000
0000
0000
0000
0000
0000
0000
1000
0000
0000
0000
0000
0000
0000
0000
0000
0000
0000
0000
0010
0000
0000
0000
0000
0000
1000
0000
0000
0000
0000
0000
0000
0000
0000
0003
0000
0000
0001
0000
1000
0000
0001
0000
,
2000
0000
0000
0000
0010
0000
0000
0001
,
0001
0000
0000
0000
0000
0000
0001
0000
0000
0000
0000
0000
0010
0000
0000
0001
0000
0000
3000
0000
0000
1000
0001
2000
,
0002
0000
0000
0000
,
0000
0000
0000
3003
;

//---------------dance-single - Tachyon Beta----------------
#NOTES:
     dance-single:
     Tachyon Beta:
     Easy:
     17:
     1.000,1.000,0.307,1.000,1.000,1174.000,42.000,245.000,0.000,0.000:


0000
0000
0000
0000
,
0000
0000
0000
0000
,
0000
0000
0000
0000
,
0000
0000
0000
1001
,
0010
0000
0101
0000
2000
0100
3100
0000
,
1000
0000
0000
0000
0000
0000
0000
0000
0001
0000
0000
0000
0100
0000
0000
0000
0000
0000
0000
0000
0010
0100
0010
0100
0010
0000
0000
0000
0000
0000
0000
0000
,
1000
0000
1100
0000
1000
0001
1001
0000
,
1001
0000
0000
0000
0100
0000
1001
0000
0001
0010
0100
1000
0001
0010
0100
1000
,
0001
0000
0100
0000
1001
0000
0001
0000
1000
0000
0010
0000
1010
0000
0100
0010
,
0100
0000
0001
0000
0011
0000
1000
0000
0001
0000
0100
0000
0110
0000
0001
1000
,
0001
0000
0010
0000
0110
0000
0100
0000
1000
0000
0001
0000
1100
0000
1000
0100
,
1000
0000
0001
0000
0101
0000
1000
0000
0010
0000
0100
0000
0110
0000
0100
0001
,
2000
0000
3002
0000
0023
0230
2300
3200
,
0010
0000
2300
0000
3020
0230
0302
0203
,
0010
0000
0302
0000
0023
0230
2300
3200
,
0010
0000
0000
0000
1300
0100
0010
0001
1000
0100
1000
0001
0010
0001
1000
0100
,
0020
0000
0032
0000
0203
0302
2003
3200
,
0010
0000
2300
0000
3200
2300
3002
0203
,
0010
0000
0302
0000
0203
0302
2003
3200
,
0010
0000
0000
0000
1300
0100
0010
0001
1000
0001
0010
0100
1000
0001
0010
0001
,
1000
0000
0010
0000
1010
0000
1000
0000
0100
0000
0010
0000
0011
0000
0001
0100
,
0001
0000
1000
0000
1010
0000
0010
0000
0100
0000
0001
0000
0101
0000
1000
0010
,
1000
0000
0100
0000
0110
0000
0010
0000
0001
0000
0100
0000
0110
0000
0001
1000
,
0001
0000
0100
0000
0001
1000
0100
1000
0001
0010
0001
1000
0100
0010
0001
1000
,
0002
0000
2003
0000
3200
0320
0032
0023
,
0000
0000
0032
0000
0203
0320
2030
3020
,
0000
0000
2030
0000
3200
0320
0032
2003
,
3000
0000
0000
0000
0000
0000
0000
0000
0000
0000
0000
0000
0000
0000
0000
0000
0000
0000
0000
0000
0000
0000
0000
0000
2000
0000
0000
3000
0000
0000
0000
0000
0000
0000
0000
0000
0000
0000
0000
0000
0000
0000
0000
0000
0000
0000
0000
0000
2000
0000
0000
3000
0000
0000
0000
0000
0000
0000
0000
0000
0000
0000
0000
0000
0000
0000
0000
0000
0000
0000
0000
0000
2000
0000
0000
3000
0000
0000
0000
0000
0000
0000
0000
0000
0000
0000
0000
0000
0000
0000
0000
0000
0000
0000
0000
0000
2000
0000
0000
3000
0000
0000
0000
0000
0000
0000
0000
0000
0000
0000
0000
0000
0000
0000
0000
0000
0000
0000
0000
0000
2000
0000
0000
3000
0000
0000
0000
0000
0000
0000
0000
0000
0000
0000
0000
0000
0000
0000
0000
0000
0000
0000
0000
0000
0001
0000
0000
0000
0000
0000
0000
0000
1000
0000
0000
0000
0000
0000
0000
0000
0001
0000
0000
0000
0000
0000
0000
0000
1000
0000
0000
0000
0000
0000
0000
0000
0001
0000
0000
0000
0000
0000
0000
0000
1000
0000
0000
0000
0000
0000
0000
0000
,
0001
0000
0000
0020
0000
0000
0230
0000
0000
2300
0000
0000
3000
0000
0000
0000
0000
0000
1000
0001
1000
0001
1000
0001
,
1000
0000
0000
0200
0000
0000
0320
0000
0000
0032
0000
0000
0003
0000
0000
0000
0000
0000
0001
1000
0001
1000
0001
1000
,
0001
0000
0000
0200
0000
0000
0320
0000
0000
2030
0000
0000
3000
0000
0000
0000
0000
0000
1000
0001
1000
0001
1000
0001
,
1000
0000
0000
0020
0000
0000
0230
0000
0000
0302
0000
0000
0003
0000
0000
0000
0000
0000
0001
1000
0001
1000
0001
1000
,
0001
0000
0000
0020
0000
0000
0230
0000
0000
2300
0000
0000
3000
0000
0000
0000
0000
0000
1000
0001
1000
0001
1000
0001
,
1000
0000
0000
0200
0000
0000
0320
0000
0000
0032
0000
0000
0003
0000
0000
0000
0000
0000
0001
1000
0001
1000
0001
1000
,
0001
0000
0000
0200
0000
0000
0320
0000
0000
2030
0000
0000
3000
0000
0000
0000
0000
0000
1000
0001
1000
0001
1000
0001
,
1000
0000
0000
0020
0000
0000
0230
0000
0000
0302
0000
0000
0003
0000
0000
0000
0000
0000
1000
0001
1000
0001
1000
0001
,
2000
0000
3001
0000
0101
0000
1000
0000
0010
0000
0100
0000
0101
0000
0001
1000
,
0001
0000
0010
0000
1100
0000
1000
0000
0001
0000
0100
0000
0101
0000
1000
0001
,
1000
0000
0100
0000
0110
0000
1000
0000
0001
0000
0100
0000
0110
0000
0010
1000
,
0010
0000
0100
0000
0101
0000
0010
0000
1000
0000
0001
0000
1001
0000
1000
0001
,
2000
0000
0000
0000
3200
0000
0000
0000
0320
0000
0032
0000
2003
0000
3010
0100
,
0020
0000
0000
0000
2030
0000
0000
0000
3020
0000
0230
0000
0302
0000
0013
0100
,
0020
0000
0000
0000
0032
0000
0000
0000
0023
0000
0230
0000
2300
0000
3010
0100
,
0020
0000
0000
0000
0130
0001
1000
0001
0100
0010
1000
0001
0100
0001
1000
0010
,
2000
0000
0000
0000
3200
0000
0000
0000
0320
0000
0230
0000
0320
0000
0031
1000
,
0002
0000
0000
0000
0203
0000
0000
0000
0320
0000
0230
0000
0320
0000
1030
0001
,
2000
0000
0000
0000
3200
0000
0000
0000
0320
0000
0230
0000
0320
0000
0031
1000
,
0002
0000
0000
0000
1003
0001
1000
0100
0010
0001
0010
0100
1000
0001
0010
0001
,
2000
0000
0000
0000
3020
0000
0000
0000
0230
0000
0302
0000
0203
0000
0310
1000
,
0002
0000
0000
0000
0203
0000
0000
0000
0320
0000
2030
0000
3020
0000
0130
0001
,
2000
0000
0000
0000
3200
0000
0000
0000
0320
0000
0032
0000
0023
0000
0130
1000
,
0002
0000
0000
0000
1003
0100
0010
0001
1000
0100
1000
0001
0010
0001
1000
0100
,
0020
0000
0230
0000
2300
3002
0203
0320
,
0000
0000
0230
0000
0302
2003
3200
0320
,
0000
0000
0230
0000
2300
3002
0203
0320
,
0000
0000
0000
0000
0030
0000
0000
0000
0020
0030
0000
0000
0000
0000
0000
0000
0020
0030
0000
0000
0000
0000
0000
0000
0020
0030
0000
0000
0000
0000
0000
0000
0020
0030
0000
0000
0000
0000
0000
0000
0020
0030
0000
0000
0000
0000
0000
0000
0020
0030
0000
0000
0000
0000
0000
0000
0020
0030
0000
0000
0000
0000
0000
0000
,
1000
0010
0100
0001
0100
0010
1000
0001
0100
0010
1000
0010
0100
0001
1000
0001
,
1000
0100
0010
0001
0010
0100
1000
0001
0010
0100
1000
0100
0010
0001
1000
0001
,
1000
0010
0100
0001
0100
0010
1000
0001
0100
0001
0100
0010
1000
0010
1000
0001
,
1000
0100
0010
0001
0010
0100
1000
0001
0010
0001
0010
0100
1000
0100
1000
0001
,
1000
0010
0100
0001
1000
0010
0100
0010
0100
0001
0100
0010
1000
0001
1000
0001
,
1000
0100
0010
0001
1000
0100
0010
0100
0010
0001
0010
0100
1000
0001
1000
0001
,
0100
0010
0100
0010
1000
0001
1000
0010
0100
0001
1000
0010
0100
0001
0100
0010
,
4000
0004
0000
0000
0000
0000
0000
0000
0000
0000
0000
0000
0000
3000
0013
0100
,
1000
0001
0100
0001
0100
0010
1000
0010
1000
0001
0100
0010
1000
0010
0100
0001
,
1000
0001
0010
0001
0010
0100
1000
0100
1000
0001
0010
0100
1000
0100
0010
0001
,
1000
0010
0100
0010
0100
0001
1000
0010
0100
0010
0100
0001
1000
0010
0100
0001
,
1000
0100
0010
0100
0010
0001
1000
0100
0010
0100
0010
0001
1000
0100
0010
0001
,
1000
0010
0100
0001
0100
0010
1000
0001
0100
0001
1000
0010
0100
0001
1000
0001
,
1000
0100
0010
0001
0010
0100
1000
0001
0010
0001
1000
0100
0010
0001
1000
0001
,
1000
0010
0100
0001
0100
0010
1000
0001
0100
0001
1000
0010
1000
0001
0100
0010
,
4000
0004
0000
0000
0000
0000
0000
0000
0000
0000
0000
0000
0000
3000
0013
0100
,
1000
0001
0100
0001
1000
0100
0010
0001
0010
0100
1000
0001
0100
0001
1000
0100
,
0010
0001
1000
0010
0100
0001
1000
0100
1000
0001
0100
0010
1000
0001
0010
0100
,
1000
0001
0100
0001
1000
0100
1000
0001
0100
0010
0100
0001
1000
0100
0010
0100
,
1000
0001
0100
0001
1000
0100
0010
0001
1000
0010
0100
0001
1000
0100
1000
0001
,
0100
0010
1000
0001
0010
0100
1000
0001
0100
0001
1000
0100
0010
0001
1000
0010
,
0100
0001
1000
0001
0010
0100
0010
0001
1000
0010
0100
0001
1000
0100
1000
0001
,
0100
0010
1000
0001
0010
0100
1000
0100
0010
0001
1000
0010
0100
0001
0100
0010
,
4000
0004
0000
0000
0000
0000
0000
0000
0000
0000
0000
0000
0000
3000
0103
0010
,
1000
0100
0010
0001
0010
0100
1000
0001
0100
0010
1000
0100
0010
0001
1000
0010
,
0100
0001
0100
0010
1000
0100
0010
0001
0010
0100
1000
0001
0100
0001
0010
0100
,
1000
0010
0100
0001
1000
0100
1000
0010
0100
0001
0010
0001
1000
0010
0100
0001
,
1000
0100
0010
0001
0010
0100
1000
0010
0100
0001
1000
0100
1000
0001
0100
0010
,
1000
0100
0010
0001
0010
0100
1000
0001
0100
0001
1000
0100
0010
0100
1000
0010
,
0100
0001
1000
0100
0010
0001
0100
0010
0100
0001
1000
0100
0010
0001
0100
0010
,
1000
0100
0010
0001
0100
0010
1000
0010
0100
0001
0010
0100
1000
0100
0010
0001
,
0400
0040
0000
0000
0000
0000
0000
0000
0000
0000
0000
0000
0000
0300
1030
0001
,
1000
0000
0000
0200
0000
0000
0320
0000
0000
0032
0000
0000
0003
0000
0000
0000
0000
0000
0001
1000
0001
1000
0001
1000
,
0001
0000
0000
0020
0000
0000
0230
0000
0000
2300
0000
0000
3000
0000
0000
0000
0000
0000
1000
0001
1000
0001
1000
0001
,
1000
0000
0000
0020
0000
0000
0230
0000
0000
0302
0000
0000
0003
0000
0000
0000
0000
0000
0001
1000
0001
1000
0001
1000
,
0001
0000
0000
0200
0000
0000
0320
0000
0000
2030
0000
0000
3000
0000
0000
0000
0000
0000
1000
0001
1000
0001
1000
0001
,
1000
0000
0000
0200
0000
0000
0320
0000
0000
0032
0000
0000
0003
0000
0000
0000
0000
0000
0001
1000
0001
1000
0001
1000
,
0001
0000
0000
0020
0000
0000
0230
0000
0000
2300
0000
0000
3000
0000
0000
0000
0000
0000
1000
0001
1000
0001
1000
0001
,
1000
0000
0000
0020
0000
0000
0230
0000
0000
0302
0000
0000
0003
0000
0000
0000
0000
0000
0001
1000
0001
1000
0001
1000
,
0001
0000
0000
0200
0000
0000
0320
0000
0000
2030
0000
0000
3000
0000
0000
0000
0000
0000
1000
0001
1000
0001
1000
0001
,
2000
3000
0001
0000
0101
0000
0010
0000
0100
0000
0010
0000
1010
0000
1000
0001
,
1000
0000
0100
0000
0011
0000
0001
0000
1000
0000
0010
0000
1010
0000
0001
1000
,
0001
0000
0010
0000
0110
0000
0001
0000
1000
0000
0010
0000
0110
0000
0100
0001
,
0100
0000
0010
0000
1010
0000
0100
0000
0001
0000
1000
0000
1001
0000
0001
1000
,
0002
0000
0203
0000
0302
2003
3020
0230
,
0001
0000
0000
0300
0020
0000
0000
0000
2030
0000
3002
0000
0023
0000
0230
0000
,
1000
0000
0320
0000
0032
2003
3020
0230
,
0001
0000
0000
0000
0000
0000
0000
0000
0000
0000
0000
0000
0310
0000
0000
1000
0000
0000
0001
0000
0000
1000
0000
0000
0010
0000
0000
0100
0000
0000
0001
0000
0000
1000
0000
0000
0010
0000
0000
1000
0000
0000
0001
0000
1000
0000
0001
0000
,
2000
0000
3002
0000
0023
0230
2300
3200
,
0010
0000
0000
0000
0000
0000
2300
0000
0000
0000
0000
0000
3020
0000
0000
2030
0000
0000
3001
0100
0001
0100
0001
0100
,
0002
0000
0000
0000
0000
0000
2003
0000
0000
0000
0000
0000
3002
0000
0000
0023
0000
0000
0130
1000
0100
1000
0100
1000
,
0200
0000
0000
0000
0000
0000
0000
0000
0000
0000
0000
0000
1300
0000
0000
0010
0000
0000
0100
0000
0000
0001
0000
0000
1000
0000
0000
0010
0000
0000
0100
0000
0000
0001
0000
0000
1000
0000
0000
0010
0000
0000
0100
0000
0001
0000
0100
0000
,
0002
0000
0000
0000
0000
0000
2003
0000
0000
0000
0000
0000
3200
0000
0000
0320
0000
0000
0031
1000
0001
1000
0001
1000
,
0002
0000
0000
0000
0000
0000
2003
0000
0000
0000
0000
0000
3020
0000
0000
0230
0000
0000
0301
1000
0001
1000
0001
1000
,
0002
0000
0000
0000
0000
0000
2003
0000
0000
0000
0000
0000
3002
0000
0000
0023
0000
0000
0130
1000
0100
1000
0100
1000
,
0200
0000
0000
0000
0000
0000
0000
0000
0000
0000
0000
0000
1300
0000
0000
0100
0000
0000
0010
0000
0000
0001
0000
0000
1000
0000
0000
0100
0000
0000
1000
0000
0000
0001
0000
0000
0010
0000
0000
0001
0000
0000
1000
0000
0100
0000
1000
0000
,
0200
0000
0320
0000
0230
2300
3002
0203
,
0000
0000
0320
0000
0230
0302
2003
3200
,
0000
0000
0320
0000
0230
2300
3002
0203
,
0300
0000
0000
0000
0000
0000
0000
0000
0200
0300
0000
0000
0000
0000
0000
0000
0200
0300
0000
0000
0000
0000
0000
0000
0200
0300
0000
0000
0000
0000
0000
0000
0200
0300
0000
0000
0000
0000
0000
0000
0200
0300
0000
0000
0000
0000
0000
0000
0200
0300
0000
0000
0000
0000
0000
0000
0200
0300
0000
0000
0000
0000
0000
0000
,
0000
0000
0000
0000
0000
0000
0000
0000
0000
0000
0000
0000
0000
0000
0000
1000
0001
1000
0001
1000
0001
1000
0001
4000
,
0004
0000
0000
0000
0000
0000
0000
0000
0000
0000
0000
3003
,
2001
0000
0000
0000
0000
0000
0000
0000
0000
0000
0000
0000
0001
0000
0000
0000
0000
0000
0000
0000
0000
0000
0000
0000
0010
0000
0000
0000
0000
0000
0001
0000
0000
0000
0000
0000
0000
0000
0000
3000
0000
0000
1000
0000
0001
0000
1000
0000
,
0002
0000
0000
0000
0010
0000
0000
1000
,
1000
0000
0000
0000
0000
0000
1000
0000
0000
0000
0000
0000
0010
0000
0000
1000
0000
0000
0003
0000
0000
0001
1000
0002
,
2000
0000
0000
0000
,
0000
0000
0000
3003
;

//---------------dance-single - Mad Matt----------------
#NOTES:
     dance-single:
     Mad Matt:
     Challenge:
     18:
     1.000,1.000,0.168,1.000,1.000,1301.000,23.000,202.000,0.000,0.000:







0000
0000
0000
0000
,
0000
0000
0000
0000
,
0000
0000
0000
0000
,
0000
0000
0000
1001
,
0010
0000
0101
0000
2000
0100
3100
0000
,
1000
0000
0000
0000
0000
0000
0000
0000
0001
0000
0000
0000
0100
0000
0000
0000
0000
0000
0000
0000
0010
0100
0010
0100
0010
0000
0000
0000
0000
0000
0000
0000
,
1000
0000
1100
0000
1000
0001
1001
0000
,
1001
0000
0000
0000
0100
0000
1001
0000
0001
0010
0100
1000
0001
0010
0100
1000
,
0010
1000
0001
0010
0001
1000
0100
0010
0100
1000
0001
0100
0001
1000
0010
1000
,
0100
1000
0001
0100
0001
1000
0010
0100
0010
1000
0001
0010
0001
1000
0100
1000
,
0010
1000
0001
0010
0001
1000
0100
0010
0100
1000
0001
0100
0001
1000
0010
1000
,
0100
1000
0001
0100
0001
1000
0010
0100
0010
1000
0001
0010
0001
1000
0100
1000
,
0020
0000
2030
0000
3020
0230
0302
0203
,
0010
0000
0302
0000
0023
0230
2300
3200
,
0010
0000
2300
0000
3020
0230
0302
0203
,
0010
0000
0000
0000
0301
0100
0010
1000
0100
0010
0100
1000
0010
0100
0001
1000
,
0200
0000
0320
0000
0230
2300
3002
0203
,
0010
0000
0302
0000
0203
0302
2003
3200
,
0010
0000
2300
0000
3200
2300
3002
0203
,
0010
0000
0000
0000
0301
0100
0010
1000
0100
0010
0100
1000
0010
0100
0001
1000
,
0100
1000
0010
0100
0001
1000
0100
1000
0001
0100
0010
0100
0001
1000
0001
0010
,
0100
0010
0001
1000
0010
1000
0001
0010
0100
1000
0010
0100
0001
1000
0100
1000
,
0001
0100
0010
1000
0010
0100
0001
1000
0100
1000
0010
0100
0001
1000
0001
0010
,
0100
0010
0001
1000
0001
0100
0010
1000
0100
0010
0100
1000
0010
0100
0001
1000
,
0200
0000
2300
0000
3200
0320
0032
0023
,
0000
0000
0032
0000
0203
0320
2030
3020
,
0000
0000
2030
0000
3200
0320
0032
2003
,
3000
0000
0000
0000
0000
0000
2000
3000
0000
0000
0000
0000
2000
3000
0000
0000
0000
0000
2000
3000
0000
0000
0000
0000
2000
3000
0000
0000
0000
0000
2000
3000
0000
0000
0000
0000
2000
3000
0000
0000
0000
0000
2000
3000
0000
0000
0000
0000
,
1001
0002
0023
0230
0300
0000
0000
0000
,
1001
2000
3020
0230
0300
0000
0000
0000
,
0101
0002
2003
3200
0300
0000
0000
0000
,
0110
0020
0032
2003
3000
0000
0000
0000
,
1010
0020
0230
0302
0003
0000
0000
0000
,
1001
2000
3200
0320
0030
0000
0000
0000
,
0110
0200
2300
3002
0003
0000
0000
0000
,
0101
0200
0320
2030
3000
0000
0000
0000
,
0010
1000
0001
0010
0001
1000
0100
0010
0100
1000
0001
0100
0001
1000
0010
1000
,
0100
1000
0001
0100
0001
1000
0010
0100
0010
1000
0001
0010
0001
1000
0100
1000
,
0010
1000
0001
0010
0001
1000
0100
0010
0100
1000
0001
0100
0001
1000
0010
1000
,
0100
1000
0001
0100
0001
1000
0010
0100
0010
1000
0001
0010
0001
1000
0100
1000
,
0010
1000
0100
0010
0001
1000
0010
1000
0001
0010
0100
0010
0001
1000
0001
0100
,
0010
0100
0001
1000
0100
1000
0001
0100
0010
1000
0100
0010
0001
1000
0010
1000
,
0001
0010
0100
1000
0100
0010
0001
1000
0010
1000
0100
0010
0001
1000
0001
0100
,
0010
0100
0001
1000
0001
0010
0100
1000
0010
0100
0010
1000
0100
0010
0001
1000
,
0100
1000
0010
0100
0001
1000
0100
1000
0001
0100
0010
0100
0001
1000
0001
0010
,
0100
0010
0001
1000
0010
1000
0001
0010
0100
1000
0010
0100
0001
1000
0100
1000
,
0001
0100
0010
1000
0010
0100
0001
1000
0100
1000
0010
0100
0001
1000
0001
0010
,
0100
0010
0001
1000
0001
0100
0010
1000
0100
0010
0100
1000
0010
0100
0001
1000
,
0001
0010
0100
1000
0001
0100
0001
1000
0100
0010
0100
1000
0001
1000
0010
0100
,
0010
1000
0001
0010
0001
1000
0010
0100
0001
0010
0100
1000
0001
0100
0001
1000
,
0100
0010
0001
0010
0100
1000
0001
0100
0001
0010
0100
1000
0001
1000
0010
0100
,
0010
1000
0001
1000
0100
0010
0001
0100
0010
0100
0001
0010
0100
1000
0001
1000
,
0020
0000
0230
0000
0302
2003
3200
0320
,
0000
0000
0230
0000
2300
3002
0203
0320
,
0000
0000
0230
0000
0302
2003
3020
0230
,
0000
0000
0000
0000
0300
0000
0000
0000
0200
0300
0000
0000
0000
0000
0000
0000
0200
0300
0000
0000
0000
0000
0000
0000
0200
0300
0000
0000
0000
0000
0000
0000
0200
0300
0000
0000
0000
0000
0000
0000
0200
0300
0000
0000
0000
0000
0000
0000
0200
0300
0000
0000
0000
0000
0000
0000
0200
0300
0000
0000
0000
0000
0000
0000
,
0001
1000
0100
0010
0100
1000
0001
0010
0100
1000
0010
1000
0001
1000
0100
0010
,
0001
0100
0010
1000
0010
0100
0001
1000
0100
1000
0010
0100
0001
1000
0001
0100
,
0010
1000
0100
0010
0100
1000
0001
0010
0100
1000
0010
1000
0001
1000
0100
0010
,
0001
0100
0010
1000
0010
0100
0001
1000
0100
1000
0010
0100
0001
1000
0001
0100
,
0010
1000
0100
0010
0100
1000
0001
0010
0100
1000
0010
1000
0001
1000
0100
0010
,
0001
0100
0010
1000
0010
0100
0001
1000
0100
1000
0010
0100
0001
1000
0001
0100
,
0010
1000
0100
0010
0100
1000
0001
0010
0100
1000
0010
1000
0001
1000
0100
0010
,
0001
0100
0010
1000
0100
0010
0001
0100
0010
1000
0100
0010
0001
0100
0010
1000
,
0001
1000
0010
0100
0010
1000
0001
0100
0010
1000
0100
1000
0001
1000
0010
0100
,
0001
0010
0100
1000
0100
0010
0001
1000
0010
1000
0100
0010
0001
1000
0001
0010
,
0100
1000
0010
0100
0010
1000
0001
0100
0010
1000
0100
1000
0001
1000
0010
0100
,
0001
0010
0100
1000
0100
0010
0001
1000
0010
1000
0100
0010
0001
1000
0001
0010
,
0100
1000
0010
0100
0010
1000
0001
0100
0010
1000
0100
1000
0001
1000
0010
0100
,
0001
0010
0100
1000
0100
0010
0001
1000
0010
1000
0100
0010
0001
1000
0001
0010
,
0100
1000
0010
0100
0010
1000
0001
0100
0010
1000
0100
1000
0001
1000
0010
0100
,
0001
0010
0100
1000
0010
0100
0001
0010
0100
1000
0010
0100
0001
0010
0100
1000
,
0001
0100
0010
1000
0001
0010
0001
0100
0010
0100
0001
0010
0001
1000
0100
0010
,
0001
0010
0100
1000
0001
0100
0001
0010
0100
0010
0001
0100
0001
1000
0100
1000
,
0010
0100
0001
1000
0100
1000
0010
0100
0010
1000
0100
1000
0001
0010
0100
1000
,
0100
0010
0001
1000
0010
1000
0100
0010
0100
1000
0010
1000
0001
0100
0010
1000
,
0001
0010
0100
0010
0001
0100
0010
1000
0001
1000
0100
1000
0010
0100
0001
1000
,
0100
0010
0100
1000
0010
0100
0001
1000
0001
0010
0001
0100
0010
1000
0010
0100
,
0001
0010
0100
0010
0001
0100
0010
1000
0001
1000
0100
1000
0010
0100
0001
1000
,
0100
0010
0001
0100
0010
1000
0100
0010
0001
0100
0010
1000
0100
0010
0001
0100
,
0010
1000
0001
1000
0010
1000
0100
0010
0100
1000
0010
1000
0001
0100
0010
1000
,
0010
0100
0001
1000
0100
1000
0010
0100
0010
1000
0100
1000
0001
0100
0001
0010
,
0100
1000
0001
0100
0001
0010
0100
0010
0001
0100
0001
1000
0010
0100
0001
0100
,
0010
1000
0001
0010
0001
0100
0010
0100
0001
0010
0001
1000
0100
0010
0001
1000
,
0010
0100
0010
1000
0100
0010
0001
1000
0001
0100
0001
0010
0100
1000
0001
0100
,
0010
0100
0001
0010
0100
1000
0001
1000
0010
1000
0100
0010
0001
0010
0100
1000
,
0010
0100
0010
1000
0100
0010
0001
1000
0001
0100
0001
0010
0100
1000
0001
0100
,
0010
1000
0100
0010
0001
0100
0010
1000
0100
0010
0001
0100
0010
1000
0100
0010
,
0001
2000
3200
0320
0030
0000
0000
0000
,
1001
0002
0203
0320
0030
0000
0000
0000
,
1010
2000
3002
0023
0030
0000
0000
0000
,
0110
0200
2300
3002
0003
0000
0000
0000
,
0101
0200
0320
2030
3000
0000
0000
0000
,
1001
0002
0023
0230
0300
0000
0000
0000
,
0110
0200
2300
3002
0003
0000
0000
0000
,
0101
0200
0320
2030
3000
0000
0000
0000
,
0010
0001
1000
0010
1000
0001
0100
0010
0100
0001
1000
0100
1000
0001
0010
0001
,
0100
0001
1000
0100
1000
0001
0010
0100
0010
0001
1000
0010
1000
0001
0100
0001
,
0010
0001
1000
0010
1000
0001
0100
0010
0100
0001
1000
0100
1000
0001
0010
0001
,
0100
0001
1000
0100
1000
0001
0010
0100
0010
0001
1000
0010
1000
0001
0100
0001
,
0020
0000
0032
0000
0023
0230
2300
3200
,
0010
0000
2300
0000
3020
0230
0302
0203
,
0010
0000
0302
0000
0023
0230
2300
3200
,
0010
0000
0000
0000
1300
0100
0010
0001
0100
0010
0100
0001
0010
0100
1000
0001
,
0200
0000
0320
0000
0230
0302
2003
3200
,
0010
0000
2300
0000
3200
2300
3002
0203
,
0010
0000
0302
0000
0203
0302
2003
3200
,
0010
0000
0000
0000
1300
0100
0010
0001
0100
0010
0100
0001
0010
0100
1000
0001
,
0020
0000
0032
0000
0023
0230
2300
3200
,
0010
0000
2300
0000
3020
0230
0302
0203
,
0010
0000
0302
0000
0023
0230
2300
3200
,
0010
0000
0000
0000
1300
0100
0010
0001
0100
0010
0100
0001
0010
0100
1000
0001
,
0200
0000
0320
0000
0230
0302
2003
3200
,
0000
0000
2300
0000
3200
2300
3002
0203
,
0000
0000
0302
0000
0203
0302
2003
3200
,
0000
0000
0000
0000
0300
0000
0000
0000
0200
0300
0000
0000
0000
0000
0000
0000
0200
0300
0000
0000
0000
0000
0000
0000
0200
0300
0000
0000
0000
0000
0000
0000
0200
0300
0000
0000
0000
0000
0000
0000
0200
0300
0000
0000
0000
0000
0000
0000
0200
0300
0000
0000
0000
0000
0000
0000
0200
0300
0000
0000
0000
0000
0000
0000
,
0000
0000
0000
0000
0000
0000
0000
0000
0000
0000
0000
0000
0000
0000
0000
0000
0000
0000
1000
0001
1000
0001
1000
0004
,
4000
0000
0000
0000
0000
0000
0000
0000
0000
0000
0000
3003
,
1002
0000
0000
0000
0000
0000
0000
0000
0000
0000
0000
0000
1000
0000
0000
0000
0000
0000
0000
0000
0000
0000
0000
0000
0010
0000
0000
0000
0000
0000
1000
0000
0000
0000
0000
0000
0000
0000
0000
0003
0000
0000
0001
0000
1000
0000
0001
0000
,
2000
0000
0000
0000
0010
0000
0000
0001
,
0001
0000
0000
0000
0000
0000
0001
0000
0000
0000
0000
0000
0010
0000
0000
0001
0000
0000
3000
0000
0000
1000
0001
2000
,
0002
0000
0000
0000
,
0000
0000
0000
3003
;

//---------------dance-single - Mad Matt----------------
#NOTES:
     dance-single:
     Mad Matt:
     Medium:
     17:
     1.000,1.000,0.168,1.000,1.000,1114.000,23.000,250.000,0.000,0.000:


0000
0000
0000
0000
,
0000
0000
0000
0000
,
0000
0000
0000
0000
,
0000
0000
0000
1001
,
0010
0000
0101
0000
2000
0100
3100
0000
,
1000
0000
0000
0000
0000
0000
0000
0000
0001
0000
0000
0000
0100
0000
0000
0000
0000
0000
0000
0000
0010
0100
0010
0100
0010
0000
0000
0000
0000
0000
0000
0000
,
1000
0000
1100
0000
1000
0001
1001
0000
,
1001
0000
0000
0000
0100
0000
1001
0000
0001
0010
0100
1000
0001
0010
0100
1000
,
0001
1000
0001
0100
0001
0100
0001
1000
0001
0010
0001
1000
0100
0010
0100
1000
,
0001
1000
0001
1000
0010
1000
0010
1000
0001
1000
0100
1000
0001
0010
0100
0010
,
0001
1000
0001
1000
0001
0100
0001
0100
0001
1000
0001
0010
0001
1000
0100
0010
,
0100
1000
0001
1000
0001
1000
0010
1000
0010
1000
0001
1000
0100
0010
0100
1000
,
0002
0000
0000
0003
2000
0000
0000
0000
3200
0000
0320
0000
0032
0000
0023
0000
,
0000
0000
0032
0000
0203
0320
2030
3020
,
0000
0000
2030
0000
3200
0320
0032
0023
,
0000
0000
0000
0000
0031
1000
0100
1000
0001
1000
0010
0100
0010
1000
0001
1000
,
0020
0000
2030
0000
3020
2030
3002
0023
,
0000
0000
0032
0000
0023
0032
2003
3020
,
0000
0000
2030
0000
3020
2030
3002
0023
,
0000
0000
0000
0000
0031
0010
0100
0010
0001
1000
0001
0100
0010
1000
0010
0100
,
0001
1000
0100
1000
0001
1000
0010
1000
0001
0100
0001
1000
0001
0010
0001
1000
,
0100
1000
0001
1000
0010
1000
0001
0100
0001
1000
0001
0010
0001
1000
0010
0100
,
0001
1000
0100
1000
0001
1000
0010
1000
0001
0100
0001
1000
0001
0010
0001
1000
,
0100
1000
0001
1000
0100
0010
0100
1000
0001
1000
0010
0100
0001
0100
0010
1000
,
0002
0000
2003
0000
3200
0320
0032
0023
,
0000
0000
0032
0000
0203
0320
2030
3020
,
0000
0000
2030
0000
3200
0320
0032
2003
,
3000
0000
0000
0000
0000
0000
0000
0000
0000
0000
0000
0000
0000
0000
0000
0000
0000
0000
0000
0000
0000
0000
0000
0000
2000
0000
0000
3000
0000
0000
0000
0000
0000
0000
0000
0000
0000
0000
0000
0000
0000
0000
0000
0000
0000
0000
0000
0000
2000
0000
0000
3000
0000
0000
0000
0000
0000
0000
0000
0000
0000
0000
0000
0000
0000
0000
0000
0000
0000
0000
0000
0000
2000
0000
0000
3000
0000
0000
0000
0000
0000
0000
0000
0000
0000
0000
0000
0000
0000
0000
0000
0000
0000
0000
0000
0000
2000
0000
0000
3000
0000
0000
0000
0000
0000
0000
0000
0000
0000
0000
0000
0000
0000
0000
0000
0000
0000
0000
0000
0000
2000
0000
0000
3000
0000
0000
0000
0000
0000
0000
0000
0000
0000
0000
0000
0000
0000
0000
0000
0000
0000
0000
0000
0000
2000
0000
0000
0000
3000
0000
0000
0000
0000
0000
0000
0000
0000
0000
0000
0000
0000
0000
0000
0000
0000
0000
0000
0000
2000
0000
0000
0000
3000
0000
0000
0000
0000
0000
0000
0000
0000
0000
0000
0000
0000
0000
0000
0000
0000
0000
0000
0000
,
1001
0002
0023
0230
0300
0000
0000
0000
,
1001
2000
3020
0230
0300
0000
0000
0000
,
0101
0002
2003
3200
0300
0000
0000
0000
,
0110
0020
0032
2003
3000
0000
0000
0000
,
1010
0020
0230
0302
0003
0000
0000
0000
,
1001
2000
3200
0320
0030
0000
0000
0000
,
0110
0200
2300
3002
0003
0000
0000
0000
,
0101
0200
0320
2030
3000
0000
0000
0000
,
0001
1000
0001
0010
0001
0010
0001
1000
0001
0100
0001
1000
0010
0100
0010
1000
,
0001
1000
0001
1000
0100
1000
0100
1000
0001
1000
0010
1000
0001
0100
0010
0100
,
0001
1000
0001
1000
0001
0010
0001
0010
0001
1000
0001
0100
0001
1000
0010
0100
,
0010
1000
0001
1000
0001
1000
0100
1000
0100
1000
0001
1000
0010
0100
0010
1000
,
0002
0000
0023
0000
0230
2300
3002
0203
,
0000
0000
0302
0000
0203
0320
2030
3200
,
0000
0000
2300
0000
3200
0320
0032
0203
,
0000
0000
0000
0000
0310
1000
0001
1000
0010
0100
0001
1000
0100
0010
0100
1000
,
0002
0000
2003
0000
3200
0320
0230
2300
,
0000
0000
3002
0000
0203
0320
0230
0302
,
0000
0000
2003
0000
3200
0320
0230
2300
,
0000
0000
0000
0000
3001
0010
0100
0010
0001
1000
0001
0100
0001
1000
0100
1000
,
0002
0000
0203
0000
0320
2030
3020
0230
,
0000
0000
0320
0000
0230
0302
2003
3200
,
0000
0000
2300
0000
3002
0203
0302
2003
,
0000
0000
0000
0000
3001
0010
0001
1000
0001
0100
0001
1000
0010
0100
0010
1000
,
0002
0000
0023
0000
0032
2003
3020
0230
,
0000
0000
0320
0000
2030
3002
0023
0230
,
0000
0000
0320
0000
0032
2003
3020
0230
,
0000
0000
0000
0000
0300
0000
0000
0000
0200
0300
0000
0000
0000
0000
0000
0000
0200
0300
0000
0000
0000
0000
0000
0000
0200
0300
0000
0000
0000
0000
0000
0000
0200
0300
0000
0000
0000
0000
0000
0000
0200
0300
0000
0000
0000
0000
0000
0000
0200
0300
0000
0000
0000
0000
0000
0000
0200
0300
0000
0000
0000
0000
0000
0000
,
0001
0010
0100
1000
0001
0010
0100
1000
0001
1000
0010
1000
0001
1000
0100
1000
,
0001
1000
0010
0100
0001
1000
0010
0100
0001
1000
0001
0100
0001
1000
0001
0010
,
0001
1000
0100
0010
0001
1000
0100
0010
0001
1000
0001
0100
0001
1000
0001
0010
,
0001
1000
0010
0100
0001
1000
0010
0100
0001
1000
0100
1000
0001
1000
0010
1000
,
0001
1000
0100
0010
0001
1000
0001
0010
0100
1000
0001
1000
0010
1000
0001
1000
,
0100
1000
0001
0100
0010
1000
0010
0100
0001
1000
0001
0100
0001
1000
0001
0010
,
0100
0010
0001
1000
0100
0010
0100
1000
0001
1000
0010
0100
0010
1000
0001
0100
,
0004
4000
0000
0000
0000
0000
0000
0000
0000
0000
0000
0000
0000
0000
0003
3000
,
0001
0100
0010
1000
0001
0100
0010
1000
0001
1000
0100
1000
0001
1000
0010
1000
,
0001
1000
0100
0010
0001
1000
0100
0010
0001
1000
0001
0010
0001
1000
0001
0100
,
0001
1000
0010
0100
0001
1000
0010
0100
0001
1000
0001
0010
0001
1000
0001
0100
,
0001
1000
0100
0010
0001
1000
0100
0010
0001
1000
0010
1000
0001
1000
0100
1000
,
0001
1000
0010
0100
0001
1000
0001
0100
0010
1000
0001
1000
0100
1000
0001
1000
,
0010
1000
0001
0010
0100
1000
0100
0010
0001
1000
0001
0010
0001
1000
0001
0100
,
0010
0100
0001
1000
0010
0100
0010
1000
0001
1000
0100
0010
0100
1000
0001
0100
,
0004
4000
0000
0000
0000
0000
0000
0000
0000
0000
0000
0000
0000
0000
0003
3000
,
0001
1000
0100
1000
0001
0100
0010
1000
0010
0100
0001
1000
0100
1000
0001
0100
,
0010
1000
0001
0010
0100
1000
0001
0100
0001
1000
0100
0010
0001
1000
0010
0100
,
0001
1000
0100
1000
0001
0100
0001
1000
0100
0010
0100
1000
0001
0100
0010
0100
,
0001
1000
0100
1000
0001
0100
0010
1000
0001
0010
0100
1000
0001
0100
0001
1000
,
0100
0010
0001
1000
0010
0100
0001
1000
0100
1000
0001
0100
0010
1000
0001
0010
,
0100
1000
0001
1000
0010
0100
0010
1000
0001
0010
0100
1000
0001
0100
0001
1000
,
0100
0010
0001
1000
0010
0100
0001
0100
0010
1000
0001
0010
0100
1000
0100
0010
,
0004
4000
0000
0000
0000
0000
0000
0000
0000
0000
0000
0000
0000
0000
0003
3000
,
0001
0100
0010
1000
0010
0100
0001
1000
0100
0010
0001
0100
0010
1000
0001
0010
,
0100
1000
0100
0010
0001
0100
0010
1000
0010
0100
0001
1000
0100
1000
0010
0100
,
0001
0010
0100
1000
0001
0100
0001
0010
0100
1000
0010
1000
0001
0010
0100
1000
,
0001
0100
0010
1000
0010
0100
0001
0010
0100
1000
0001
0100
0001
1000
0100
0010
,
0001
0100
0010
1000
0010
0100
0001
1000
0100
1000
0001
0100
0010
0100
0001
0010
,
0100
1000
0001
0100
0010
1000
0100
0010
0100
1000
0001
0100
0010
1000
0100
0010
,
0001
0100
0010
1000
0100
0010
0001
0010
0100
1000
0010
0100
0001
0100
0010
1000
,
0400
0040
0000
0000
0000
0000
0000
0000
0000
0000
0000
0000
0000
0000
0030
0300
,
0001
2000
3020
0230
0300
0000
0000
0000
,
1001
0002
0023
0230
0300
0000
0000
0000
,
1100
2000
3002
0203
0300
0000
0000
0000
,
0110
0020
2030
3002
0003
0000
0000
0000
,
0011
0020
0230
2300
3000
0000
0000
0000
,
1001
0002
0203
0320
0030
0000
0000
0000
,
0110
0200
0302
2003
3000
0000
0000
0000
,
1100
0200
0320
0032
0003
0000
0000
0000
,
1000
0001
1000
0010
1000
0010
1000
0001
1000
0100
1000
0001
0010
0100
0010
0001
,
1000
0001
1000
0001
0100
0001
0100
0001
1000
0001
0010
0001
1000
0100
0010
0100
,
1000
0001
1000
0001
1000
0010
1000
0010
1000
0001
1000
0100
1000
0001
0010
0100
,
0010
0001
1000
0001
1000
0001
0100
0001
0100
0001
1000
0001
0010
0100
0010
0001
,
2000
0000
3020
0000
0230
0302
2003
3200
,
0000
0000
2300
0000
3200
0320
0032
0203
,
0000
0000
0302
0000
0203
0320
2030
3200
,
0000
0000
0000
0000
0310
0001
1000
0001
0010
0100
1000
0001
0100
0010
0100
0001
,
2000
0000
3002
0000
0203
0320
0230
0302
,
0000
0000
2003
0000
3200
0320
0230
2300
,
0000
0000
3002
0000
0203
0320
0230
0302
,
0000
0000
0000
0000
1003
0010
0100
0010
1000
0001
1000
0100
1000
0001
0100
0001
,
2000
0000
3200
0000
0320
0032
0023
0230
,
0000
0000
0320
0000
0230
2300
3002
0203
,
0000
0000
0302
0000
2003
3200
2300
3002
,
0000
0000
0000
0000
0103
0010
1000
0001
1000
0100
1000
0001
0010
0100
0010
0001
,
2000
0000
3020
0000
2030
3002
0023
0230
,
0000
0000
0320
0000
0032
2003
3020
0230
,
0000
0000
0320
0000
2030
3002
0023
0230
,
0000
0000
0000
0000
0300
0000
0000
0000
0200
0300
0000
0000
0000
0000
0000
0000
0200
0300
0000
0000
0000
0000
0000
0000
0200
0300
0000
0000
0000
0000
0000
0000
0200
0300
0000
0000
0000
0000
0000
0000
0200
0300
0000
0000
0000
0000
0000
0000
0200
0300
0000
0000
0000
0000
0000
0000
0200
0300
0000
0000
0000
0000
0000
0000
,
0000
0000
0000
0000
0000
0000
0000
0000
0000
0000
0000
0000
0000
0000
0000
0000
0000
0000
1000
0001
1000
0001
1000
0004
,
4000
0000
0000
0000
0000
0000
0000
0000
0000
0000
0000
3003
,
1002
0000
0000
0000
0000
0000
0000
0000
0000
0000
0000
0000
1000
0000
0000
0000
0000
0000
0000
0000
0000
0000
0000
0000
0010
0000
0000
0000
0000
0000
1000
0000
0000
0000
0000
0000
0000
0000
0000
0003
0000
0000
0001
0000
1000
0000
0001
0000
,
2000
0000
0000
0000
0010
0000
0000
0001
,
0001
0000
0000
0000
0000
0000
0001
0000
0000
0000
0000
0000
0010
0000
0000
0001
0000
0000
3000
0000
0000
1000
0001
2000
,
0002
0000
0000
0000
,
0000
0000
0000
3003
;
