#TITLE:Sonic And Tails;
#SUBTITLE:;
#ARTIST:Arcade;
#TITLETRANSLIT:;
#SUBTITLETRANSLIT:;
#ARTISTTRANSLIT:;
#CREDIT:owenviau1;
#BANNER:BN.png;
#BACKGROUND:BG.png;
#LYRICSPATH:;
#CDTITLE:../CDTitleOV1.png;
#MUSIC:Arcade - Sonic And Tails.ogg;
#OFFSET:-0.639;
#SAMPLESTART:129.261;
#SAMPLELENGTH:29.999;
#SELECTABLE:YES;
#BPMS:0.000=169.800;
#STOPS:;
#BGCHANGES:;
// cache tags:
#FIRSTBEAT:0.000;
#LASTBEAT:749.000;
#SONGFILENAME:Songs/owenviau1 Simfiles 07_final/Sonic And Tails - [owenviau1] v1.0.6/Sonic And Tails.sm;
#HASMUSIC:1;
#HASBANNER:1;
#MUSICLENGTH:273.031;
// end cache tags

//---------------dance-single - 15.20 (15) (owenviau----------------
#NOTES:
     dance-single:
     15.20 (15) (owenviau:
     Hard:
     15:
     1.000,1.000,0.000,0.103,1.000,2505.000,0.000,28.000,0.000,0.000:
0000
0000
0000
0000
,
0000
0000
0000
0000
,
0000
0000
0000
0000
,
0000
0000
0000
0000
,
0000
0000
0000
0000
,
0000
0000
0000
0000
,
0000
0000
0000
0000
,
0000
0000
0000
0000
,
1000
0010
0200
0300
0001
0000
1000
0020
,
0030
0000
1000
0100
0020
0030
0002
0000
,
0003
0000
1000
0000
0010
0000
0200
0000
0300
0000
0001
0010
0001
0000
1000
0000
,
0010
0100
0002
0000
1003
0010
0200
0300
,
0001
0010
0200
0300
1000
0000
0001
0200
,
0300
0000
0000
0000
0010
0000
1000
0000
0010
0000
0100
0000
0002
0000
0000
0003
,
1000
0000
0100
0000
0020
0000
0030
0000
0002
0000
0003
0000
0200
0000
0000
0300
,
0000
0000
0000
0000
0010
0000
1000
0000
0002
0000
0003
0000
0020
0000
0100
0030
,
1000
0000
0001
0000
0100
0010
1000
0100
1000
0001
0010
0100
1000
0010
0100
0010
,
1000
0001
0010
0001
0100
0010
1000
0100
0010
0001
1000
0010
1000
0100
0010
0001
,
0100
0010
1000
0001
0010
0001
0100
0010
1000
0100
0010
0001
0100
0010
1000
0010
,
0100
0001
1000
0001
0010
0100
1000
0010
0100
0001
0010
0100
1000
0010
1000
0100
,
0010
0001
0100
0010
1000
0001
0100
0001
0010
0100
1000
0100
0010
0001
0100
0010
,
1000
0001
0010
0001
0100
0010
1000
0100
0010
0001
1000
0010
1000
0100
0010
0001
,
0100
0010
1000
0001
0010
0100
1000
0010
0100
0010
1000
0001
0100
0001
0010
0100
,
1000
0010
0100
0010
1000
0100
0010
0001
0100
0010
1000
0001
0010
0001
0100
0010
,
1000
0100
1000
0001
0010
0100
1000
0010
0100
0001
1000
0100
0010
0001
0100
0010
,
0100
0001
1000
0100
0010
0001
0100
0010
1000
0001
0010
0100
1000
0001
0010
0100
,
1000
0010
0100
0010
1000
0001
0010
0001
0100
0010
1000
0100
0010
0001
1000
0010
,
1000
0100
0010
0001
0100
0010
1000
0001
0010
0001
0100
0010
1000
0100
0010
0001
,
0100
0010
1000
0010
0100
0001
1000
0001
0010
0100
1000
0010
0100
0001
0010
0100
,
1000
0010
1000
0100
0010
0001
0100
0010
1000
0001
0100
0001
0010
0100
1000
0100
,
0010
0001
0100
0010
1000
0001
0010
0001
0100
0010
1000
0100
0010
0001
1000
0010
,
1000
0100
0010
0001
0100
0010
1000
0001
0010
0100
1000
0010
0100
0010
1000
0001
,
0100
0001
0010
0100
1000
0010
0100
0010
1000
0100
0010
0001
0100
0010
1000
0001
,
0010
0001
0100
0010
1000
0000
0002
0000
0103
0000
0010
0000
1000
0100
0010
0001
,
0100
0010
2000
0000
3001
0100
0010
1000
0001
0010
0001
0100
0010
1000
0100
0010
,
0001
0100
0010
1000
0010
0100
0001
1000
0001
0010
0100
1000
0010
0100
0001
0010
,
0100
1000
0010
1000
0100
0010
0001
0100
0010
1000
0001
0100
0001
0010
0100
1000
,
0100
0010
0001
0100
0010
1000
0001
0010
0001
0100
0010
1000
0100
0010
0001
1000
,
0010
1000
0100
0010
0001
0100
0010
1000
0001
0010
0100
1000
0010
0100
0010
1000
,
0001
0100
0001
0010
0100
1000
0010
0100
0010
1000
0100
0010
0001
0100
0010
1000
,
0001
0010
0001
0100
0010
1000
0100
1000
0001
0010
0100
1000
0001
0100
0010
1000
,
0100
0010
0001
0100
0010
1000
0001
1000
0100
0010
0001
0100
0010
1000
0100
0010
,
0001
1000
0001
0010
0100
1000
0010
0100
0010
1000
0001
0010
0001
0100
0010
1000
,
0100
0010
0001
1000
0010
1000
0100
0010
0001
0100
0010
1000
0001
0010
0001
0100
,
0010
1000
0100
0010
0001
0100
0010
1000
0010
0100
0001
1000
0001
0010
0100
1000
,
0010
0100
0001
0010
0100
1000
0010
1000
0100
0010
0001
0100
0010
1000
0001
0100
,
0001
0010
0100
1000
0100
0010
0001
0100
0010
1000
0001
0010
0001
0100
0010
1000
,
0100
0010
0001
1000
0010
1000
0100
0010
0001
0100
0010
1000
0001
0010
0100
1000
,
0010
0100
0010
1000
0001
0100
0001
0010
0100
1000
0010
0100
0010
1000
0100
0010
,
0001
0100
0010
1000
0001
0100
0010
1000
0001
0010
0001
0100
0010
1000
0100
0010
,
0001
0100
0010
1000
0010
0100
0001
1000
0001
0010
0100
1000
0010
0100
0001
0010
,
0100
1000
0010
1000
0100
0010
0001
0100
0010
1000
0001
0100
0001
0010
0100
1000
,
0100
0010
0001
0100
0010
1000
0001
0010
0001
0100
0010
1000
0100
0010
0001
1000
,
0010
1000
0100
0010
0001
0100
0010
1000
0001
0010
0100
1000
0010
0100
0010
1000
,
0001
0100
0001
0010
0100
1000
0010
0100
0010
1000
0100
0010
0001
0100
0010
1000
,
0001
0010
0001
0100
0010
1000
0100
1000
0001
0010
0100
1000
0010
0100
0001
0100
,
0010
1000
0001
0010
0001
0100
0010
1000
0100
0010
0001
0100
0010
1000
0010
0100
,
0001
1000
0001
0010
0100
1000
0010
0100
0001
0010
0100
1000
0010
1000
0100
0010
,
0001
0100
0010
1000
0001
0100
0001
0010
0100
1000
0100
0010
0001
0100
0010
1000
,
0001
0010
0001
0100
0010
1000
0100
0010
0001
1000
0010
1000
0100
0010
0001
0100
,
0010
1000
0001
0010
0100
1000
0010
0100
0010
1000
0001
0100
0001
0010
0100
1000
,
0010
0100
0010
1000
0100
0010
0001
0100
0010
1000
0001
0010
0001
0100
0010
1000
,
0100
1000
0001
0010
0100
1000
0010
0100
0001
0100
0010
1000
0001
0010
0001
0100
,
0010
1000
0100
0010
0001
0100
0010
1000
0010
0100
0001
1000
0001
0010
0100
1000
,
0010
0100
0001
0010
0100
1000
0010
1000
0100
0010
0001
0100
0010
1000
0001
0100
,
0001
0010
0100
1000
0100
0010
0001
0100
0010
1000
0001
0010
0001
0100
0010
1000
,
0100
0010
0001
1000
0010
1000
0100
0010
0001
0100
0010
1000
0001
0010
0100
1000
,
0010
0100
0010
1000
0001
0100
0001
0010
0100
1000
0010
0100
0010
1000
0100
0010
,
0001
0100
0010
1000
0001
0010
0001
0100
0010
1000
0100
1000
0001
0010
0001
0100
,
0010
1000
0100
0010
0001
0100
0010
1000
0010
0100
0001
1000
0001
0010
0100
1000
,
0010
0100
0001
0010
0100
1000
0010
1000
0100
0010
0001
0100
0010
1000
0001
0100
,
0001
0010
0100
1000
0100
0010
0001
0100
0010
1000
0001
0010
0001
0100
0010
1000
,
0100
0010
0001
1000
0010
1000
0100
0010
0001
0100
0010
1000
0001
0010
0100
1000
,
0010
0100
0010
1000
0001
0100
0001
0010
0100
1000
0010
0100
0010
1000
0100
0010
,
0001
0100
0010
1000
0001
0100
0010
0000
1000
0100
0010
0000
0001
1000
0010
0000
,
0100
0001
0010
0000
0100
1000
0100
0000
1000
0100
1000
0000
0001
0010
0001
0000
,
0010
0001
0010
0000
0001
1000
0010
0000
0100
0001
1000
0000
0100
0010
0001
0000
,
0100
0010
1000
0000
0001
0100
0001
0000
1000
0010
0100
0000
0001
0010
0100
0000
,
1000
0100
1000
0000
0001
0010
0100
0000
1000
0010
0100
0000
0001
1000
0001
0000
,
0010
0100
1000
0000
0010
0100
0010
0000
0100
0010
0100
0000
0001
1000
0001
0000
,
1000
0001
1000
0000
0010
0100
0001
0000
1000
0100
0010
0000
0001
0100
0010
0000
,
1000
0001
0010
0000
0100
1000
0001
0000
0100
0010
1000
0000
0100
0010
0001
0000
,
1000
0010
0200
0300
0001
0000
1000
0020
,
0030
0000
1000
0100
0020
0030
0002
0000
,
0003
0000
1000
0000
0010
0000
0200
0000
0300
0000
0001
0010
0001
0000
1000
0000
,
0010
0100
0002
0000
1003
0010
0200
0300
,
0001
0010
0200
0300
1000
0000
0001
0200
,
0300
0000
0000
0000
0010
0000
1000
0000
0010
0000
0100
0000
0002
0000
0000
0003
,
1000
0000
0100
0000
0010
0001
0100
0010
1000
0001
0100
0001
0010
0100
1000
0010
,
0100
0001
1000
0100
1000
0001
0010
0001
0100
0010
1000
0100
0010
0001
1000
0010
,
1000
0001
0100
0010
1000
0100
0010
0001
1000
0100
1000
0010
0100
0001
1000
0100
,
0010
0001
0100
0010
1000
0100
0010
0001
0100
0010
1000
0010
0100
0001
1000
0001
,
0010
0100
1000
0010
0100
0001
0010
0100
1000
0010
1000
0100
0010
0001
0100
0010
,
1000
0001
0100
0001
0010
0100
1000
0100
0010
0001
0100
0010
1000
0001
0010
0001
,
0100
0010
1000
0100
0010
0001
1000
0010
1000
0100
0010
0001
0100
0010
1000
0001
,
0010
0100
1000
0010
0100
0010
1000
0001
0100
0001
0010
0100
1000
0010
0100
0010
,
1000
0100
0010
0001
0100
0010
1000
0001
0010
0001
0100
0010
1000
0100
1000
0001
,
0010
0100
1000
0001
0100
0010
1000
0100
0010
0001
0100
0010
1000
0001
1000
0100
,
0010
0001
0100
0010
1000
0100
0010
0001
1000
0001
0010
0100
1000
0010
0100
0010
,
1000
0001
0010
0001
0100
0010
1000
0100
0010
0001
1000
0010
1000
0100
0010
0001
,
0100
0010
1000
0001
0010
0001
0100
0010
1000
0100
0010
0001
0100
0010
1000
0010
,
0100
0001
1000
0001
0010
0100
1000
0010
0100
0001
0010
0100
1000
0010
1000
0100
,
0010
0001
0100
0010
1000
0001
0100
0001
0010
0100
1000
0100
0010
0001
0100
0010
,
1000
0001
0010
0001
0100
0010
1000
0100
0010
0001
1000
0010
1000
0100
0010
0001
,
0100
0010
1000
0001
0010
0100
1000
0010
0100
0010
1000
0001
0100
0001
0010
0100
,
1000
0010
0100
0010
1000
0100
0010
0001
0100
0010
1000
0001
0100
0010
1000
0001
,
0010
0001
0100
0010
1000
0100
0010
0001
0100
0010
1000
0010
0100
0001
1000
0001
,
0010
0100
1000
0010
0100
0001
0010
0100
1000
0010
1000
0100
0010
0001
0100
0010
,
1000
0001
0100
0001
0010
0100
1000
0100
0010
0001
0100
0010
1000
0001
0010
0001
,
0100
0010
1000
0100
0010
0001
1000
0010
1000
0100
0010
0001
0100
0010
1000
0001
,
0010
0100
1000
0010
0100
0010
1000
0001
0100
0001
0010
0100
1000
0010
0100
0010
,
1000
0100
0010
0001
0100
0010
1000
0001
0010
0001
0100
0010
1000
0100
1000
0001
,
0010
0100
1000
0010
0100
0001
0100
0010
1000
0001
0010
0001
0100
0010
1000
0100
,
0010
0001
0100
0010
1000
0010
0100
0001
1000
0001
0010
0100
1000
0010
0100
0001
,
0010
0100
1000
0010
1000
0100
0010
0001
0100
0010
1000
0001
0100
0001
0010
0100
,
1000
0100
0010
0001
0100
0010
1000
0001
0010
0001
0100
0010
1000
0100
0010
0001
,
1000
0010
1000
0100
0010
0001
0100
0010
1000
0001
0010
0100
1000
0010
0100
0010
,
1000
0001
0100
0001
0010
0100
1000
0010
0100
0010
1000
0100
0010
0001
0100
0010
,
1000
0001
0010
0001
0100
0010
1000
0100
1000
0001
0010
0100
1000
0010
0100
0001
,
0100
0010
1000
0001
0010
0001
0100
0010
1000
0100
0010
0001
0100
0010
1000
0010
,
0100
0001
1000
0001
0010
0100
1000
0010
0100
0001
0010
0100
1000
0010
1000
0100
,
0010
0001
0100
0010
1000
0001
0100
0001
0010
0100
1000
0100
0010
0001
0100
0010
,
1000
0001
0010
0001
0100
0010
1000
0100
0010
0001
1000
0010
1000
0100
0010
0001
,
0100
0010
1000
0001
0010
0100
1000
0010
0100
0010
1000
0001
0100
0001
0010
0100
,
1000
0010
0100
0010
1000
0100
0010
0001
0100
0010
1000
0001
0010
0001
0100
0010
,
1000
0100
1000
0001
0010
0001
0100
0010
1000
0100
0010
0001
0100
0010
1000
0010
,
0100
0001
1000
0001
0010
0100
1000
0010
0100
0001
0010
0100
1000
0010
1000
0100
,
0010
0001
0100
0010
1000
0001
0100
0001
0010
0100
1000
0100
0010
0001
0100
0010
,
1000
0001
0010
0001
0100
0010
1000
0100
0010
0001
1000
0010
1000
0100
0010
0001
,
0100
0010
1000
0001
0010
0100
1000
0010
0100
0010
1000
0001
0100
0001
0010
0100
,
1000
0010
0100
0010
1000
0100
0010
0001
0100
0010
1000
0001
0100
0001
1000
0100
,
0010
0001
0100
0010
1000
0000
0001
0000
0100
0000
0010
0000
1000
0000
0100
0000
,
0010
0001
1000
0010
1000
0100
0010
0001
,
0100
0010
1000
0010
0100
0001
0010
0001
,
1000
0100
0010
0001
0100
0001
1000
0010
,
0100
0001
1000
0100
0010
0001
0100
0010
,
0100
0001
1000
0100
1000
0001
0010
0100
,
1000
0010
0100
0010
1000
0001
1000
0010
,
0100
0001
1000
0100
0010
0001
1000
0010
,
1000
0000
0001
0000
0010
0100
0010
0000
1000
0100
0010
0000
0001
1000
0010
0000
,
0100
0001
0010
0000
0100
1000
0100
0000
1000
0100
1000
0000
0001
0010
0001
0000
,
0010
0001
0010
0000
0001
1000
0010
0000
0100
0001
1000
0000
0100
0010
0001
0000
,
0100
0010
1000
0000
0001
0100
0001
0000
1000
0010
0100
0000
0001
0010
0100
0000
,
1000
0100
1000
0000
0001
0010
0100
1000
0001
0100
0010
1000
0100
0010
0001
1000
,
0010
1000
0100
0010
0001
0100
0010
1000
0001
0010
0100
1000
0010
0100
0010
1000
,
0001
0100
0001
0010
0100
1000
0010
0100
0010
1000
0100
0010
0001
0100
0010
1000
,
0001
0010
0001
0100
0010
1000
0100
1000
0001
0010
0100
1000
0001
0100
0010
1000
,
0100
0010
0001
0100
0010
1000
0001
1000
0100
0010
0001
0100
0010
1000
0100
0010
,
0001
1000
0001
0010
0100
1000
0010
0100
0010
1000
0001
0010
0001
0100
0010
1000
,
0100
0010
0001
1000
0010
1000
0100
0010
0001
0100
0010
1000
0001
0010
0001
0100
,
0010
1000
0100
0010
0001
0100
0010
1000
0010
0100
0001
1000
0001
0010
0100
1000
,
0010
0100
0001
0010
0100
1000
0010
1000
0100
0010
0001
0100
0010
1000
0001
0100
,
0001
0010
0100
1000
0100
0010
0001
0100
0010
1000
0001
0010
0001
0100
0010
1000
,
0100
0010
0001
1000
0010
1000
0100
0010
0001
0100
0010
1000
0001
0010
0100
1000
,
0010
0100
0010
1000
0001
0100
0001
0010
0100
1000
0010
0100
0010
1000
0100
0010
,
0001
0100
0010
1000
0001
0100
0010
1000
0001
0010
0001
0100
0010
1000
0100
0010
,
0001
0100
0010
1000
0010
0100
0001
1000
0001
0010
0100
1000
0010
0100
0001
0010
,
0100
1000
0010
1000
0100
0010
0001
0100
0010
1000
0001
0100
0001
0010
0100
1000
,
0100
0010
0001
0100
0010
1000
0001
0010
0001
0100
0010
1000
0100
0010
0001
1000
,
0010
1000
0100
0010
0001
0100
0010
1000
0001
0010
0100
1000
0010
0100
0010
1000
,
0001
0100
0001
0010
0100
1000
0010
0100
0010
1000
0100
0010
0001
0100
0010
1000
,
0001
0010
0001
0100
0010
1000
0100
1000
0001
0010
0100
1000
0010
0100
0001
0100
,
0010
1000
0001
0010
0001
0100
0010
1000
0100
0010
0001
0100
0010
1000
0010
0100
,
0001
1000
0001
0010
0100
1000
0010
0100
0001
0010
0100
1000
0010
1000
0100
0010
,
0001
0100
0010
1000
0001
0100
0001
0010
0100
1000
0100
0010
0001
0100
0010
1000
,
0001
0010
0001
0100
0010
1000
0100
0010
0001
1000
0010
1000
0100
0010
0001
0100
,
0010
1000
0001
0010
0100
1000
0010
0100
0010
1000
0001
0100
0001
0010
0100
1000
,
0010
0100
0010
1000
0100
0010
0001
0100
0010
1000
0001
0010
0001
0100
0010
1000
,
0100
1000
0001
0010
0100
1000
0010
0100
0001
0100
0010
1000
0001
0010
0001
0100
,
0010
1000
0100
0010
0001
0100
0010
1000
0010
0100
0001
1000
0001
0010
0100
1000
,
0010
0100
0001
0010
0100
1000
0010
1000
0100
0010
0001
0100
0010
1000
0001
0100
,
0001
0010
0100
1000
0001
0100
0010
0000
1000
0100
0010
0000
0001
1000
0010
0000
,
0100
0001
0010
0000
0100
1000
0100
0000
1000
0100
1000
0000
0001
0010
0001
0000
,
0010
0001
0010
0000
0001
1000
0010
0000
0100
0001
1000
0000
0100
0010
0001
0000
,
0100
0010
1000
0000
0001
0100
0001
0000
1000
0010
0100
0000
0001
0010
0100
0000
,
1000
0100
1000
0000
0001
0010
0100
0000
1000
0010
0100
0000
0001
1000
0001
0000
,
0010
0100
1000
0000
0010
0100
0010
0000
0100
0010
0100
0000
0001
1000
0001
0000
,
1000
0001
1000
0000
0010
0100
0001
0000
1000
0100
0010
0000
0001
0100
0010
0000
,
1000
0001
0010
0000
0100
1000
0001
0000
0100
0010
1000
0000
0100
0010
0001
0000
,
1000
0010
0100
0000
0001
0000
1000
0000
0010
0000
0100
0000
0010
0000
1000
0000
,
0001
0010
0001
1000
0100
0010
0001
0100
,
0010
1000
0001
0100
0001
1000
0010
0100
,
0001
1000
0100
0010
0001
1000
0010
1000
,
0100
0010
0001
0100
0010
1000
0001
0010
,
0100
1000
0001
0010
0001
1000
0010
0100
,
0001
1000
0100
0010
0001
1000
0010
1000
,
0001
0100
0001
1000
0100
0010
0001
0100
,
0020
0030
0000
0000
,
0000
0000
0000
0000
,
0000
0000
0000
0000
,
0000
0000
0000
0000
,
0000
0000
0000
0000
,
0000
0000
0000
0000
;

//---------------dance-single - ----------------
#NOTES:
     dance-single:
     :
     Challenge:
     22:
     1.000,1.000,0.044,0.000,1.000,3325.000,12.000,0.000,0.000,0.000:

1000
1000
1000
0000
0000
0010
0010
0010
,
0010
0000
0101
0000
0010
0010
0000
0000
,
1000
0001
1000
0000
0010
0100
0001
1000
,
0100
0010
0001
0000
0001
1000
0000
0010
,
0100
0001
1000
0000
0001
0100
0010
0000
,
1000
0010
0100
0000
0100
0000
0001
1000
,
0000
1000
0001
0000
0010
0000
0100
1000
,
0001
0100
0010
1000
0100
0010
0001
0000
,
1000
0000
0001
0000
0100
0010
0100
0000
0001
1000
0001
0000
1000
0010
1000
0000
,
0001
0100
0001
0000
0100
0010
0100
0000
0010
1000
0010
0000
1000
0010
1000
0000
,
0001
0100
0001
0000
1000
0010
1000
0000
0001
0100
0010
0000
1000
0100
1000
0000
,
0001
0100
0010
0000
1000
0001
0100
0000
0010
1000
0001
0000
0100
0010
1000
0000
,
0100
0010
0001
0000
0100
0010
1000
0000
0001
0100
0010
0000
1000
0001
1000
0000
,
0010
0100
0001
0000
0100
0010
1000
0000
0001
0100
0010
0000
1000
0001
0100
0000
,
0010
1000
0001
0000
0100
0010
1000
0000
0001
0100
0010
0000
1000
0100
0010
0000
,
0001
0100
0010
0000
1000
0001
0010
0000
0100
1000
0001
0000
0100
0010
1000
0000
,
0001
0100
0010
0000
1000
0100
1000
0001
0100
0010
1000
0100
0010
0001
0100
0010
,
1000
0000
0000
0001
0000
0000
1000
0000
0000
0010
0000
0000
1000
0000
0100
0000
0010
0000
0001
0000
0010
0000
0100
0000
1000
0000
0001
0000
0100
0000
0010
0000
1000
0000
0100
0000
0010
0000
0001
0000
0010
0000
0100
0000
1000
0000
0001
0000
,
0100
0010
1000
0001
0100
0010
1000
0100
0010
0001
0010
0100
1000
0001
0100
0010
1000
0001
0010
0100
1000
0100
0010
0001
,
0100
0010
0100
0001
0010
0100
1000
0100
0010
0001
0100
0010
0100
0001
0010
0100
1000
0001
0100
0010
1000
0100
0010
0001
,
0010
0100
1000
0001
0100
0010
0100
0001
1000
0100
0010
0001
0010
0100
1000
0001
0100
0010
1000
0100
0010
0001
0010
0100
,
1000
0001
0100
0001
0010
0001
0100
0010
1000
0001
0010
0100
0010
0100
0010
0001
0100
0001
1000
0001
0100
0010
1000
0010
,
0100
0001
1000
0100
0010
0001
0010
0100
1000
0001
0100
0010
1000
0001
0010
0100
1000
0001
0100
0010
0100
0001
1000
0100
,
0010
0100
1000
0001
0100
0010
1000
0100
0010
0100
1000
0001
0100
0010
1000
0001
0010
0100
1000
0100
0010
0001
0100
0010
,
1000
0010
0100
0001
1000
0100
0010
0001
0010
0100
1000
0001
0100
0010
1000
0001
0100
0010
1000
0010
0100
0001
1000
0100
,
0010
0001
0010
0100
1000
0001
0100
0010
1000
0100
0010
0001
0010
0100
0010
0001
0100
0010
1000
0010
0100
0001
0100
0010
,
1000
0100
0010
0100
1000
0001
0100
0010
1000
0001
0010
0001
0100
0010
1000
0001
0100
0010
1000
0100
0010
0001
0010
0100
,
1000
0001
0100
0010
1000
0100
0010
0001
0010
0100
1000
0001
0100
0010
1000
0001
0100
0010
1000
0100
0010
0001
0010
0100
,
1000
0001
0100
0010
1000
0001
0010
0100
1000
0100
0010
0001
0100
0010
0100
0001
0010
0100
1000
0100
0010
0001
0100
0010
,
0100
0001
0010
0100
1000
0001
0100
0010
1000
0100
0010
0001
0010
0100
1000
0001
0100
0010
0100
0001
1000
0100
0010
0001
,
0010
0100
1000
0001
0100
0010
1000
0100
0010
0001
0010
0100
1000
0001
0100
0001
0010
0001
0100
0010
1000
0001
0010
0100
,
0010
0100
0010
0001
0100
0001
1000
0001
0100
0010
1000
0010
0100
0001
1000
0100
0010
0001
0010
0100
1000
0001
0100
0010
,
1000
0001
0010
0100
1000
0001
0100
0010
0100
0001
1000
0100
0010
0100
1000
0001
0100
0010
1000
0100
0010
0100
1000
0001
,
0100
0000
0010
0000
1000
0000
0001
0000
0010
0000
0100
0000
0040
0000
0000
0000
0000
0000
0000
0000
0000
0000
0000
0000
0000
0000
0000
0000
0000
0000
0000
0000
0000
0000
0000
0000
0031
0000
0000
1000
0000
0000
0001
0000
0000
0100
0000
0000
,
0010
0000
1000
0000
0010
0000
1000
0000
0010
0000
1000
0001
0100
0010
1000
0001
,
0100
0010
1000
0100
0010
0100
1000
0001
0100
0010
1000
0001
0100
0010
1000
0100
,
0010
0001
0010
0100
0010
0100
1000
0001
0100
0010
1000
0001
0100
0010
1000
0100
,
0010
0001
0010
0100
1000
0001
0100
0010
1000
0010
0100
0001
0100
0010
1000
0001
,
0100
0010
1000
0100
0010
0100
1000
0001
0100
0010
0100
0001
0010
0100
1000
0100
,
0010
0001
0100
0010
1000
0001
0100
0010
0100
0001
0010
0100
1000
0100
0010
0100
,
1000
0001
0100
0010
1000
0001
0100
0010
1000
0100
0010
0100
1000
0001
0100
0010
,
0100
0000
0000
0000
0100
0000
0010
0000
1000
0000
0100
0010
0100
0000
1000
0000
,
0001
0000
0100
0000
0001
1000
0001
0100
0010
1000
0010
1000
0010
1000
0010
1000
,
0010
0100
0001
1000
0010
0100
0001
1000
0010
0100
0001
0010
0100
0010
0001
1000
,
0010
0100
0001
1000
0010
0100
0001
0010
0100
1000
0100
0010
0100
0010
0001
1000
,
0010
0100
0001
1000
0010
0100
0001
0010
0100
1000
0100
0010
0001
1000
0010
0100
,
0001
0100
0010
1000
0010
0100
0001
1000
0010
0100
0001
0010
0100
0010
0001
1000
,
0010
0100
0010
1000
0100
0010
0001
0010
0100
1000
0010
0100
0001
1000
0010
0100
,
0010
1000
0100
0010
0001
0010
0100
0010
0001
1000
0010
0100
0001
1000
0010
0100
,
0001
0010
0100
0010
0100
1000
0001
0100
0010
1000
0001
0010
0100
1000
0001
0100
,
0010
0100
0001
1000
0100
0010
0100
1000
0001
0100
0010
1000
0001
0100
0010
1000
,
0001
0100
0010
1000
0100
0010
0100
1000
0001
0100
0010
1000
0001
0100
0010
1000
,
0100
0010
0001
0010
0100
1000
0001
0100
0010
1000
0001
0100
0010
1000
0001
0010
,
0100
1000
0100
0010
0001
0100
0010
0100
0001
0100
0010
0100
0001
1000
0100
0010
,
0100
1000
0001
0100
0010
1000
0100
0010
0100
1000
0001
0100
0010
1000
0100
0010
,
0100
1000
0001
0100
0010
1000
0010
1000
0001
0100
0001
0100
0010
0100
0010
0100
,
0010
1000
0010
1000
0010
0100
0010
0100
0001
0100
0001
0100
0001
0010
0001
0010
,
0100
1000
0100
1000
0001
0100
0001
0100
0010
1000
0010
1000
0001
0100
0010
1000
,
0100
0010
0001
0100
0010
1000
0001
0100
0010
1000
0100
0010
0100
1000
0001
0100
0010
1000
0001
0100
0010
1000
0001
0100
,
0010
1000
0100
0010
0001
0010
0100
1000
0001
0100
0010
1000
0100
0010
0100
1000
0001
0100
0010
1000
0001
0100
0010
1000
,
0100
0010
0001
0010
0100
1000
0001
0100
0010
1000
0001
0100
0010
1000
0001
0010
0100
1000
0100
0010
0001
0100
0010
0100
,
0001
0010
0100
1000
0100
0010
0001
0100
0010
0100
0001
1000
0100
0010
0100
1000
0001
0100
0010
1000
0001
0100
0010
1000
,
0100
0010
0100
1000
0001
0010
0100
1000
0001
0100
0010
0100
0001
1000
0100
0010
0100
1000
0001
0100
0010
1000
0001
0100
,
0010
1000
0001
0010
0100
1000
0100
0010
0001
0100
0010
0100
0001
0100
0010
1000
0100
0010
0100
0010
0001
0100
0001
0010
,
0100
0010
0001
0100
0010
1000
0001
0100
0010
1000
0100
0010
0100
1000
0001
0100
0010
1000
0001
0100
0010
1000
0001
0100
,
0010
1000
0100
0010
0001
0010
0100
1000
0001
0100
0010
1000
0100
0010
0100
1000
0001
0100
0010
1000
0001
0100
0010
1000
,
0100
0010
0001
0010
0100
1000
0001
0100
0010
1000
0001
0100
0010
1000
0001
0010
0100
1000
0100
0010
0001
0100
0010
0100
,
0001
0010
0100
1000
0100
0010
0001
0100
0010
0100
0001
1000
0100
0010
0100
1000
0001
0100
0010
1000
0001
0100
0010
1000
,
0100
0010
0100
1000
0001
0010
0100
1000
0001
0100
0010
0100
0001
1000
0100
0010
0100
1000
0001
0100
0010
1000
0001
0100
,
0010
1000
0001
0010
0100
1000
0100
0010
0001
0100
0010
0100
0001
0100
0010
1000
0100
0010
0100
0010
0001
0100
0001
0010
,
0100
0010
0001
0100
0010
1000
0001
0100
0010
1000
0100
0010
0100
1000
0001
0100
0010
1000
0001
0100
0010
1000
0001
0100
,
0010
1000
0100
0010
0001
0010
0100
1000
0001
0100
0010
1000
0100
0010
0100
1000
0001
0100
0010
1000
0001
0100
0010
1000
,
0100
0010
0001
0010
0100
1000
0001
0100
0010
1000
0001
0100
0010
1000
0001
0010
0100
1000
0100
0010
0001
0100
0010
0100
,
0001
0010
0100
1000
0100
0010
0001
0100
0010
0100
0001
1000
0100
0010
0100
1000
0001
0100
0010
1000
0001
0100
0010
1000
,
0100
0000
0010
0000
0100
0000
1000
0000
0001
0000
0010
0000
0001
0000
0000
1000
0000
0000
0001
0000
0000
0000
0000
0000
1000
0000
0000
0001
0000
0000
0010
0000
0000
0000
0000
0000
0100
0000
0000
0010
0000
0000
0100
0000
0000
0000
0000
0000
,
0001
1000
0001
0000
1000
0010
1000
0000
0001
0100
0001
0000
0100
0010
0100
0000
,
0010
1000
0010
0000
1000
0010
1000
0000
0001
0100
0001
0000
1000
0010
1000
0000
,
0001
0100
0010
0000
1000
0100
1000
0000
0001
0100
0010
0000
1000
0001
0100
0000
,
0010
1000
0001
0000
0100
0010
1000
0000
0100
0010
0001
0000
0100
0010
1000
0000
,
0001
0100
0010
0000
1000
0001
1000
0000
0010
0100
0001
0000
0100
0010
1000
0000
,
0001
0100
0010
0000
1000
0001
0100
0000
0010
1000
0001
0000
0100
0010
1000
0000
,
0001
0100
0010
0000
1000
0100
0010
0000
0001
0100
0010
0000
1000
0001
0010
0000
,
0100
1000
0001
0000
0100
0010
0100
0000
0001
0100
0001
0000
1000
0010
1000
0000
,
0001
0100
0001
0000
0100
0010
0100
0000
0001
0100
0001
0000
1000
0010
1000
0000
,
0001
0100
0001
0000
0100
0010
0100
0000
0001
0100
0001
0000
0100
0010
0100
0000
,
0001
0100
0010
0000
1000
0010
0100
0000
0001
0100
0010
0000
1000
0100
1000
0000
,
0001
0100
0010
0000
1000
0001
0100
0000
0010
1000
0010
0000
0100
0001
0100
0000
,
0010
1000
0001
0000
0100
0010
1000
0000
0001
0100
0010
0000
1000
0001
1000
0000
,
0001
0100
0001
0000
1000
0100
0010
0100
1000
0001
0100
0010
1000
0100
0010
0100
,
1000
0001
0100
0010
1000
0100
0010
0100
1000
0001
0010
0100
1000
0001
0100
0010
,
1000
0100
0010
0100
1000
0001
0100
0010
1000
0100
0010
0001
0010
0100
1000
0001
,
0100
0000
0000
0010
0000
0000
1000
0000
0000
0100
0000
0000
1000
0000
0010
0000
0100
0000
0010
0000
1000
0000
0100
0000
0010
0000
0001
0000
0100
0000
0010
0000
1000
0000
0001
0000
0010
0000
0100
0000
1000
0000
0100
0000
0010
0000
0100
0000
,
1000
0001
0100
0010
1000
0100
0010
0001
0100
0010
1000
0001
0100
0010
1000
0001
0010
0100
1000
0100
0010
0001
0100
0010
,
0100
0001
0010
0100
1000
0100
0010
0001
0010
0100
1000
0001
0100
0010
0100
0001
0100
0010
1000
0100
1000
0001
0100
0010
,
1000
0010
0100
0001
1000
0100
0010
0100
1000
0001
0010
0100
1000
0001
0100
0010
1000
0100
0010
0100
1000
0001
0100
0010
,
1000
0001
0100
0010
1000
0100
0010
0100
1000
0001
0010
0100
1000
0001
0010
0100
1000
0100
0010
0100
1000
0100
0010
0100
,
1001
0100
0010
0100
0001
0100
0010
0100
0001
1000
0100
1000
0001
0100
0010
1000
0001
0010
0100
1000
0100
0010
0100
1000
,
0001
0100
0010
1000
0100
0010
0001
0010
0100
1000
0001
0100
1000
0010
0100
0010
1000
0100
0010
0001
0100
0010
1000
0001
,
0010
0100
1000
0100
0010
0100
1000
0001
0100
0010
1000
0100
0010
0001
0100
0010
1000
0001
0100
0010
1000
0001
0010
0100
,
1000
0100
0010
0001
0100
0010
0100
0001
0010
0100
1000
0100
0010
0001
0010
0100
1000
0001
0100
0010
0100
0001
0100
0010
,
1000
0100
1000
0001
0100
0010
1000
0010
0100
0001
1000
0100
0010
0100
1000
0001
0010
0100
1000
0001
0100
0010
1000
0100
,
0010
0100
1000
0001
0100
0010
1000
0001
0100
0010
1000
0100
0010
0100
1000
0001
0010
0100
1000
0001
0010
0100
1000
0100
,
0010
0100
1000
0100
0010
0100
1001
0100
0010
0100
0001
0100
0010
0100
0001
1000
0100
1000
0001
0100
0010
1000
0001
0010
,
0100
1000
0100
0010
0100
1000
0001
0100
0010
1000
0100
1000
0001
0010
0100
1000
0100
0010
0001
0100
0010
0100
0001
0010
,
0100
1000
0001
0100
0010
0100
0001
0010
0100
1000
0001
0100
0010
0100
0001
1000
0100
1000
0001
0100
0010
1000
0001
0100
,
0010
1000
0001
0010
0100
1000
0100
0010
0001
0100
0010
0100
0001
0010
0100
1000
0001
0100
0010
1000
0001
0100
0010
1000
,
0100
0010
0100
1000
0001
0010
0100
1000
0100
0010
0001
0100
0010
0100
0001
0010
0100
1000
0001
0100
0010
0100
0001
1000
,
0010
0000
0100
0000
0001
0000
1000
0000
0010
0000
0100
0000
0010
0000
0000
0000
0000
0000
0100
0000
0000
0000
0000
0000
1000
0000
0000
0000
0000
0000
0001
0000
0000
0100
0000
0000
0010
0000
0000
0000
0000
0000
1000
0000
0000
0000
0000
0000
,
1010
0000
0000
0000
0100
0000
0001
0000
0100
0000
0010
1000
0010
0000
0100
0000
,
0101
0000
0000
0000
0010
0000
1000
0000
0010
0000
0100
0001
0100
0000
0010
0000
,
1010
0000
0000
0000
1000
0000
0001
0000
0100
0000
0010
1000
0010
0000
0100
0000
,
0101
0010
1000
0001
0100
0010
1000
0010
,
1010
0000
0000
0000
0100
0000
0001
0000
0100
0000
0010
1000
0010
0000
0100
0000
,
0101
0000
0000
0000
0010
0000
1000
0000
0100
0000
1000
0001
0100
0000
0010
0000
,
1010
0000
0000
0000
0100
0000
0001
0000
0100
0000
0010
1000
0010
0000
0100
0000
,
0011
0000
0100
0000
1000
0001
0100
0010
1000
0001
0010
0100
1000
0100
0010
0001
,
0100
0010
0100
0001
1000
0100
1000
0001
1000
0100
1000
0001
0100
0010
0100
0001
,
0100
0010
0100
0001
1000
0100
1000
0001
1000
0100
1000
0001
0100
0010
0100
0001
,
0100
0010
0100
0001
1000
0100
0010
0100
1000
0001
0010
0100
1000
0001
0100
0010
,
1000
0001
0100
0010
1000
0001
0010
0100
1000
0100
0010
0001
0100
0010
0100
0001
,
1000
0100
1000
0001
0100
0010
0100
0001
0010
0100
1000
0100
0010
0100
1000
0001
,
0100
0010
1000
0001
0100
0010
1000
0001
0010
0100
1000
0100
0010
0001
0100
0010
,
1000
0001
0100
0010
0100
0001
1000
0100
1000
0001
0010
0100
1000
0100
0010
0001
,
0100
0010
1000
0001
0010
0100
1000
0100
0010
0001
0100
0010
1000
0100
0010
0100
,
1000
0001
0100
0010
1000
0001
0010
0100
1000
0001
0100
0010
0100
0001
1000
0100
,
0010
0001
0010
0100
1000
0001
0100
0010
0100
0001
0010
0100
1000
0001
0100
0010
,
0100
0001
0010
0100
1000
0100
0010
0100
1000
0001
0100
0010
1000
0001
0010
0100
,
1000
0100
0010
0100
1000
0001
0100
0010
0100
0001
0010
0100
1000
0001
0100
0010
,
1000
0001
0010
0001
1000
0100
1000
0001
0100
0010
1000
0001
0010
0100
1000
0100
,
0010
0001
0100
0010
0100
0001
0010
0100
1000
0001
0100
0010
1000
0001
0100
0010
,
0100
0001
0010
0100
1000
0100
0010
0001
0100
0010
1000
0001
0100
0010
1000
0100
,
0010
0000
0000
0001
0000
0000
0100
0000
0000
0010
0000
0000
1000
0000
0010
0000
0100
0000
0001
0000
1000
0000
0100
0000
0010
0000
0100
0000
1000
0000
0001
0000
0100
0000
0010
0000
1000
0000
0001
0000
0010
0000
0100
0000
1000
0000
0001
0000
,
0100
0010
1000
0100
0010
0100
1000
0001
0010
0100
1000
0001
0100
0010
0100
0001
1000
0100
1000
0001
0100
0010
1000
0001
,
0010
0100
1000
0100
0010
0100
1000
0001
0100
0010
1000
0001
0010
0100
1000
0100
0010
0001
0100
0010
1000
0001
0010
0100
,
1000
0100
0010
0100
1000
0001
0100
0010
1000
0001
0100
0010
1000
0001
0100
0010
1000
0001
0010
0100
1000
0100
0010
0100
,
1000
0001
0100
0010
1000
0001
0100
0010
1000
0001
0010
0100
1000
0100
0010
0001
0100
0010
1000
0001
0100
0010
1000
0001
,
0100
0010
1000
0001
0100
0010
1000
0001
0010
0100
1000
0100
0010
0001
0010
0100
1000
0001
0100
0010
1000
0001
0100
0010
,
1000
0100
0010
0100
1000
0001
0100
0010
1000
0001
0010
0100
1000
0100
0010
0001
0100
0010
0100
0001
1000
0100
1000
0001
,
1000
0010
0100
0001
1000
0100
0010
0100
1000
0001
0100
0010
1000
0001
0010
0100
1000
0001
0100
0010
1000
0100
0010
0100
,
1000
0001
0010
0100
1000
0001
0100
0010
0100
0001
1000
0100
1000
0001
0100
0010
1000
0001
0010
0100
1000
0100
0010
0100
,
1000
0001
0100
0010
1000
0001
0010
0100
1000
0100
0010
0001
0100
0010
1000
0001
0010
0100
1000
0100
0010
0100
1000
0001
,
0100
0010
1000
0001
0100
0010
1000
0001
0100
0010
1000
0001
0010
0100
1000
0100
0010
0100
1000
0001
0100
0010
1000
0001
,
0100
0010
1000
0001
0010
0100
1000
0100
0010
0001
0100
0010
1000
0001
0100
0010
1000
0001
0100
0010
1000
0001
0100
0010
,
1000
0001
0010
0100
1000
0100
0010
0001
0010
0100
1000
0001
0100
0010
1000
0001
0100
0010
1000
0100
0010
0100
1000
0001
,
0100
0010
1000
0001
0010
0100
1000
0100
0010
0001
0100
0010
0100
0001
1000
0100
1000
0001
1000
0010
0100
0001
1000
0100
,
0010
0100
1000
0001
0100
0010
1000
0001
0010
0100
1000
0001
0100
0010
1000
0100
0010
0100
1000
0001
0010
0100
1000
0001
,
0100
0010
0100
0001
1000
0100
1000
0001
0100
0010
1000
0001
0010
0100
1000
0100
0010
0100
1000
0001
0100
0010
1000
0001
,
0010
0100
1000
0100
0010
0001
0100
0010
1000
0001
0010
0100
1000
0100
0010
0100
1000
0001
0100
0010
1000
0001
0100
0010
,
1000
0001
0100
0010
1000
0001
0010
0100
1000
0100
0010
0100
1000
0001
0100
0010
1000
0001
0100
0010
1000
0001
0010
0100
,
1000
0100
0010
0001
0100
0010
1000
0001
0100
0010
1000
0001
0100
0010
1000
0001
0100
0010
1000
0001
0010
0100
1000
0100
,
0010
0001
0010
0100
1000
0001
0100
0010
1000
0001
0100
0010
1000
0100
0010
0100
1000
0001
0100
0010
1000
0001
0010
0100
,
1000
0100
0010
0001
0100
0010
0100
0001
1000
0100
1000
0001
1000
0010
0100
0001
1000
0100
0010
0100
1000
0001
0100
0010
,
1000
0001
0010
0100
1000
0001
0100
0010
1000
0100
0010
0100
1000
0001
0010
0100
1000
0001
0100
0010
0100
0001
1000
0100
,
1000
0001
0100
0010
1000
0001
0010
0100
1000
0100
0010
0100
1000
0001
0100
0010
1000
0001
0010
0100
1000
0100
0010
0001
,
0100
0010
1000
0001
0010
0100
1000
0100
0010
0100
1000
0001
0100
0010
1000
0001
0100
0010
1000
0001
0100
0010
1000
0001
,
0010
0100
1000
0100
0010
0100
1000
0001
0100
0010
1000
0001
0100
0010
1000
0001
0010
0100
1000
0100
0010
0001
0100
0010
,
1000
0001
0100
0010
1000
0001
0100
0010
1000
0001
0100
0010
1000
0001
0010
0100
1000
0100
0010
0001
0010
0100
1000
0001
,
0100
0010
1000
0001
0100
0010
1000
0100
0010
0100
1000
0001
0100
0010
1000
0001
0010
0100
1000
0100
0010
0001
0100
0010
,
0100
0001
1000
0100
1000
0001
1000
0010
0100
0001
1000
0100
0010
0100
1000
0001
0100
0010
1000
0001
0010
0100
1000
0001
,
0100
0010
1000
0100
0010
0100
1000
0001
0010
0100
1000
0001
0100
0010
0100
0001
1000
0100
1000
0001
0100
0010
1000
0001
,
0010
0100
1000
0100
0010
0100
1000
0001
0100
0010
1000
0001
0010
0100
1000
0100
0010
0001
0100
0010
1000
0001
0010
0100
,
1000
0100
0010
0100
1000
0001
0100
0010
1000
0001
0100
0010
1000
0001
0100
0010
1000
0001
0010
0100
1000
0100
0010
0100
,
1000
0001
0100
0010
1000
0001
0100
0010
1000
0001
0010
0100
1000
0100
0010
0001
0100
0010
1000
0001
0100
0010
1000
0001
,
0100
0010
1000
0001
0100
0010
1000
0001
0010
0100
1000
0100
0010
0001
0010
0100
1000
0001
0100
0010
1000
0001
0100
0010
,
1000
0100
0010
0100
1000
0001
0100
0010
1000
0001
0010
0100
1000
0100
0010
0001
0100
0010
0100
0001
1000
0100
1000
0001
,
1000
0010
0100
0001
1000
0100
0010
0100
1000
0001
0100
0010
1000
0001
0010
0100
1000
0001
0100
0010
1000
0100
0010
0100
,
1000
0001
0010
0100
1000
0001
0100
0010
0100
0001
1000
0100
1000
0001
0100
0010
1000
0001
0010
0100
1000
0100
0010
0100
,
1000
0001
0100
0010
1000
0001
0010
0100
1000
0100
0010
0001
0100
0010
1000
0001
0010
0100
1000
0100
0010
0100
1000
0001
,
0100
0010
1000
0001
0100
0010
1000
0001
0100
0010
1000
0001
0010
0100
1000
0100
0010
0100
1000
0001
0100
0010
1000
0001
,
0100
0010
1000
0001
0010
0100
1000
0100
0010
0001
0100
0010
1000
0001
0100
0010
1000
0001
0100
0010
1000
0001
0100
0010
,
1000
0001
0010
0100
1000
0100
0010
0001
0010
0100
1000
0001
0100
0010
1000
0001
0100
0010
1000
0100
0010
0100
1000
0001
,
0100
0010
1000
0000
0001
0100
0010
0000
1000
0001
0100
0000
0010
1000
0100
0000
,
0010
0100
1000
0000
0001
0100
0010
0000
1000
0001
0100
0000
0010
1000
0100
0000
,
0010
0100
1000
0000
0001
0100
0010
0000
1000
0001
0100
0000
0010
1000
0001
0000
,
0100
0010
1000
0000
0001
0100
0010
0000
1000
0001
0100
0000
0010
0000
0001
0000
,
0100
0010
1000
0000
0001
0010
0100
0000
1000
0100
0010
0000
0100
1000
0001
0000
,
0100
0010
1000
0000
0001
0100
0010
0000
1000
0010
0100
0000
0001
1000
0100
0000
,
1000
0001
0100
0000
0010
1000
0100
0000
0010
0001
0100
0000
0010
0000
1000
0000
,
0001
0100
0010
0000
1000
0010
0100
0000
0001
0100
0010
0000
1000
0001
0100
0000
,
0010
1000
0010
0000
1000
0000
0000
0000
0000
0000
0001
0000
0010
0000
0100
0000
,
0010
0000
0001
0000
0100
0010
0000
0000
,
0100
0001
0100
0000
0010
1000
0001
0100
,
0010
1000
0100
0000
0010
0100
0000
1000
,
0001
0100
0010
0000
1000
0001
0100
0000
,
0010
1000
0010
0000
0001
0000
0010
1000
,
0001
0100
0010
0000
1000
0000
0001
0100
,
0010
1000
0100
0010
0100
1000
0000
0000
;
