#TITLE:Kitsune no Yomeiri;
#SUBTITLE:;
#ARTIST:Masa;
#TITLETRANSLIT:;
#SUBTITLETRANSLIT:;
#ARTISTTRANSLIT:;
#CREDIT:underjoy;
#BANNER:bn.png;
#BACKGROUND:bg.png;
#LYRICSPATH:;
#CDTITLE:Ziemniax.jpg;
#MUSIC:Kitsune no Yomeiri.mp3;
#OFFSET:-2.165;
#SAMPLESTART:74.165;
#SAMPLELENGTH:16.000;
#SELECTABLE:YES;
#BPMS:0.000=240.000;
#STOPS:;
#BGCHANGES:;
// cache tags:
#FIRSTBEAT:0.000;
#LASTBEAT:592.000;
#SONGFILENAME:Songs/Index Tournament 1/Masa - Kitsune no Yomeiri/Kitsune no Yomeiri.sm;
#HASMUSIC:1;
#HASBANNER:1;
#MUSICLENGTH:154.101;
// end cache tags

//---------------dance-single - ----------------
#NOTES:
     dance-single:
     :
     Challenge:
     12:
     0.924,0.816,0.013,0.032,0.000,990.000,2.000,5.000,69.000,0.000:

1001
0001
0010
0001
0100
0010
1000
0000
,
0001
0010
0001
0100
0010
1000
0100
0010
,
0001
1000
0010
0100
0010
0001
0010
1000
,
0100
0010
0001
0100
0010
0000
1000
0100
,
0010
0001
1000
0000
1000
0001
0100
0010
,
1000
0100
0000
0100
1000
0000
0001
0000
,
1000
0000
0001
1000
MMMM
0000
0000
0000
,
0001
0000
1000
0001
MMMM
0000
0000
0000
,
1000
0010
0100
0001
0010
0100
1000
0001
,
0100
0001
0010
0001
1000
0010
1000
0100
,
1000
0001
0010
0100
0010
0001
1000
0010
,
0100
0001
0010
0001
0100
0010
1000
0100
,
1000
0001
0100
0010
1000
0001
0010
0100
,
1000
0010
0001
0010
1000
0100
0010
0001
,
1000
0010
0100
0000
0100
0000
1000
0100
,
0001
0010
0000
0001
1000
0000
0100
0000
,
0010
0000
0001
0000
1000
0100
0000
0100
,
1000
0100
0000
0100
1000
0010
0100
0001
,
1000
0000
0010
0001
1000
0000
0100
0001
,
1000
M0M0
0100
0M0M
0010
M0M0
0001
0M0M
,
2000
0000
0000
0000
0000
0000
3000
M000
,
0001
0010
0001
0100
0010
1000
0100
1000
,
0001
0010
0100
1000
0010
0100
0001
0010
,
0001
1000
0010
1000
0001
1000
0010
1000
,
0002
0000
0000
0000
,
0000
0000
0000
0000
1003
0100
0010
0001
,
2000
0000
0000
0000
,
0000
0000
0000
0000
3001
0010
0100
1000
,
0001
0100
0001
0010
0001
1000
0100
0010
,
0001
0100
0010
0100
0001
000M
0001
000M
,
1000
M000
1000
M000
0010
0100
0000
0100
,
0010
1000
0001
0100
0010
1000
0100
1000
,
0001
0010
1000
0010
0001
0100
1000
0100
,
0001
1000
0100
1000
0001
0010
0000
0010
,
0001
0000
1000
0000
1000
0000
0001
0010
,
0100
0010
0001
0010
0100
1000
0010
0100
,
0001
1000
0001
1000
0010
0100
0000
0001
,
0100
0000
0100
0000
0010
1000
0001
0100
,
0001
0000
1000
0000
0001
0000
1000
0100
,
1000
0000
0010
0000
0100
0001
0100
0001
,
1000
0100
0001
0100
1000
0010
0001
0010
,
0000
0010
0001
0010
1000
0001
0000
1000
,
0001
0010
1000
0100
0001
0010
1000
0100
,
0001
0000
0001
0000
0001
0010
1000
0100
,
1000
0001
0100
0010
0100
0001
0010
0100
,
1000
0010
0100
0010
1000
0100
0000
0100
,
1000
0001
0010
0001
1000
1000
0010
0010
,
0100
0001
0100
0010
1000
0000
0001
1000
,
0001
0000
1000
0001
0000
0100
0010
1000
,
0001
0010
0100
1000
0010
0100
0001
0010
,
0001
1000
0100
0010
0001
0000
0100
0001
,
0010
0001
1000
0100
0010
0001
1000
0001
,
1000
0100
0010
0100
1000
0010
0100
1000
,
0100
0001
0010
0100
1000
0100
0000
0010
,
0001
0100
0001
1000
0010
0100
0001
0100
,
0010
1000
0100
0001
0100
0001
0100
1000
,
0001
0000
0100
0010
0100
0001
1000
0100
,
1000
0001
0010
0100
1000
0100
0000
0001
,
0100
1000
0010
0100
1000
0100
0010
1000
,
0001
0010
1000
0010
0001
0001
1000
1000
,
0010
0100
0001
1000
0010
0000
1000
0100
,
1000
0001
0010
0100
0010
0001
0100
0010
,
0001
1000
0001
1000
0001
1000
0001
1000
,
0001
0010
0100
0001
1000
0001
1000
0001
,
1000
0000
0010
0100
0001
0010
0001
1000
,
0100
0010
0001
0100
0010
1000
0100
1000
,
0001
0010
0001
0100
0010
1000
0000
0001
,
1000
0010
0001
0010
0100
0001
0010
0100
,
1000
0000
1000
0000
0001
0000
1000
0010
,
1000
0100
0010
0001
1000
0100
0010
0100
,
1000
0000
0001
0001
0100
0010
0100
0001
,
1000
0100
1000
0100
0010
0010
0001
0001
,
1000
0100
0010
0001
0100
0010
1000
0100
,
1000
0001
0010
0100
1000
0010
0100
0001
,
1000
0010
0100
0010
1000
0100
0001
0100
,
1000
0010
0100
0001
0010
0000
0010
0001
,
1000
0010
0000
0010
1000
0000
1000
0000
,
0001
0100
0000
0010
1000
0000
0001
0000
,
1000
0000
0001
1000
MMMM
0000
0000
0000
,
0001
0000
1000
0001
MMMM
0000
0000
0000
,
1000
0100
0010
0001
0100
0010
1000
0000
,
0001
0100
0010
1000
0100
0010
0001
1000
,
0010
0100
0010
1000
0100
0001
0100
1000
,
0001
0010
0100
0010
0001
1000
0001
1000
,
0010
0100
0001
1000
0001
0100
1000
0100
,
0001
0010
0001
0100
0010
1000
0100
1000
,
0001
0100
0010
0000
0010
0000
1000
0100
,
0010
0001
0000
1000
0010
0000
0100
0000
,
0001
000M
0001
000M
1000
0100
0000
0100
,
0001
0100
0010
0001
1000
0010
0100
0001
,
1000
0000
0010
0001
1000
0000
0100
0001
,
1000
M000
0100
0M00
0010
00M0
0001
000M
,
1000
0100
0001
0100
1000
0010
0001
0010
,
1000
0100
0010
0100
1000
0010
0100
1000
,
0001
0010
0000
0010
0001
0010
0100
0001
,
1000
0100
0010
0001
1000
0010
0100
0001
,
1000
1000
0010
0010
0100
1000
0100
1000
,
0001
0010
0100
0010
1000
0000
0001
0010
,
0001
0100
0010
1000
0001
0100
0010
1000
,
0001
0010
0100
1000
0010
0100
0010
1000
,
0001
0100
0010
0100
0001
0010
1000
0010
,
0001
0010
1000
0010
0001
0100
0010
1000
,
0001
0010
0100
0010
0001
0100
0010
0001
,
0010
0100
0001
0010
0100
1000
0010
0100
,
0001
0010
0100
0010
0000
0010
0100
0010
,
1000
0010
0100
1000
0001
0010
0100
0010
,
0001
0100
1000
0100
0010
0000
1000
0100
,
0010
0100
0001
0100
1000
0001
1000
0010
,
1000
0100
0010
0001
0100
0010
0100
0001
,
0010
0100
1000
0010
0100
0010
1000
0100
,
1000
0001
0010
0100
0010
0001
0100
1000
,
0100
0010
0100
0001
0010
0001
1000
0000
,
0001
0000
0001
0010
0100
1000
0100
1000
,
0001
0010
1000
0010
0100
1000
0010
0100
,
1000
0100
0001
0010
0001
0000
0001
0010
,
1000
0010
1000
0010
0001
0100
0010
1000
,
0001
0000
1000
0000
0001
0010
0100
1000
,
0010
0100
0001
0010
0001
0100
0010
0001
,
1000
0001
1000
0001
1000
0001
1000
0001
,
1000
0100
0010
1000
0001
1000
0001
1000
,
0100
0001
0100
0001
0100
1000
0010
0100
,
0001
0010
0001
0100
0010
1000
0100
1000
,
0010
0001
0010
1000
0100
0100
0100
0100
,
1000
0001
0010
0001
0010
0001
1000
0010
,
1000
0000
0001
0000
1000
0100
0001
0010
,
0001
0100
1000
0010
0001
0010
1000
0100
,
1000
0000
0001
0000
1000
0010
0100
0000
,
0001
0010
0100
1000
0010
0100
0010
0100
,
0001
0010
0100
1000
0010
0100
0001
0000
,
1000
0100
1000
0010
0100
0001
0010
0100
,
1000
0001
0100
0010
0100
1000
0100
0001
,
0010
0100
1000
0010
0100
0000
0001
0010
,
0100
1000
0001
0000
0001
1000
0010
0100
,
0001
0010
0000
0010
0001
0000
1000
0000
,
0001
0000
1000
0001
MMMM
0000
0000
0000
,
1000
0000
0001
1000
MMMM
0000
0000
0000
,
1000
0010
0100
0001
0010
0100
1000
0000
,
0010
1000
0100
1000
0001
0100
0001
0010
,
0001
1000
0100
0010
0100
1000
0001
0100
,
0010
1000
0100
1000
0010
0100
0001
0010
,
0001
1000
0010
0100
0001
1000
0100
0010
,
0001
0100
1000
0100
0001
0010
0100
1000
,
0001
0100
0010
0000
0010
0000
0001
0010
,
1000
0100
0010
0001
1000
0000
0001
0000
,
2M02
0000
00M0
00M0
0000
0M00
0000
00M0
,
0M00
0000
00M0
0000
0M00
0M00
00M0
00M0
,
0M00
0000
00M0
00M0
0000
0M00
0000
00M0
,
0M00
0000
00M0
0000
0M00
0M00
30M3
00M0
,
MMMM
0000
0000
0000
;
