#TITLE:Bee;
#SUBTITLE:;
#ARTIST:Banya;
#TITLETRANSLIT:;
#SUBTITLETRANSLIT:;
#ARTISTTRANSLIT:;
#CREDIT:;
#BANNER:Bee.png;
#BACKGROUND:Bee-bg.png;
#LYRICSPATH:;
#CDTITLE:NVLM-cdtitle.png;
#MUSIC:Bee.mp3;
#OFFSET:-0.030;
#SAMPLESTART:9.209;
#SAMPLELENGTH:12.000;
#SELECTABLE:YES;
#BPMS:0.000=160.000;
#STOPS:;
#BGCHANGES:;
// cache tags:
#FIRSTBEAT:4.000;
#LASTBEAT:222.000;
#SONGFILENAME:Songs/IzzySM Keyboard Mega Pack/Bee 2/Bee.sm;
#HASMUSIC:1;
#HASBANNER:1;
#MUSICLENGTH:85.638;
// end cache tags

//---------------dance-single - ----------------
#NOTES:
     dance-single:
     :
     Hard:
     9:
     0.644,0.583,0.163,0.117,0.047,362.000,14.000,10.000,0.000,0.000:  // measure 1
0000
0000
0000
0000
,  // measure 2
0000
0000
0000
0000
,  // measure 3
1000
0100
0001
0100
0010
0001
0100
0010
,  // measure 4
1000
0001
0010
1000
0010
0100
1000
0100
,  // measure 5
0001
1000
0010
0100
0001
0010
1000
0010
,  // measure 6
0100
1000
0010
0100
0001
1000
1001
0000
,  // measure 7
0100
0010
1000
0001
0010
1000
0010
0100
,  // measure 8
1000
0010
0001
0010
0100
0001
1000
0100
,  // measure 9
0010
0001
0100
0010
1000
0001
0010
1000
,  // measure 10
0010
0100
1000
0010
1000
0001
0100
0010
,  // measure 11
0001
0010
1000
0001
0010
1000
0010
0100
,  // measure 12
1000
0010
1000
0001
0010
0100
1000
0100
,  // measure 13
0001
0100
0010
1000
0001
0010
0100
1000
,  // measure 14
0010
0001
0010
1000
0100
0001
0101
0000
,  // measure 15
0001
1000
0100
0001
0100
0010
0001
1000
,  // measure 16
0010
0100
0001
0010
1000
0010
0100
1000
,  // measure 17
0010
0100
0001
0010
0100
0001
0100
1000
,  // measure 18
0010
0100
0001
1000
0100
0010
0011
0000
,  // measure 19
1000
0100
0000
0000
0001
0100
0000
0000
1000
0010
0000
0000
0001
0010
0000
0000
,  // measure 20
0100
1000
0000
0000
0010
0100
0000
0000
0001
0010
0000
0000
0100
1000
0000
0000
,  // measure 21
1010
0001
0100
0010
,  // measure 22
1000
0100
0001
0010
0100
1000
0010
0100
,  // measure 23
0001
1000
0100
0001
0100
0010
1000
0010
,  // measure 24
0220
0000
0000
0000
,  // measure 25
0000
0000
0000
0330
,  // measure 26
2002
0000
0000
0000
,  // measure 27
0000
0000
0000
3003
,  // measure 28
0220
0000
0000
0330
,  // measure 29
1001
0001
0100
1000
0100
0010
1000
0001
,  // measure 30
0010
0100
1000
0010
0100
0001
1000
0100
,  // measure 31
0001
0100
0010
0001
0100
0010
1000
0001
,  // measure 32
0010
0100
1000
0010
0100
0001
1000
0100
,  // measure 33
0001
0100
1000
0010
0100
0001
0010
0001
,  // measure 34
0100
1000
0100
0010
1000
0010
0100
0001
,  // measure 35
1000
0100
0010
0001
0100
1000
0100
0010
,  // measure 36
1000
0001
0010
0100
1000
0100
0001
1000
,  // measure 37
0100
0001
0100
0010
0001
0100
0010
1000
,  // measure 38
0001
0010
0100
0001
0100
1000
0010
0100
,  // measure 39
0001
1000
0100
0010
0010
1000
0001
0010
,  // measure 40
0100
1000
0010
0001
0100
0010
1000
0100
,  // measure 41
0001
0100
1000
0010
0100
0001
0010
1000
,  // measure 42
1000
0010
0100
0001
0001
1000
0100
0001
,  // measure 43
0100
0010
0001
0010
0100
0001
0100
1000
,  // measure 44
0010
1000
0001
0100
0100
1000
0010
0100
,  // measure 45
0001
1000
0100
0001
0100
0010
0010
0001
,  // measure 46
0100
1000
0100
0010
1000
0001
0010
0100
,  // measure 47
1000
0010
0100
0001
1000
1000
1000
1000
,  // measure 48
1000
0100
0001
0001
0100
0010
0001
0010
,  // measure 49
0100
1000
0010
0100
0001
1000
0100
0010
,  // measure 50
0001
0100
0010
1000
0001
0010
1000
0010
,  // measure 51
0100
1000
0010
0100
0001
1000
0100
0001
,  // measure 52
0010
0010
0010
0010
0010
0010
0010
0010
,  // measure 53
2002
0000
0000
3003
,  // measure 54
0110
0000
1100
0000
,  // measure 55
1001
0000
0101
0000
,  // measure 56
2002
0000
3003
0000
;

//---------------dance-single - ----------------
#NOTES:
     dance-single:
     :
     Challenge:
     13:
     1.000,1.000,0.047,0.070,1.000,827.000,4.000,6.000,0.000,0.000:  // measure 1
0000
0000
0000
0000
,  // measure 2
0100
0010
0100
0010
0100
0010
0100
0010
0100
0010
0100
0010
0100
0010
0100
0010
,  // measure 3
1000
0100
1000
0100
0010
0001
0010
0001
0100
0010
0100
0010
1000
0001
1000
0001
,  // measure 4
0010
0100
0010
0100
0010
0100
1000
0010
1000
0010
1000
0010
0100
0001
0100
0001
,  // measure 5
0100
0001
1000
0100
1000
0100
1000
0100
0010
0001
0010
0001
0010
0001
0100
0010
,  // measure 6
0100
0010
0100
0010
1000
0001
1000
0001
1000
0001
0010
0000
0100
0010
0100
0010
,  // measure 7
0100
0001
1000
0001
1000
0100
0010
0100
0010
0001
1000
0001
0010
0100
1000
0010
,  // measure 8
1000
0100
0010
0001
0100
0001
0010
0100
1000
0010
1000
0010
1000
0100
0010
0100
,  // measure 9
0010
0001
1000
0001
0100
0010
0100
0010
1000
0001
0100
0001
0100
0010
1000
0100
,  // measure 10
0010
0001
0100
0010
1000
0100
0010
0001
1000
0100
0001
0100
1000
0100
0010
0001
,  // measure 11
0100
0010
0100
0010
1000
0100
0001
0100
0010
0001
1000
0001
0010
0100
1000
0010
,  // measure 12
1000
0100
0010
0001
1000
0100
0001
0100
0010
0001
0100
0001
1000
0010
0100
0010
,  // measure 13
0100
0001
0010
0001
0010
0100
1000
0100
1000
0010
0100
0001
1000
0100
0010
0001
,  // measure 14
0100
0010
1000
0100
0010
0001
1000
0010
0100
0010
0001
0000
0100
0010
0100
0010
,  // measure 15
0001
1000
0010
1000
0100
0010
0001
0010
0100
1000
0010
0100
0001
1000
0100
0010
,  // measure 16
0001
0010
0100
1000
0010
0100
0010
0100
0001
1000
0100
0010
0100
1000
0010
0100
,  // measure 17
0010
0100
0001
1000
0100
0010
0100
0010
0001
0100
0001
0010
0100
1000
0010
0100
,  // measure 18
0010
1000
0100
0010
0001
0100
1000
0100
0001
1000
0010
0000
0100
0010
0100
0010
,  // measure 19
1000
0100
1000
0001
0100
0010
1000
0001
0010
0100
1000
0010
0100
0001
1000
0100
,  // measure 20
0010
0001
0100
0010
1000
0001
0010
0100
1000
0100
1000
0010
0100
0010
0100
0001
,  // measure 21
1000
0100
1000
0100
0001
0100
0001
0100
1000
0010
1000
0010
0001
0010
0001
0010
,  // measure 22
0100
1000
0100
1000
0010
0100
0010
0100
0001
0100
0001
0100
1000
0010
1000
0010
,  // measure 23
0001
0100
0001
0100
0010
1000
0001
0010
0100
1000
0010
0001
0010
1000
0100
0010
,  // measure 24
0220
0000
0000
0330
,  // measure 25
2002
0000
0000
3003
,  // measure 26
0100
0010
0100
0000
0100
0010
0100
0000
0100
0010
0100
0000
0100
0010
0100
0000
,  // measure 27
0001
1000
0001
1000
0001
1000
0001
1000
0001
1000
0001
1000
0001
1000
0001
1000
,  // measure 28
0010
0100
0010
0100
0001
0010
0001
0010
0100
1000
0100
1000
0010
0100
0001
1000
,  // measure 29
0100
0010
0001
0100
0010
1000
0001
0010
1000
0010
0001
0100
0010
1000
0100
0001
,  // measure 30
0100
0010
0001
0100
0010
1000
0001
0010
0100
1000
0010
0100
0001
1000
0100
0010
,  // measure 31
0100
1000
0010
0100
0001
0010
0100
0010
0001
1000
0010
0100
0001
0010
0100
1000
,  // measure 32
0010
0100
0001
1000
0100
0010
0001
0100
0010
1000
0001
0010
1000
0010
0100
1000
,  // measure 33
0010
1000
0001
0100
0010
0100
0001
0010
0001
1000
0010
1000
0100
0010
0001
0100
,  // measure 34
1000
0100
0010
1000
0001
0010
0100
1000
0010
0100
0001
1000
0100
0010
0100
1000
,  // measure 35
0010
0100
0001
1000
0100
0010
1000
0010
0001
0100
0010
1000
0001
0010
0100
1000
,  // measure 36
0010
0100
0001
1000
0100
0010
0100
1000
0010
0100
0001
0100
1000
0100
0001
0010
,  // measure 37
0100
1000
0010
0100
0001
1000
0100
0001
0100
0010
0001
0100
0010
1000
0001
0010
,  // measure 38
0100
1000
0010
0100
0001
1000
0100
0010
0100
1000
0010
0100
0001
0100
0010
0001
,  // measure 39
0010
0100
1000
0010
0100
0001
1000
0100
0010
0001
0100
0010
1000
0001
0010
0100
,  // measure 40
1000
0010
0100
0001
1000
0100
0010
1000
0010
0001
0100
0001
0100
1000
0100
1000
,  // measure 41
0100
0010
1000
0010
1000
0001
0010
0001
0010
0100
1000
0100
1000
0010
0100
0001
,  // measure 42
1000
0100
0010
1000
0010
0100
1000
0001
0010
0100
0001
0100
0010
0001
1000
0010
,  // measure 43
0100
1000
0100
0001
1000
0100
0001
0100
1000
0010
0100
0001
1000
0100
0010
1000
,  // measure 44
0010
0100
1000
0001
0010
0100
1000
0100
1000
0010
0100
0010
0001
0010
0100
1000
,  // measure 45
0010
0100
0001
1000
0100
0001
0100
0010
0001
0100
0001
0010
0100
1000
0010
0100
,  // measure 46
0001
1000
0100
0010
0100
1000
0010
0100
0001
1000
0010
0100
0001
0010
0100
1000
,  // measure 47
0010
0100
0001
1000
0100
0001
0100
1000
0100
0010
0001
0100
0010
1000
0001
0010
,  // measure 48
1000
0010
0100
0001
0100
1000
0010
0100
0001
1000
0100
0010
0100
0010
0001
1000
,  // measure 49
0001
1000
0100
0010
0100
1000
0010
0100
0001
0100
0001
1000
0100
0010
0001
0100
,  // measure 50
1000
0100
0010
1000
0001
0010
0100
1000
0010
0100
0001
1000
0100
0010
0001
0100
,  // measure 51
1000
0100
0010
1000
0001
0010
0100
1000
0010
0100
0001
1000
0100
0010
1000
0010
,  // measure 52
0001
0100
0010
1000
0001
0010
0100
1000
0010
0100
0001
1000
0100
0010
0001
0100
,  // measure 53
1001
0000
0100
0010
1000
0001
1000
0001
1000
0001
1000
0001
1000
0001
1000
0001
,  // measure 54
0100
0010
0100
1000
0100
0010
0001
0100
1000
0010
0100
0001
0010
0100
1000
0010
,  // measure 55
1000
0100
0010
0001
0100
0010
1000
0001
0010
0100
1000
0010
0100
0001
1000
0100
,  // measure 56
2002
0000
3003
0000
;

//---------------dance-single - ----------------
#NOTES:
     dance-single:
     :
     Medium:
     8:
     0.509,0.518,0.409,0.187,0.000,254.000,35.000,16.000,0.000,0.000:  // measure 1
0000
0000
0000
0000
,  // measure 2
0000
0000
0000
0000
,  // measure 3
1000
0100
0001
0000
0001
0100
1000
0000
,  // measure 4
0010
0100
0001
0000
0001
1000
0010
0000
,  // measure 5
0100
0001
1000
0000
1000
0100
0010
0000
,  // measure 6
0001
0100
0001
0000
2002
0000
0000
3003
,  // measure 7
0100
0110
0001
0011
,  // measure 8
0100
1100
1000
1001
,  // measure 9
0001
0110
1000
0011
,  // measure 10
0010
0000
1100
0000
1000
0001
0100
0010
,  // measure 11
1000
0010
1000
0000
0001
0100
0001
0000
,  // measure 12
1000
0100
1000
0000
0010
0100
0010
0000
,  // measure 13
0001
0100
0010
0000
1000
0010
0100
0000
,  // measure 14
0001
1000
1000
0000
0202
0000
0303
0000
,  // measure 15
1000
1000
0100
0000
0001
0001
0100
0000
,  // measure 16
0010
0010
1000
0000
0001
0001
0010
0000
,  // measure 17
0100
1000
0010
0000
0010
0100
0001
0000
,  // measure 18
0001
1000
0100
0000
0220
0000
0330
0000
,  // measure 19
1000
0110
0001
0110
,  // measure 20
1000
0011
0100
1010
,  // measure 21
0001
0110
1000
0011
,  // measure 22
1000
0100
0001
0000
0001
1000
0010
0000
,  // measure 23
0010
1000
0100
0000
0100
0010
1000
0000
,  // measure 24
0220
0000
0000
0000
,  // measure 25
0000
0000
0000
0330
,  // measure 26
2002
0000
0000
0000
,  // measure 27
0000
0000
0000
3003
,  // measure 28
0220
0000
0000
0330
,  // measure 29
1001
0001
0100
0000
0010
0000
1001
0000
,  // measure 30
0001
0100
1000
0000
0100
0000
1010
0000
,  // measure 31
0001
0010
0100
0000
1000
0000
1001
0000
,  // measure 32
0100
0010
0010
0000
1000
0000
1100
0000
,  // measure 33
0001
0100
1000
0000
1000
0000
0110
0000
,  // measure 34
0001
0001
0100
0000
1000
0000
1100
0000
,  // measure 35
0010
0001
0100
0000
0001
0000
1001
0000
,  // measure 36
1000
0100
0001
0000
0001
0000
0110
0000
,  // measure 37
0010
1000
0001
0000
0100
0000
0110
0000
,  // measure 38
1000
0001
0010
0000
0010
0010
0010
0000
,  // measure 39
0100
1000
0001
0000
0001
0100
0010
0000
,  // measure 40
0010
1000
0100
0000
0100
0010
0001
0000
,  // measure 41
0001
0010
0100
0000
0100
1000
0010
0000
,  // measure 42
0010
0100
0001
0000
1000
0100
0010
0000
,  // measure 43
0001
0100
1000
0000
1000
0100
0001
0000
,  // measure 44
0010
0100
1000
0000
0010
0100
0001
0000
,  // measure 45
1000
0100
0010
0000
0100
0010
0001
0000
,  // measure 46
0010
0100
1000
0000
0010
0100
0001
0000
,  // measure 47
1000
0010
0100
0000
1000
1000
1000
0000
,  // measure 48
0100
0100
0100
0000
0010
0010
0010
0000
,  // measure 49
0001
1000
0100
0000
0010
0001
1000
0000
,  // measure 50
0001
0100
0010
0000
0100
0010
1000
0000
,  // measure 51
0100
0010
0001
0000
0010
0100
1000
0000
,  // measure 52
0010
0100
0001
1000
0010
0100
0010
0100
,  // measure 53
2002
0000
0000
3003
,  // measure 54
0110
0000
1100
0000
,  // measure 55
1001
0000
0101
0000
,  // measure 56
2002
0000
3003
0000
;

//---------------dance-single - ----------------
#NOTES:
     dance-single:
     :
     Easy:
     7:
     0.532,0.518,1.000,0.420,0.000,186.000,97.000,36.000,0.000,0.000:  // measure 1
0000
0000
0000
0000
,  // measure 2
0000
0000
0000
0000
,  // measure 3
1000
0101
0001
1010
,  // measure 4
0010
1001
0001
0110
,  // measure 5
0100
1100
1000
1010
,  // measure 6
0001
0000
0011
0000
2002
0000
0000
3003
,  // measure 7
0100
1010
0001
0011
,  // measure 8
0100
1100
1000
1001
,  // measure 9
0001
0110
1000
0011
,  // measure 10
0010
1100
1001
0101
,  // measure 11
1000
1100
0001
0011
,  // measure 12
1000
1100
0010
1001
,  // measure 13
0010
1100
1000
0110
,  // measure 14
0001
1001
0202
0303
,  // measure 15
2000
3100
0002
0103
,  // measure 16
0020
1030
0002
0013
,  // measure 17
0200
0320
2030
3002
,  // measure 18
1003
0110
0220
0330
,  // measure 19
1000
0110
0001
0110
,  // measure 20
1000
0011
0100
1010
,  // measure 21
0001
0110
1000
0011
,  // measure 22
1000
1001
0101
0011
,  // measure 23
0110
1100
0110
1001
,  // measure 24
0220
0000
0000
0000
,  // measure 25
0000
0000
0000
0330
,  // measure 26
2002
0000
0000
0000
,  // measure 27
0000
0000
0000
3003
,  // measure 28
0220
0000
0000
0330
,  // measure 29
1002
0103
0010
1001
,  // measure 30
0002
1003
1100
1010
,  // measure 31
0002
0103
1100
1001
,  // measure 32
0200
0310
1001
1100
,  // measure 33
0002
1003
1100
0110
,  // measure 34
0002
0103
1010
1100
,  // measure 35
0020
0130
0101
1001
,  // measure 36
0200
0301
1100
0110
,  // measure 37
0020
0031
1100
0110
,  // measure 38
2000
3200
0320
0031
,  // measure 39
0100
1001
0001
0110
,  // measure 40
1000
1100
0001
0101
,  // measure 41
0010
1100
1000
0101
,  // measure 42
0010
1001
0100
0011
,  // measure 43
0001
1100
1000
0101
,  // measure 44
0010
1100
0010
1001
,  // measure 45
1000
0110
0100
0011
,  // measure 46
0001
1100
0010
1001
,  // measure 47
1000
0110
1000
1100
,  // measure 48
0100
0110
0010
0011
,  // measure 49
0001
0110
1000
1100
,  // measure 50
0001
0011
0100
1100
,  // measure 51
0100
1001
0010
1001
,  // measure 52
0110
1001
0110
1001
,  // measure 53
2002
0000
0000
3003
,  // measure 54
0110
0000
1100
0000
,  // measure 55
1001
0000
0101
0000
,  // measure 56
2002
0000
3003
0000
;

//---------------dance-double - ----------------
#NOTES:
     dance-double:
     :
     Hard:
     10:
     0.669,0.578,0.070,0.000,0.000,395.000,6.000,0.000,0.000,0.000:  // measure 1
00000000
00000000
00000000
00000000
,  // measure 2
00000000
00000000
00000000
00000000
,  // measure 3
10000000
01000000
00010000
00001000
00000010
00000001
00000100
00000010
,  // measure 4
00001000
00010000
01000000
10000000
00100000
01000000
00010000
00100000
,  // measure 5
00001000
00010000
00000100
00001000
00010000
00100000
10000000
00010000
,  // measure 6
01000000
00001000
00010000
00000100
00001000
00000010
00000100
00000001
,  // measure 7
00001000
00000100
00010000
00001000
00100000
10000000
00100000
01000000
,  // measure 8
10000000
00100000
00010000
00001000
00000100
00000001
00000010
00001000
,  // measure 9
00100000
00010000
01000000
00100000
10000000
00010000
00100000
00001000
,  // measure 10
00010000
01000000
00010000
00001000
00000100
00000010
00000100
00001000
,  // measure 11
00010000
00100000
01000000
10000000
00100000
00010000
00001000
00000100
,  // measure 12
00000010
00000001
00000100
00000010
00001000
00010000
00100000
01000000
,  // measure 13
10000000
00100000
01000000
00001000
00010000
00100000
00010000
00001000
,  // measure 14
00100000
00010000
00001000
00000100
00000010
00000001
00000100
00000001
,  // measure 15
00001000
00000100
00010000
00001000
01000000
00100000
00010000
10000000
,  // measure 16
00100000
01000000
00010000
00100000
01000000
00100000
00001000
00010000
,  // measure 17
00100000
00001000
00010000
00000100
00001000
00010000
01000000
10000000
,  // measure 18
00100000
01000000
00010000
00001000
00000100
00000010
00000001
00000100
,  // measure 19
00001000
00010000
00100000
10000000
01000000
00100000
01000000
10000000
,  // measure 20
00010000
00100000
01000000
00001000
00100000
00010000
01000000
00001000
,  // measure 21
00010000
00000100
00001000
00000010
00000100
00000001
00001000
00000100
,  // measure 22
00010000
00001000
00010000
00100000
01000000
10000000
00100000
01000000
,  // measure 23
00010000
00001000
00000100
00000010
00000001
00000100
00000010
00001000
,  // measure 24
00010000
10000000
00010000
10000000
,  // measure 25
00010000
10000000
01000000
00010000
,  // measure 26
00000001
00001000
00000001
00001000
,  // measure 27
00000001
00001000
00000001
00000100
,  // measure 28
00000010
00001000
00010000
01000000
,  // measure 29
10010000
00010000
01000000
00100000
10000000
01000000
00100000
00010000
,  // measure 30
01000000
00001000
00010000
00000100
00001000
00010000
00001000
00000100
,  // measure 31
00000010
00000001
00000100
00001000
00010000
00100000
10000000
00010000
,  // measure 32
00100000
00001000
00010000
00000100
00001000
00010000
00100000
01000000
,  // measure 33
10000000
00100000
00010000
00001000
00000100
00000001
00000010
00000100
,  // measure 34
00010000
00100000
01000000
00100000
10000000
00100000
01000000
00010000
,  // measure 35
00001000
00000100
00000001
00000100
00000010
00001000
00010000
00100000
,  // measure 36
10000000
00010000
00100000
01000000
00001000
00010000
00000100
00001000
,  // measure 37
00000010
00010000
00000100
00001000
00010000
01000000
00100000
10000000
,  // measure 38
00010000
00100000
00001000
00010000
01000000
10000000
00100000
00010000
,  // measure 39
00001000
00000100
00000010
00000001
00000100
00001000
00010000
00100000
,  // measure 40
01000000
10000000
00100000
00010000
00001000
00100000
00010000
01000000
,  // measure 41
00100000
10000000
01000000
00100000
00010000
01000000
00001000
00010000
,  // measure 42
00000100
00001000
00000010
00000100
00001000
00010000
01000000
10000000
,  // measure 43
01000000
00100000
00001000
00000100
00000001
00000010
00001000
00010000
,  // measure 44
00100000
10000000
00010000
01000000
00001000
00010000
00000010
00000100
,  // measure 45
00000001
00000010
00000100
00010000
00100000
01000000
10000000
00010000
,  // measure 46
01000000
00001000
00010000
00100000
00010000
00001000
00000100
00000001
,  // measure 47
00000100
00000010
00001000
00010000
00100000
01000000
10000000
00100000
,  // measure 48
01000000
00001000
00100000
00010000
01000000
00100000
10000000
00010000
,  // measure 49
01000000
00001000
00100000
00001000
00010000
00000100
00001000
00000010
,  // measure 50
00000001
00000010
00000100
00010000
00100000
01000000
10000000
00100000
,  // measure 51
00010000
00001000
00000100
00010000
00001000
00100000
01000000
00010000
,  // measure 52
00100000
01000000
10000000
00100000
00010000
00001000
00000100
00000001
,  // measure 53
00011000
00000000
00000010
00000000
00001000
00000100
00000010
00000001
,  // measure 54
00001001
00000100
00001000
00100000
,  // measure 55
10010000
01000000
00011000
00000100
,  // measure 56
00001001
00000000
00000000
00000000
;

//---------------dance-double - ----------------
#NOTES:
     dance-double:
     :
     Challenge:
     11:
     0.897,1.000,0.619,0.000,0.321,485.000,53.000,0.000,0.000,0.000:  // measure 1
00000000
00000000
00000000
00000000
,  // measure 2
00110000
00001000
00010000
00001000
00010000
00001000
00010000
00001000
00010000
00001000
00010000
00001000
00010000
00001000
00010000
00001000
,  // measure 3
00110000
01000000
00010000
00001000
00000010
00000001
00000100
00000010
,  // measure 4
00011000
00010000
01000000
10000000
00100000
01000000
00010000
00100000
,  // measure 5
00101000
00010000
00000100
00001000
00010000
00100000
10000000
00010000
,  // measure 6
01001000
00001000
00010000
00000100
00001000
00000010
00000100
00000001
,  // measure 7
00001001
00000100
00010000
00001000
00100000
10000000
00100000
01000000
,  // measure 8
11000000
00100000
00010000
00001000
00000100
00000001
00000010
00001000
,  // measure 9
00101000
00010000
01000000
00100000
10000000
00010000
00100000
00001000
,  // measure 10
00011000
01000000
00010000
00001000
00000100
00000010
00000100
00001000
,  // measure 11
00011000
00100000
01000000
10000000
00100000
00010000
00001000
00000100
,  // measure 12
00000011
00000001
00000100
00000010
00001000
00010000
00100000
01000000
,  // measure 13
11000000
00100000
01000000
00001000
00010000
00100000
00010000
00001000
,  // measure 14
00101000
00010000
00001000
00000100
00000010
00000001
00000100
00000001
,  // measure 15
00001001
00000100
00010000
00001000
01000000
00100000
00010000
10000000
,  // measure 16
10100000
01000000
00010000
00100000
01000000
00100000
00001000
00010000
,  // measure 17
00110000
00001000
00010000
00000100
00001000
00010000
01000000
10000000
,  // measure 18
10100000
01000000
00010000
00001000
00000100
00000010
00000001
00000100
,  // measure 19
00001100
00010000
00100000
10000000
01000000
00100000
01000000
10000000
,  // measure 20
10010000
00100000
01000000
00001000
00100000
00010000
01000000
00001000
,  // measure 21
00011000
00000100
00001000
00000010
00000100
00000001
00001000
00000100
,  // measure 22
00010100
00001000
00010000
00100000
01000000
10000000
00100000
01000000
,  // measure 23
01010000
00001000
00000100
00000010
00000001
00000100
00000010
00001000
,  // measure 24
00010100
00001000
00010000
00001000
00010000
00001000
00010000
00001000
00010000
00001000
00010000
00001000
00010000
00001000
00010000
00001000
,  // measure 25
00010000
00001000
00010000
00001000
00010000
00001000
00010000
00001000
00010000
00001000
00010000
00001000
00010000
00001000
00010000
00001000
,  // measure 26
00010000
00001000
00010000
00001000
00010000
00001000
00010000
00001000
00010000
00001000
00010000
00001000
00010000
00001000
00010000
00001000
,  // measure 27
00010000
00001000
00010000
00001000
00010000
00001000
00010000
00001000
00010000
00001000
00010000
00001000
00010000
00001000
00010000
00001000
,  // measure 28
00110000
00000100
00100000
00000100
00100000
00000100
00100000
00000100
00100000
00000100
00100000
00000100
00100000
00000100
00100000
00000100
,  // measure 29
10010000
00010000
01000000
00100000
10000000
01000000
00100000
00010000
,  // measure 30
01001000
00001000
00010000
00000100
00001000
00010000
00001000
00000100
,  // measure 31
00000011
00000001
00000100
00001000
00010000
00100000
10000000
00010000
,  // measure 32
00101000
00001000
00010000
00000100
00001000
00010000
00100000
01000000
,  // measure 33
10010000
00100000
00010000
00001000
00000100
00000001
00000010
00000100
,  // measure 34
00011000
00100000
01000000
00100000
10000000
00100000
01000000
00010000
,  // measure 35
00011000
00000100
00000001
00000100
00000010
00001000
00010000
00100000
,  // measure 36
11000000
00010000
00100000
01000000
00001000
00010000
00000100
00001000
,  // measure 37
00001010
00010000
00000100
00001000
00010000
01000000
00100000
10000000
,  // measure 38
10010000
00100000
00001000
00010000
01000000
10000000
00100000
00010000
,  // measure 39
00011000
00000100
00000010
00000001
00000100
00001000
00010000
00100000
,  // measure 40
11000000
10000000
00100000
00010000
00001000
00100000
00010000
01000000
,  // measure 41
00110000
10000000
01000000
00100000
00010000
01000000
00001000
00010000
,  // measure 42
00010100
00001000
00000010
00000100
00001000
00010000
01000000
10000000
,  // measure 43
11000000
00100000
00001000
00000100
00000001
00000010
00001000
00010000
,  // measure 44
01100000
10000000
00010000
01000000
00001000
00010000
00000010
00000100
,  // measure 45
00001001
00000010
00000100
00010000
00100000
01000000
10000000
00010000
,  // measure 46
01100000
00001000
00010000
00100000
00010000
00001000
00000100
00000001
,  // measure 47
00000101
00000010
00001000
00010000
00100000
01000000
10000000
00100000
,  // measure 48
01010000
00001000
00100000
00010000
01000000
00100000
10000000
00010000
,  // measure 49
01010000
00001000
00100000
00001000
00010000
00000100
00001000
00000010
,  // measure 50
00001001
00000010
00000100
00010000
00100000
01000000
10000000
00100000
,  // measure 51
00110000
00001000
00000100
00010000
00001000
00100000
01000000
00010000
,  // measure 52
00110000
01000000
10000000
00100000
00010000
00001000
00000100
00000001
,  // measure 53
00011000
00000100
00010000
00000100
00000010
00000100
00000000
00000000
00001000
00000001
00000100
00000001
00000010
00000100
00000001
00001000
,  // measure 54
00001001
00000010
00000100
00010000
00001000
00010000
00100000
10000000
,  // measure 55
10010000
00100000
01000000
00000000
00011000
00000010
00000100
00000000
,  // measure 56
00001001
00000000
00000000
00000000
;
