#TITLE:Waves;
#SUBTITLE:;
#ARTIST:DJ Satomi;
#TITLETRANSLIT:;
#SUBTITLETRANSLIT:;
#ARTISTTRANSLIT:;
#CREDIT:;
#BANNER:waves.png;
#BACKGROUND:wavesBG.png;
#LYRICSPATH:;
#CDTITLE:;
#MUSIC:DJ_Satomi_Waves.ogg;
#OFFSET:0.160;
#SAMPLESTART:86.200;
#SAMPLELENGTH:12.000;
#SELECTABLE:YES;
#DISPLAYBPM:167.000;
#BPMS:0.000=166.520,64.500=41.630,64.750=83.260,65.000=166.520,78.000=666.080,79.000=166.520,109.000=83.260,110.000=166.520,172.000=83.260,174.000=41.630,178.000=83.260,199.000=166.520,218.000=666.080,220.000=166.520,236.000=83.260,244.000=166.520;
#STOPS:78.000=0.060
,78.250=0.060
,78.500=0.060
,78.750=0.060
,218.000=0.140
,218.500=0.140
,219.000=0.140
,219.500=0.140
;
#BGCHANGES:;
// cache tags:
#FIRSTBEAT:0.500;
#LASTBEAT:322.500;
#SONGFILENAME:Songs/Rodd's Revival/Waves (Rodd Steps)/Waves (Rodd Steps).sm;
#HASMUSIC:1;
#HASBANNER:1;
#MUSICLENGTH:132.639;
// end cache tags

//---------------dance-single - R. Farias----------------
#NOTES:
     dance-single:
     R. Farias:
     Challenge:
     9:
     0.740,0.973,0.113,0.603,0.516,592.000,15.000,80.000,262.000,0.000:

0000
0000
00MM
0000
000M
0000
000M
0000
M00M
0000
MMMM
0000
0000
MMMM
0000
M00M
,
0000
M00M
0000
MMMM
0000
0000
MMMM
0000
M000
0000
M000
0000
MMM0
0000
M000
0000
,
MMMM
0000
0000
0MM0
M00M
000M
00M0
0M00
M000
M000
MMMM
0000
0000
0000
0000
0000
,
0000
0000
0000
0000
0000
0MM0
0000
M00M
0MM0
0000
0000
0000
0000
0000
0000
0000
,
0000
0000
0000
0000
0001
0100
0010
1000
,
0100
0100
0010
0100
1000
0001
0100
0100
,
0010
0100
0001
1000
0100
0010
0001
0001
,
0100
0010
0100
0001
1000
0100
0010
0010
,
0001
0010
0100
1000
0002
0000
0103
0010
,
1000
0100
0010
0001
0200
0000
0310
1000
,
0100
0010
0100
1000
0002
0000
0103
0010
,
0100
0001
1000
0100
0020
0000
0130
1000
,
00M2
MM00
0M00
M000
00M0
0M00
M000
00M0
0103
0000
0010
0000
0100
0000
0001
0000
,
1000
0100
0010
0100
1000
0001
0100
1000
,
0100
0010
1000
0100
0001
0100
0010
0001
,
0100
0010
1000
0100
0010
0100
1000
0001
,
0200
M0M0
M00M
000M
031M
0000
1000
0000
0200
00M0
000M
0000
032M
0000
M000
0M00
,
M032
0000
0000
00M0
02M3
0000
M000
M0M0
000M
M0M0
00M0
M00M
M00M
00MM
M000
000M
,
0310
1000
0100
0010
0001
0010
0100
1000
,
0001
0000
0100
0000
0020
0000
0000
0000
1030
0M01
10M0
0MM1
2000
0000
0000
0000
,
3100
0020
0000
0030
M11M
0010
0001
0100
,
M1M1
0100
0010
1000
1M1M
1000
0100
0010
,
M11M
0010
0001
1000
1MM1
1000
0100
0010
,
M11M
0010
0001
0100
M1M1
0100
0010
1000
,
11MM
0100
0010
0100
0010
0001
0100
0010
,
0100
0001
1000
0100
0010
0100
1000
0001
,
0100
0010
1000
0100
1000
0001
0100
0010
,
1000
0000
0100
0000
0020
M000
0M00
M000
0031
0100
0000
0010
1000
0000
0100
0000
,
0010
0001
0100
1000
0100
0010
1000
0100
,
M020
M000
0000
0M00
M032
0000
00M0
0000
0103
0000
0010
0000
0100
0000
0001
0000
,
2000
00M0
000M
0000
32M0
000M
000M
0000
0310
0000
0100
0000
1000
0000
0001
0000
,
0200
M000
M000
0000
032M
000M
M000
000M
0130
0000
0001
0000
1000
0000
0100
0000
,
0020
M00M
M000
M00M
023M
M00M
0000
0000
1300
0000
0001
0000
0100
0000
1000
0000
,
0200
M00M
M00M
M00M
0320
M00M
0000
0000
1030
0000
0100
0000
0001
0000
0100
0000
,
0020
M000
0M00
0M00
M032
M000
MM00
0000
0103
0000
0010
0000
0100
0000
0001
0000
,
2000
00M0
000M
00M0
32M0
000M
000M
00MM
0000
0000
0310
0000
0001
0000
0100
0000
,
M22M
0330
0000
0000
0010
0000
0000
0000
1000
0000
0000
0000
0100
0000
0000
0000
0001
0000
0000
0000
0100
0000
0000
0000
0010
0000
0000
0000
0001
0000
0000
0000
,
0200
00M0
000M
00M0
230M
0000
000M
00M0
3100
0000
0010
0000
1000
0000
0100
0000
,
M020
0000
0M00
M000
0032
0M00
M000
0000
0103
0000
0010
0000
0100
0000
0001
0000
,
2000
0M00
00M0
0000
3MM2
0000
0000
0000
0103
0000
0010
0000
1000
0000
0100
0000
,
0020
M00M
M000
000M
M23M
0000
0000
0000
1300
0000
0001
0000
1000
0000
0001
0000
,
0200
M000
0000
000M
0320
M000
0000
000M
0130
0000
0001
0000
1000
0000
0100
0000
,
2000
0000
3002
0000
0103
0010
1000
0100
,
0010
0000
0000
0000
0000
0000
0000
0000
0000
0000
0000
0000
M000
0000
0000
0000
0000
0000
0000
0000
0000
0000
0000
0000
0M01
0000
0000
0000
0000
0000
0000
0000
0000
0000
0000
0000
0000
0000
0000
0000
0000
0000
0000
0000
0000
0000
0000
0000
M200
0000
0000
0000
0000
0000
0000
0000
0000
0000
0000
0000
0000
0000
0000
0000
0000
0000
0000
0000
0000
0000
0000
0000
032M
0000
0000
0000
0000
0000
0000
0000
0000
0000
0000
0000
0000
0000
0000
0000
0000
0000
0000
0000
0000
0000
0000
0000
1030
0000
0000
0000
0000
0000
0000
0000
0000
0000
0000
0000
0100
0000
0000
0000
0000
0000
0010
0000
0000
0000
0000
0000
M001
0000
0000
0000
0000
0000
0200
0000
0000
0000
0000
0000
M000
0000
0000
0000
0000
0000
0000
0000
0000
0000
0000
0000
0320
0000
0000
0000
0000
0000
0000
0000
0000
0000
0000
0000
0130
0000
0000
0000
0000
0000
0001
0000
0000
0000
0000
0000
2000
0000
0000
0000
0000
0000
0000
0000
0000
0000
0000
0000
0000
0000
0000
0000
000M
0000
0000
0000
0000
0000
0000
0000
,
3200
0000
0000
0000
0000
0000
0000
0000
0000
0000
0000
0000
0310
0000
0000
0000
0000
0000
0001
0000
0000
0000
0000
0000
0010
0000
0000
0000
0000
0000
0002
0000
M000
0000
0000
0000
0000
0000
0000
0000
0000
0000
0000
0000
0000
0000
0000
0000
M103
0000
0000
0000
0000
0000
0000
0000
0000
0000
0000
0000
0010
0000
0000
0000
0000
0000
0100
0000
0000
0000
0000
0000
M02M
0000
0000
0000
0000
0000
0000
0000
0000
0000
0000
0000
0000
0000
0000
0000
000M
0000
0000
0000
0000
0000
0000
0000
1030
0000
0000
0000
0000
0000
0000
0000
0000
0000
0000
0000
0000
0000
0000
0000
000M
0000
0000
0000
0000
0000
0000
0000
0100
0000
0000
0000
0000
0000
0000
0000
M000
0000
0000
0000
0010
0000
0000
0000
0000
0000
0000
0000
0000
0000
0000
0000
M001
0000
0000
0000
0000
0000
0000
0000
0000
0000
0000
0000
0100
0000
0000
0000
00M0
0000
0000
0000
0000
0000
0000
0000
0000
0000
0000
0000
0000
0000
0000
0000
M000
0000
0000
0000
0000
0000
0000
0000
000M
0000
0000
0000
0000
0000
0000
0000
,
0010
0000
0000
0000
0000
0000
0100
0000
00M0
0001
0000
0000
1000
0000
0000
0100
0000
0000
0020
0000
0000
0000
MM00
0000
0032
0000
0000
0000
M000
0000
0103
0000
0000
0010
M000
0000
0100
0000
0000
0002
M000
0000
0000
0000
00M0
0000
0000
0000
,
1003
0000
0000
0000
0000
0000
0100
0000
000M
0010
M000
0000
0100
0000
0000
0010
M000
0000
0001
0000
0000
0100
0000
0000
0010
0000
000M
1000
0000
0000
0100
0000
0000
0010
M000
0000
0M01
0000
M000
0010
0000
0000
010M
0000
0000
1000
00M0
0000
,
0001
0000
0000
0100
0000
0000
001M
0000
0000
1000
0000
0000
010M
0000
0000
0010
000M
0000
0100
0000
0000
1000
00M0
0000
0001
0000
0000
M100
0000
0000
0010
0000
0000
100M
0000
0000
0100
0000
0000
0020
0000
0000
0000
0000
0000
0000
0000
0000
,
0031
0000
0100
0010
1000
0100
0020
0000
0031
0000
1000
0001
1000
0002
0000
0000
,
2003
0000
3100
0010
0001
0010
0200
0000
2300
0000
3001
0100
0020
0000
0000
0000
,
1030
0000
0100
0000
0010
0000
0001
0000
0010
0000
0100
0000
1000
0000
0100
1000
,
0100
0010
0100
1000
0001
1000
0001
0100
,
1000
0100
0010
1000
0100
0010
0001
0010
,
0100
0010
0001
0100
0010
0100
0001
1000
,
0100
1000
0010
0100
M001
0M10
0001
10M0
,
M001
0100
0010
1000
0100
0010
MM11
0001
,
0100
0010
M11M
0010
1000
0100
11MM
1000
,
0100
1000
1MM1
0001
0100
0010
1M1M
2000
,
00M0
320M
00M0
M00M
0310
M001
0100
001M
,
2000
00MM
320M
0000
0310
0001
0010
0100
2000
0000
3002
0000
0103
0010
1000
0100
,
0020
0000
0230
0000
1300
0001
1000
0001
0200
0000
0320
0000
0130
0001
1000
010M
,
M010
0M00
M001
0000
0100
0000
1000
0000
0100
0000
0010
0000
1000
0000
0100
0000
,
0001
0100
0010
0001
1000
0001
0100
0010
,
0100
0001
1000
0100
0010
0100
1000
0001
,
0200
0000
0000
0000
0320
0000
0000
0000
1030
0100
0000
0100
0010
0000
0110
0000
,
0010
0001
1000
0001
0100
0010
0100
0001
,
1000
0100
0010
0100
1000
0001
0100
1000
,
0100
0010
1000
0100
0010
0100
1000
0001
,
0200
0000
0320
0000
0130
0001
1000
0100
,
0010
0001
0010
0100
1000
0001
0100
0001
,
0100
0010
1000
0010
1000
0100
1000
0001
,
0100
0010
0100
0001
1000
0100
0010
0001
,
2000
0000
3200
0000
0310
0001
0010
0100
,
0010
0001
0100
0010
0100
0001
1000
0100
,
0010
0100
1000
0001
0100
0010
0100
0001
,
1000
0100
0001
0100
1000
0010
0100
0001
,
2000
0000
3002
0000
0103
0010
0100
0001
,
1000
0100
0010
0001
0100
1000
0100
0001
,
0010
0100
1000
0100
0010
0100
1000
0001
,
0100
0010
1000
0001
0100
0010
0100
0001
,
2000
0000
3200
0000
0300
MMMM
0000
0000
;
