#TITLE:Over The Rave;
#SUBTITLE:;
#ARTIST:Takoyaki;
#TITLETRANSLIT:;
#SUBTITLETRANSLIT:;
#ARTISTTRANSLIT:;
#CREDIT:;
#BANNER:otr-bn.png;
#BACKGROUND:otr-bg.png;
#LYRICSPATH:;
#CDTITLE:!evilpeerTitle.png;
#MUSIC:Over The Rave.mp3;
#OFFSET:-0.777;
#SAMPLESTART:84.767;
#SAMPLELENGTH:11.538;
#SELECTABLE:YES;
#BPMS:0.000=159.940;
#STOPS:;
#BGCHANGES:;
// cache tags:
#FIRSTBEAT:0.000;
#LASTBEAT:330.000;
#SONGFILENAME:Songs/Keyboard Collaboration II/eVILPeeR - Over The Rave/otr.sm;
#HASMUSIC:1;
#HASBANNER:1;
#MUSICLENGTH:133.284;
// end cache tags

//---------------dance-single - ----------------
#NOTES:
     dance-single:
     :
     Hard:
     11:
     0.989,1.000,0.675,0.090,1.000,821.000,90.000,12.000,0.000,1.000:  // measure 1
1000
0000
0100
0000
1000
0000
0100
1000
0100
0010
0000
0100
1000
0100
1000
0000
,  // measure 2
0001
0000
0100
0000
0001
0000
0100
0001
0100
0010
0000
0100
0001
0100
0001
0000
,  // measure 3
0010
0000
0100
0000
0010
0000
0010
0001
0010
0100
0000
0100
0010
0100
0010
0000
,  // measure 4
1000
0000
0001
0000
1000
0000
0100
0010
0000
0010
0100
0000
0010
0000
0100
0000
,  // measure 5
1001
0100
1000
0100
1000
0100
1000
0100
,  // measure 6
1000
0000
0100
0000
1000
0000
0100
0000
0000
0100
0000
0000
0010
0000
0001
0000
,  // measure 7
0100
0001
0100
0001
0100
0001
0100
0001
,  // measure 8
1000
0000
0000
0100
0000
0000
0010
0000
0000
0001
0000
0000
1000
0000
0000
0100
0000
0000
0010
0000
0000
0001
0000
0000
1000
0000
0100
0000
1000
0000
0001
0000
0000
0000
1000
0000
0100
0000
1000
0000
0001
0000
0010
0000
0000
0100
0000
0000
,  // measure 9
1001
0000
1000
0000
0010
0000
1000
0010
0000
0010
0000
0010
0100
0000
1000
0000
,  // measure 10
0001
0000
1000
0000
0001
0000
0010
0100
0000
0100
0000
0100
0001
0000
0010
0000
,  // measure 11
1000
0000
0100
0000
0010
0000
0100
0010
0000
0010
0000
0010
0100
0000
0001
0000
,  // measure 12
0100
0000
1000
0000
0100
0000
1000
0100
0000
0100
0000
0100
0010
0000
1000
0000
,  // measure 13
0101
0000
0010
0000
0001
0000
0010
0001
0000
0001
0000
0001
0100
0000
0010
0000
,  // measure 14
0100
0000
1000
0000
0100
0000
1000
0100
0000
0100
0000
0100
0010
0000
0100
0000
,  // measure 15
1001
0000
0100
0000
0010
0000
0100
0010
0001
0010
0000
0010
1000
0000
0100
0000
,  // measure 16
1000
0000
0000
0100
0000
0000
0010
0000
0000
0001
0000
0000
1000
0000
0000
0100
0000
0000
0010
0000
0000
0001
0000
0000
1000
0000
0100
0000
1000
0000
0001
0000
0000
0000
1000
0000
0100
0000
1000
0000
0001
0000
0010
0000
0000
0100
0000
0000
,  // measure 17
0010
0000
1000
0000
0010
0000
0001
0000
0100
0000
1000
0100
0000
0001
0010
0100
,  // measure 18
1000
0000
1000
0100
0010
0100
0010
0001
1000
0001
1000
0000
0101
0000
0101
0000
,  // measure 19
0010
0000
1000
0000
0100
0000
0001
0000
0010
0000
0010
0100
0010
0100
0010
1000
,  // measure 20
0001
0010
0001
0010
0001
0100
1000
0100
0010
0100
1000
0100
0010
0100
0010
0001
,  // measure 21
0110
0000
1000
0000
0100
0000
0010
0000
0100
0000
1000
0100
0000
0100
0010
0100
,  // measure 22
0001
0000
0010
1000
0010
0100
0010
0001
0010
0100
0010
0000
1100
0000
1100
0000
,  // measure 23
0010
0000
0100
0000
1000
0000
0010
0000
0001
0000
0001
0010
0001
0010
0001
0100
,  // measure 24
0010
0000
0010
0100
0010
0100
1000
0100
1000
0010
1000
0100
1000
0100
0001
0010
,  // measure 25
1001
0000
0100
0000
1000
0000
0001
0000
1000
0010
0000
0010
0000
0010
0100
1000
,  // measure 26
0100
0000
0010
0100
0010
0100
1000
0100
0001
0010
0001
0000
0100
0000
0100
0000
,  // measure 27
0010
0000
0100
0000
1000
0000
0100
0000
0001
0010
0001
0010
0001
0100
1000
0100
,  // measure 28
0011
0000
0001
0010
0001
0010
1000
0010
0001
0010
0100
1000
0100
0010
0001
0010
,  // measure 29
1100
0000
1000
0000
0100
0000
0001
0000
0010
0100
0000
0100
0000
0100
1000
0100
,  // measure 30
0010
0000
0010
1000
0010
0100
0010
0001
0010
0100
0010
0000
0101
0000
0101
0000
,  // measure 31
0001
0000
0100
0000
1000
0000
0100
0000
0001
0000
0010
0100
0001
0010
0100
1000
,  // measure 32
0001
0000
0001
0100
0001
0010
0001
0100
1000
0100
0010
0001
0010
0000
0000
0000
,  // measure 33
1100
0000
1010
0000
,  // measure 34
0011
0110
1010
1100
,  // measure 35
0000
1000
0100
0010
,  // measure 36
0010
0001
0000
0010
0001
0000
0001
0010
0000
0010
0000
0010
0100
0000
0100
0000
,  // measure 37
1001
0000
1010
0000
,  // measure 38
0011
0110
1010
0101
,  // measure 39
0000
0100
0010
0001
,  // measure 40
0010
0000
0100
0000
0010
0000
0100
0000
0010
0000
0100
0000
0010
0000
0100
0000
1000
0000
0001
0000
1000
0000
0001
0000
0000
2020
0000
0000
0000
0000
0000
0000
,  // measure 41
3232
0000
0000
0000
,  // measure 42
0000
0000
0000
0000
0303
0000
1000
0000
0000
1000
0000
0000
1000
0000
0010
0000
,  // measure 43
2000
0000
0000
0000
0000
0000
0000
3000
,  // measure 44
0010
0100
0000
0010
0100
0000
0010
0100
0000
0100
0000
0100
0010
0000
0010
0000
,  // measure 45
0002
0000
0000
0000
,  // measure 46
0000
0000
0000
0000
0003
0000
0010
0000
0000
0010
0000
0000
0010
0000
0001
0000
,  // measure 47
0020
0000
0000
0000
0000
0000
0000
0030
0020
0000
0000
0000
0000
0000
0030
0000
,  // measure 48
0100
0000
0100
0000
0100
0100
2020
3030
,  // measure 49
0001
0010
0001
0010
0001
0010
0001
0100
0001
0010
0001
0010
0001
0001
1000
1000
,  // measure 50
0001
0010
0001
0010
0001
0010
0101
0000
0000
0101
0000
0000
0101
0000
0011
0000
,  // measure 51
0101
1000
0010
1000
0010
1000
0100
1000
0010
1000
0010
1000
0010
0010
1000
1000
,  // measure 52
0100
0010
0000
0100
0010
0000
0100
0010
0000
0010
0000
0100
0010
0000
0010
0000
,  // measure 53
0101
0010
0001
0010
0001
0010
0001
0100
0001
0010
0001
0010
0001
0001
1000
1000
,  // measure 54
0001
0010
0001
0010
0001
0010
0101
0000
0000
0101
0000
0000
0101
0000
0011
0000
,  // measure 55
0101
1000
0010
1000
0010
1000
0010
0100
1001
0100
0010
1000
0010
0010
0100
0100
,  // measure 56
1001
0000
0000
0000
1001
0000
0000
0000
1000
0100
0010
0100
0011
0000
0000
0000
,  // measure 57
1001
0000
1100
0000
0110
0000
0011
0000
0010
0000
0100
0010
0000
0100
0010
0100
,  // measure 58
1000
0000
1000
0100
1000
0100
0010
0001
0010
0100
0010
0000
1100
0000
1100
0000
,  // measure 59
0011
0000
0110
0000
1100
0000
1010
0000
0001
0000
0001
0010
0001
0010
1000
0100
,  // measure 60
0010
0000
0010
0100
0010
1000
0100
1000
0010
0100
1000
0100
0010
0001
0010
0100
,  // measure 61
1001
0000
1010
0000
1100
0000
1010
0000
0100
0000
1000
0100
0000
0010
0100
0010
,  // measure 62
0001
0000
0010
1000
0010
0100
0010
0001
0010
0100
0010
0000
0101
0000
0101
0000
,  // measure 63
0011
0000
0110
0000
1100
0000
1010
0000
0010
0001
0010
1000
0010
0100
1000
0010
,  // measure 64
0001
0000
0010
0100
0010
1000
0010
0100
1010
0000
0000
0000
0101
0000
0000
0000
,  // measure 65
0110
0000
1100
0000
0110
0000
0011
0000
0001
0000
0010
0001
0000
0010
0100
1000
,  // measure 66
0010
0000
0010
0100
1000
0100
0010
0001
0010
0100
0010
0000
1010
0000
1010
0000
,  // measure 67
0011
0000
0110
0000
1100
0000
0110
0000
0001
0100
0001
0010
1000
0010
0001
0100
,  // measure 68
0010
0000
0010
0100
0010
0100
1000
0100
0010
0100
1000
0100
0010
0001
0010
0000
,  // measure 69
1001
0000
1000
0000
0100
0000
0001
0000
0010
0000
0100
0010
0000
0100
1000
0100
,  // measure 70
0001
0000
0010
1000
0010
0100
0010
0001
0010
0100
0010
0000
1100
0000
1100
0000
,  // measure 71
0010
0000
0100
0000
1000
0000
0100
0000
0001
0000
0001
0010
0001
0010
1000
0001
,  // measure 72
0010
0000
0010
0100
0010
0100
1000
0100
0010
0001
0010
0100
1001
0000
0000
0000
,  // measure 73
0001
0000
0100
0000
0010
0000
0001
0000
1000
0001
0000
0001
0000
0001
0100
0000
,  // measure 74
0100
0000
1000
0000
0100
0000
0010
0000
0100
0010
0000
0010
0000
0010
1000
0000
,  // measure 75
0010
0000
0100
0000
1000
0000
0010
0000
0001
0000
0001
0010
0001
0010
0100
1000
,  // measure 76
0010
0100
0010
0100
0010
0100
0010
0100
0010
0100
0010
0100
1000
0100
0010
0001
,  // measure 77
0010
0000
0100
0000
1000
0000
0100
0000
0010
0001
0000
0001
0000
0001
0010
0000
,  // measure 78
0100
0000
1000
0000
0100
0000
0010
0000
0010
0100
0000
0100
0000
0100
1000
0000
,  // measure 79
1001
0000
0110
0000
1100
0000
0110
0000
0010
0000
0001
0010
0001
1000
0100
0010
,  // measure 80
0001
0010
0100
0010
0001
0010
0100
0010
0001
0010
0001
0010
0100
0010
0100
0010
,  // measure 81
1000
0100
1000
0100
0001
1000
0001
1000
0010
0100
1000
0100
0010
0001
0010
0000
,  // measure 82
1001
1001
0000
1001
0000
1001
0000
1001
2002
0000
0000
0000
0000
0000
0000
0000
,  // measure 83
0000
0000
3003
0000
;
