#TITLE:Biometrics Warrior;
#SUBTITLE:;
#ARTIST:GUHROOVY fw, NO+CHIN;
#TITLETRANSLIT:;
#SUBTITLETRANSLIT:;
#ARTISTTRANSLIT:;
#CREDIT:;
#BANNER:;
#BACKGROUND:;
#LYRICSPATH:;
#CDTITLE:;
#MUSIC:13. Biometrics Warrior.ogg;
#OFFSET:-0.040;
#SAMPLESTART:80.371;
#SAMPLELENGTH:12.000;
#SELECTABLE:YES;
#BPMS:0.000=215.000;
#STOPS:;
#BGCHANGES:;
// cache tags:
#FIRSTBEAT:24.000;
#LASTBEAT:418.000;
#SONGFILENAME:Songs/SSSC Pack 2/Biometrics Warrior - [NIQ9]/Biometrics Warrior.sm;
#HASMUSIC:1;
#HASBANNER:0;
#MUSICLENGTH:121.782;
// end cache tags

//---------------dance-single - NIQ9----------------
#NOTES:
     dance-single:
     NIQ9:
     Challenge:
     13:
     1.000,1.000,0.328,0.156,0.838,904.000,40.000,19.000,8.000,0.000:
0000
0000
0000
0000
,
0000
0000
0000
0000
,
0000
0000
0000
0000
,
0000
0000
0000
0000
,
0000
0000
0000
0000
,
0000
0000
0000
0000
,
0001
0001
0001
0001
,
0001
0001
0001
0000
,
2000
0000
3002
0000
,
0013
0000
0100
1000
0000
0000
1001
0000
,
0000
0001
0100
0001
1000
0000
0001
0000
,
0010
0000
0100
1000
0100
0000
0010
0000
,
0001
1000
0001
0000
0010
0000
1100
0000
,
1000
0100
0010
0000
0001
0000
1001
0000
,
1000
0010
1000
0001
0100
0000
0010
1000
,
0010
0100
0001
0000
1000
0000
0001
0000
,
1001
1000
0100
1000
0020
0000
0130
0001
,
1000
0100
1000
1001
,
0001
0100
1000
0100
0001
0000
1000
0100
,
0010
0000
0001
1000
0100
0000
1001
0000
,
0001
1000
0001
1000
0000
0100
1000
0001
,
0010
0010
0100
0000
1000
0000
1001
0001
,
0100
0000
0010
1000
0100
0000
1000
0000
,
0020
0000
0000
0000
0230
0000
0000
0000
0301
0000
0100
0000
0001
0100
0001
0100
,
0010
0000
1000
0000
0001
0000
0010
0001
0010
0000
0001
0000
1000
0001
0100
0001
,
0100
0010
1000
0000
0001
1000
0010
1000
0010
0000
1000
0000
0001
0100
0001
1000
,
0010
0000
0100
0000
0010
0000
1000
0010
1000
0000
0001
0000
1000
0000
0100
0000
,
0010
0100
0010
0001
0010
0000
0001
0000
1000
0001
0100
0000
0001
0100
0010
0000
,
1000
0000
0200
0000
0310
0000
0002
0000
0023
0000
0130
0000
1000
0100
1000
0100
,
0010
0000
0001
0000
1000
0000
0010
0000
1000
0001
0100
0000
0001
1000
0100
0000
,
0010
0000
0000
0100
0000
0000
1000
0100
1000
0100
1000
0100
1000
0000
0000
0100
0000
0000
0010
0000
0000
0001
0000
0000
,
1000
0100
0010
0001
1000
0000
0010
0000
0100
0000
0000
0000
0101
0000
0000
0000
,
0001
0000
1000
0000
0100
0000
0010
0000
0001
0010
0001
0000
1000
0100
1000
0000
,
0001
1000
0010
1000
0001
0100
0010
0100
0001
1000
0001
0010
0100
1000
0100
0010
,
0001
0000
1000
0000
0010
0000
0100
0000
0001
0100
0001
0000
1000
0000
0100
0000
,
0010
0001
0010
0000
0001
1000
0001
0000
1000
0010
1000
0010
1000
0001
1000
0001
,
0010
0000
0001
0000
1000
0000
0100
0000
0010
0001
0010
0000
0001
0000
1000
0000
,
0010
1000
0010
0100
0001
1000
0001
1000
0100
1000
0001
0010
0100
0000
0010
0000
,
0001
0000
1000
0000
0010
0000
0100
0000
0010
0100
0001
1000
0010
0100
0001
0100
,
0001
1000
0100
0010
0001
0010
0100
1000
0001
1000
0010
1000
0001
0100
0010
0100
,
0001
0000
1000
0000
0010
0000
1000
0000
0001
0100
0001
0000
1000
0100
1000
0000
,
0001
0100
0010
0100
0001
1000
0100
0010
0001
0010
0001
0010
0001
0000
1000
0000
,
1010
0010
0100
0010
1000
0100
0010
0001
,
1000
0010
1000
0000
0001
0010
0001
0000
1000
0100
1000
0100
0010
0100
0010
0100
,
1000
0000
0100
0000
0010
0000
0001
0000
1000
0010
0100
0000
0001
0100
0010
0000
,
1000
0001
0010
0000
0001
1000
0010
0000
0100
0010
1000
0000
0010
0100
0001
0000
,
1000
0000
1001
0000
0001
0000
0010
0000
0001
0010
0001
0010
0100
0000
1000
0000
,
1100
MMMM
1001
MMMM
,
0001
0200
0000
0310
1000
0000
1001
0001
,
0010
0001
0001
1000
0010
0000
1010
0000
,
1000
0002
0000
0013
0200
0000
0310
0001
,
1000
0010
0100
0001
1000
0000
1100
0100
,
0020
0032
1003
0001
,
1000
0010
0001
0010
1000
0000
0002
0000
,
0003
0010
0001
0010
0100
0000
1000
0000
,
0001
0100
0010
0100
0000
0001
1000
0000
,
0101
0000
0100
0000
0010
0000
1000
0001
1000
0000
0100
0000
0010
0001
0010
0001
,
1000
0000
0010
0000
1000
0001
1000
0001
1000
0000
0001
0000
0010
0000
0100
0000
,
1100
0000
1000
0000
0001
0000
1001
0000
1000
0000
0010
0000
1000
0010
1000
0010
,
0100
0000
0000
0010
0000
0000
1000
0000
0000
0001
0000
0000
0010
0000
0000
0001
0010
0001
0010
0001
0010
0001
0000
0000
,
1000
0000
0100
0000
0010
0000
0001
0000
1000
0000
0010
0000
1000
0010
1000
0001
,
0100
0000
0010
0000
0100
0010
0100
0010
0100
0000
0001
0000
0010
0000
0100
0000
,
1100
1000
0001
1000
1010
0010
0010
0010
,
1000
0001
1000
0100
0010
0000
0001
0000
0001
0000
0010
0000
0010
0000
0001
0000
,
2001
0000
0010
0000
3010
0000
1000
0000
0010
0000
0100
0000
0001
1000
0001
1000
,
0001
0000
1000
0000
0100
0000
1000
0001
1000
0000
0001
0000
0100
0001
0100
0010
,
1000
0000
0001
0000
1001
0000
1000
0001
1000
0000
0010
0000
0100
0010
1000
0010
,
1000
0000
0001
0000
1000
0000
0100
0010
0001
0000
0010
0000
0001
1000
0001
1000
,
0001
0000
1000
0000
0010
0000
0100
0001
0100
0000
0001
1000
0100
0010
0100
0010
,
0001
0000
1000
0000
0010
0000
1000
0010
1000
0010
1000
0010
0100
0001
1000
0001
,
1000
0000
0000
0001
0000
0000
0100
0001
0100
0001
0100
0001
0100
0000
0000
0001
0000
0000
1000
0000
0000
0100
0000
0000
,
0010
0000
0000
0000
0000
0000
0001
0000
0000
0000
0000
0000
1000
0000
0000
0010
0000
0000
1000
0000
0000
0010
0000
0000
1000
0000
0000
0000
0000
0000
0001
0000
0000
0000
0000
0000
1000
0000
0010
0000
1000
0000
0010
0000
1000
0000
0010
0000
,
1000
0000
0001
0000
0010
0000
0100
0000
1000
0100
1000
0000
0001
0100
0001
0000
,
1000
0000
0010
0100
0001
0000
1000
0001
0010
0000
0001
0000
1000
0010
1000
0000
,
1001
0000
0001
0000
0100
0000
0101
0000
0001
0000
0100
0000
0010
1000
0010
0000
,
1000
0001
1000
0000
0001
0010
0001
0000
1000
0100
1000
0001
1000
0001
0100
0010
,
0100
0000
0010
0000
1000
0000
0001
0000
0010
0001
0010
0100
1000
0100
0010
0000
,
0001
0000
1000
0000
0010
0000
0100
0000
0010
1000
0010
0100
0001
0100
0010
1000
,
0001
0000
1000
0000
0100
1000
0100
0000
1000
0001
1000
0000
0001
0100
0001
0000
,
1000
0000
0000
0001
0010
0001
0010
0000
0000
0001
1000
0001
1000
0000
0000
0100
1000
0100
1000
0000
0000
0001
0000
0000
,
0100
0000
0001
0000
1000
0000
0100
0000
0010
0001
0010
0100
1000
0000
0001
0000
,
0100
0001
0100
0000
0001
1000
0001
0000
1000
0000
0010
0000
0100
0010
1000
0010
,
0100
0000
0001
0000
1000
0000
1001
0000
0001
0000
0010
0000
0100
1000
0100
1000
,
0100
0000
0010
0000
0001
0000
0100
0000
0010
0100
0010
1000
0001
1000
0100
0010
,
0001
0000
0010
0000
0100
0000
1000
0000
0001
0100
0001
1000
0010
0000
0100
0000
,
0010
0000
1000
0000
0001
0010
0100
1000
0100
0000
0010
0000
0001
0000
1000
0000
,
0010
0000
0100
0000
0010
0000
1000
0000
0001
1000
0001
0000
1000
0100
1000
0000
,
0001
0010
0001
0010
0001
0010
0001
0010
0100
0000
1000
0000
0001
0000
0010
0000
,
0011
0000
1001
0000
1100
0000
0100
0000
0010
0001
1000
0000
0001
1000
0100
0000
,
1000
0100
0010
0000
0100
0010
0001
0000
0010
0001
1000
0001
1000
0000
1001
0000
,
1010
1010
1020
2030
3020
0130
0001
1000
,
0001
0000
0010
0000
0001
0000
0010
0000
0001
0000
0010
0000
0001
1000
0001
1000
,
0010
0000
0100
0000
0101
0000
0001
0000
1001
0000
1000
0000
0100
0010
0001
0000
,
0010
0100
1000
0000
0010
1000
0001
0000
1000
0010
0100
0000
0001
1000
0001
0000
,
0100
0001
0101
0100
0001
0100
0101
0001
,
0100
0010
0000
0000
0000
1001
0001
1000
,
0001
0000
0010
0000
0001
0000
1000
0001
1000
0000
0000
0000
1010
0000
0000
0000
,
0010
0000
0100
0000
0001
0000
1000
0001
1000
0001
1000
0000
0001
0000
0000
0000
,
1000
0000
0100
0000
0010
0000
0001
0000
1000
0100
1000
0000
0001
0000
0000
0000
,
1000
0000
0010
0000
1000
0000
0001
0000
0100
0001
0100
0000
0001
0000
1000
0000
,
1100
0000
0100
0000
0010
0000
0001
0000
1000
0010
1000
0000
0001
0010
0001
0000
,
1000
0000
0100
0000
0010
0000
0001
0000
1000
0001
1000
0000
0010
0000
0100
0000
,
0101
0000
0001
0000
1000
0000
0100
0000
0010
0100
0010
0000
0100
0000
1000
0000
,
0001
1000
0001
0000
1000
0000
0100
0000
1000
0100
0010
0000
0001
0000
0100
0000
,
2000
0000
3000
0000
;
