#TITLE:REBIRTH;
#SUBTITLE:;
#ARTIST:SharpnelSound;
#TITLETRANSLIT:;
#SUBTITLETRANSLIT:;
#ARTISTTRANSLIT:;
#CREDIT:DukAmok;
#BANNER:REBIRTH.png;
#BACKGROUND:REBIRTH-bg.png;
#LYRICSPATH:;
#CDTITLE:!duktitle.png;
#MUSIC:REBIRTH.mp3;
#OFFSET:0.500;
#SAMPLESTART:37.500;
#SAMPLELENGTH:10.000;
#SELECTABLE:YES;
#BPMS:0.000=200.090;
#STOPS:;
#BGCHANGES:;
// cache tags:
#FIRSTBEAT:2.000;
#LASTBEAT:684.000;
#SONGFILENAME:Songs/Ace Megapack/REBIRTH/REBIRTH.sm;
#HASMUSIC:1;
#HASBANNER:1;
#MUSICLENGTH:206.670;
// end cache tags

//---------------dance-single - Heavy----------------
#NOTES:
     dance-single:
     Heavy:
     Hard:
     11:
     1.000,1.000,0.198,0.010,1.000,1686.000,41.000,2.000,0.000,0.000:
0000
0000
0000
0000
0000
0000
0000
0000
1000
0001
0100
0010
0100
0001
0010
0100
,
1000
0000
1000
0000
0100
0000
0010
0001
0010
0000
0001
0000
1000
0010
0100
0000
,
0001
0000
0001
0000
1000
0000
0100
0010
0000
0001
0010
0001
1000
0000
0010
1000
,
0001
0000
0001
0000
1000
0000
0100
0000
0100
0000
0010
0000
0000
0001
1000
0010
,
0100
0000
0100
0000
0001
0000
0000
0100
0010
1000
0010
0100
0001
0010
0100
0010
,
0001
0000
0001
0000
0010
0000
0100
1000
0100
0000
1000
0000
0001
0100
0010
0000
,
1000
0000
1000
0000
0001
0000
0010
0100
0000
1000
0100
1000
0001
0000
0100
0001
,
1000
0000
1000
0000
0001
0000
0010
0000
0010
0000
0100
0000
0000
1000
0001
0100
,
0010
0000
0010
0000
1000
0000
0000
0100
0010
0000
0001
1000
0001
1000
0100
0010
,
0100
0000
0100
0000
1000
0000
0010
0100
0001
0000
1000
0000
0100
0010
0001
0000
,
0010
0000
0010
0000
0100
0000
1000
0100
0000
1000
0010
0100
0001
0000
0010
0100
,
0010
0000
0010
0000
0001
0000
1000
0000
1000
0000
0010
0000
0000
1000
0010
0100
,
0001
0000
0010
0000
0100
0000
0000
0010
0100
1000
0100
0010
0001
0000
0000
0000
,
0001
0000
0001
0000
0100
0000
0010
1000
0010
0000
0100
0000
0001
0010
0001
0000
,
0100
0000
0100
0000
0010
0000
0100
0010
0000
1000
0010
0100
0010
0000
1000
0100
,
0010
0000
0100
0000
0010
0000
0001
0000
0001
0000
0010
0000
0000
0001
1000
0010
,
0200
0000
0000
0000
0000
0000
0000
0001
0000
0000
0000
0000
0000
0000
0000
0000
,
0001
0000
0000
0000
0000
0000
0000
0000
0000
0001
0000
0000
0000
0000
0000
0000
,
0000
0301
0000
0000
0000
0000
0000
0000
,
0000
0000
0000
0001
,
1000
0100
1000
0000
0100
0010
0001
0000
1000
0000
0010
0100
0000
0001
0010
0000
,
0100
1000
0010
0000
0100
0001
0100
0000
0010
0000
0100
0001
0010
0100
0010
0000
,
0001
1000
0010
0000
0100
0001
0010
0000
0100
0000
0010
0001
0000
1000
0010
0000
,
0100
0010
0100
0000
0001
1000
0001
0000
0010
0000
0100
0010
0100
1000
0001
0000
,
0001
0010
0001
0000
0010
0100
1000
0000
0001
0000
0100
0010
0000
1000
0100
0000
,
0010
0001
0100
0000
0010
1000
0010
0000
0100
0000
0010
1000
0100
0010
0100
0000
,
1000
0001
0100
0000
0010
1000
0100
0000
0010
0000
0100
1000
0000
0001
0100
0000
,
0010
0100
0010
0000
1000
0001
1000
0000
0100
0000
0010
0100
0010
0001
1000
0000
,
0010
0100
0010
0000
0100
0010
1000
0000
0100
0000
0010
0100
0000
0010
0100
0000
,
0010
0001
0010
0000
0100
0001
0100
0000
0010
0000
1000
0001
0010
0001
0010
0000
,
0001
0100
0010
0000
1000
0010
0100
0000
0001
0000
0010
0001
0000
0100
0010
0000
,
0100
0001
0100
0000
0001
0010
0001
0000
0010
0000
0100
0010
0001
1000
0001
0000
,
0100
0010
0100
0000
0010
0100
0001
0000
0010
0000
0100
0010
0000
0100
0010
0000
,
0100
1000
0100
0000
0010
1000
0010
0000
0100
0000
0001
1000
0100
1000
0100
0000
,
1000
0010
0100
0000
0001
0100
0010
0000
1000
0000
0100
1000
0000
0010
0100
0000
,
0010
1000
0010
1000
0100
0010
0100
0010
0001
0010
0001
0010
0001
0100
0010
1000
,
0010
0000
0010
0000
1000
0000
0100
0010
0100
1000
0010
0000
0100
0001
0010
0100
,
0010
0001
0100
0000
0010
1000
0010
0000
0100
0000
0010
1000
0100
0010
0100
0000
,
1000
0001
0100
0000
0010
1000
0100
0000
0010
0000
0100
1000
0000
0001
0100
0000
,
0010
0100
0010
0000
1000
0001
1000
0000
0100
0000
0010
0100
0010
0001
1000
0000
,
1000
0100
1000
0000
0100
0010
0001
0000
1000
0000
0010
0100
0000
0001
0010
0000
,
0100
1000
0010
0000
0100
0001
0100
0000
0010
0000
0100
0001
0010
0100
0010
0000
,
0001
1000
0010
0000
0100
0001
0010
0000
0100
0000
0010
0001
0000
1000
0010
0000
,
0100
0010
0100
0000
0001
1000
0001
0000
0010
0000
0100
0010
0100
1000
0001
0000
,
0100
0010
0100
0000
0010
0100
0001
0000
0010
0000
0100
0010
0000
0100
0010
0000
,
0100
1000
0100
0000
0010
1000
0010
0000
0100
0000
0001
1000
0100
1000
0100
0000
,
1000
0010
0100
0000
0001
0100
0010
0000
1000
0000
0100
1000
0000
0010
0100
0000
,
0010
1000
0010
0000
1000
0100
1000
0000
0100
0000
0010
0100
1000
0001
1000
0000
,
0010
0100
0010
0000
0100
0010
1000
0000
0100
0000
0010
0100
0000
0010
0100
0000
,
0010
0001
0010
0000
0100
0001
0100
0000
0010
0000
1000
0001
0010
0001
0010
0000
,
0001
0100
0010
0000
1000
0010
0100
0000
0001
0000
0010
0001
0000
0100
0010
0000
,
0100
0001
0100
0000
0001
0010
0001
0000
0010
0000
0100
0010
0001
1000
0001
0000
,
0100
0001
0100
0001
0010
0001
0010
0001
0010
0100
0010
0100
1000
0100
1000
0100
,
0010
0001
1000
0010
,
0100
0010
1000
0100
,
1001
0100
0010
0001
,
1010
0000
1010
0000
0101
0101
0010
0000
,
0011
0100
0010
0001
,
1001
0000
0011
0000
1100
0110
0001
0000
,
1100
0000
0001
0010
0001
0100
0010
1000
,
0001
1000
0110
0001
1000
0011
1000
0010
,
1001
0000
0100
0000
1010
0000
0001
0000
1000
0000
0011
0000
0100
0010
0000
0000
,
1000
0000
0100
0000
0010
0000
0001
0000
1100
0000
0000
0011
0000
0000
0101
0000
,
0110
0001
1100
0010
0101
1000
0011
0100
,
0010
0000
1000
0000
0011
0000
0100
1000
0010
0100
0001
0010
0100
0000
0010
0001
,
0100
0000
0001
0000
1100
0000
0010
0000
1000
0000
0110
0000
0001
0100
0000
0000
,
1000
0000
0001
0000
0100
0000
0010
0000
1001
0000
0000
0110
0000
0000
0011
0000
,
0101
0000
0010
0000
1001
0000
0100
0000
0001
1000
0100
0010
0100
0000
0000
0000
,
0010
0000
0001
0000
0110
0000
0001
0010
0100
1000
0001
0100
0001
0000
0000
0000
,
1001
0000
0000
0000
,
0000
0000
0000
0000
,
0001
1000
0001
1000
0010
1000
0010
1000
0010
0100
0010
0100
0001
0100
0001
0100
,
0020
0000
0000
0000
0000
0000
0000
0030
,
1100
0000
0011
0101
0110
0110
1001
0000
,
1000
0100
0010
0000
0100
0010
0001
0000
1000
0000
0010
0100
0001
0010
0100
0000
,
0010
0001
1000
0000
0010
0100
0001
0000
0010
0000
0100
0010
0001
1000
0001
0000
,
1000
0001
1000
0000
0010
1000
0010
0000
0100
0000
0001
0010
0100
0010
0001
0000
,
1000
0100
0010
0000
0100
1000
0001
0000
0100
0000
0010
0100
0010
1000
0100
0000
,
0010
0100
0010
0000
0001
1000
0100
0000
0010
0000
0001
0010
0100
1000
0100
0000
,
1000
0001
0100
0000
0001
0100
0001
0000
0010
0000
0100
1000
0100
0010
0100
0000
,
0010
0001
1000
0000
0010
0100
0010
0000
1000
0000
0001
1000
0100
1000
0001
0000
,
0010
0001
0100
0000
0001
0010
0100
0000
1000
0000
0001
0100
0010
1000
0001
0000
,
0001
0010
0100
0000
0010
0100
1000
0000
0001
0000
0100
0010
1000
0100
0010
0000
,
0100
1000
0001
0000
0100
0010
1000
0000
0100
0000
0010
0100
1000
0001
1000
0000
,
0001
1000
0001
0000
0100
0001
0100
0000
0010
0000
1000
0100
0010
0100
1000
0000
,
0001
0010
0100
0000
0010
0001
1000
0000
0010
0000
0100
0010
0100
0001
0010
0000
,
0100
0010
0100
0000
1000
0001
0010
0000
0100
0000
1000
0100
0010
0001
0010
0000
,
0001
1000
0010
0000
1000
0010
1000
0000
0100
0000
0010
0001
0010
0100
0010
0000
,
0100
1000
0001
0000
0100
0010
0100
0000
0001
0000
1000
0001
0010
0001
1000
0000
,
0100
1000
0010
0000
1000
0100
0010
0000
0001
0000
1000
0010
0000
0000
0100
0000
,
0001
0000
0000
1000
0000
0000
0100
0000
0010
0000
0000
0001
0000
0000
0100
0000
,
0010
0000
0000
1000
0000
0000
0100
0000
0100
0000
0000
0010
0000
0000
0001
0000
,
0100
0000
0000
0010
0000
0000
1000
0000
0100
0000
0000
0010
0000
0000
0100
0000
,
1000
0000
0000
0010
0000
0000
0100
0000
0001
1000
0100
0000
0010
0000
0001
0000
,
1000
0000
0000
0001
1000
0000
0010
0000
0100
0000
0000
0001
0010
0000
0100
0000
,
1000
0000
0000
0001
0100
0000
0010
0000
0010
0000
0000
0100
0001
0000
1000
0000
,
0010
0000
0000
1000
0100
0000
0010
0000
0001
0000
0000
0100
0010
0000
1000
0000
,
0100
0000
0000
0100
0010
0000
0001
0000
0001
0000
0000
0010
0001
0000
0010
0000
,
0001
0000
1000
0001
0100
0000
0010
0000
1000
0000
0100
0010
0100
0000
0010
0000
,
0001
0000
0100
0010
1000
0000
0100
0000
0100
0000
0010
0001
1000
0000
0001
0000
,
0100
0000
0010
0100
0001
0000
0010
0000
0100
0000
1000
0010
0100
0000
0010
0000
,
0100
0000
0001
0010
0100
0000
0010
0000
0010
0000
0001
1000
0100
0000
0100
0000
,
1000
0000
0001
1000
0010
0000
0100
0000
0001
0000
0010
0100
0010
0000
0100
0000
,
1000
0000
0010
0100
0001
0000
0010
0000
0010
0000
0100
1000
0001
0000
1000
0000
,
0010
0000
0100
0010
1000
0000
0100
0000
0010
0000
0001
0100
0010
0000
0100
0000
,
1001
0000
0000
0000
0000
0000
0000
0000
0100
0000
0000
1000
0000
0000
0010
0000
,
1000
0000
0000
0001
1000
0000
0010
0000
0100
0000
0000
0001
0010
0000
0100
0000
,
1000
0000
0000
0001
0100
0000
0010
0000
0010
0000
0000
0100
0001
0000
1000
0000
,
0010
0000
0000
1000
0100
0000
0010
0000
0001
0000
0000
0100
0010
0000
1000
0000
,
0100
0000
0000
0100
0010
0000
0001
0000
0001
0000
0000
0010
0000
0000
0010
0000
,
0001
0000
0000
1000
0001
0000
0100
0000
0010
0000
0000
1000
0100
0000
0010
0000
,
0001
0000
0000
1000
0010
0000
0100
0000
0100
0000
0000
0010
1000
0000
0001
0000
,
0100
0000
0000
0001
0010
0000
0100
0000
1000
0000
0000
0010
0100
0000
0001
0000
,
0010
0000
0000
0010
0100
0000
1000
0000
0100
0000
0000
0010
0001
1000
0010
0000
,
1000
0000
0001
1000
0010
0000
0100
0000
0001
0000
0010
0100
0010
0000
0100
0000
,
1000
0000
0010
0100
0001
0000
0010
0000
0010
0000
0100
1000
0001
0000
1000
0000
,
0010
0000
0100
0010
1000
0000
0100
0000
0010
0000
0001
0100
0010
0000
0100
0000
,
0010
0000
1000
0100
0010
0000
0100
0000
0100
0000
1000
0001
0010
0000
0010
0000
,
0001
0000
1000
0001
0100
0000
0010
0000
1000
0000
0100
0010
0100
0000
0010
0000
,
0001
0000
0100
0010
1000
0000
0100
0000
0100
0000
0010
0001
1000
0000
0001
0000
,
0100
0000
0010
0100
0001
0000
0010
0000
0100
0000
1000
0010
0100
0000
0010
0000
,
0001
0000
0100
0010
0100
0000
0100
0000
0001
0000
1000
0100
0010
0100
1000
0000
,
0001
0000
0000
1000
0001
0000
0100
0000
0010
0000
0000
1000
0100
0000
0010
0000
,
0001
0000
0000
1000
0010
0000
0100
0000
0100
0000
0000
0010
1000
0000
0001
0000
,
0100
0000
0000
0001
0010
0000
0100
0000
1000
0000
0000
0010
0100
0000
0001
0000
,
0010
0000
0000
0010
0100
0000
1000
0000
1000
0000
0000
0100
0000
0000
0100
0000
,
1000
0000
0000
0001
1000
0000
0010
0000
0100
0000
0000
0001
0010
0000
0100
0000
,
1000
0000
0000
0001
0100
0000
0010
0000
0010
0000
0000
0100
0001
0000
1000
0000
,
0010
0000
0000
1000
0100
0000
0010
0000
0001
0000
0000
0100
0010
0000
1000
0000
,
0100
0000
0000
0100
0010
0000
0001
0000
0010
0000
0000
0100
1000
0001
0100
0000
,
0001
0000
1000
0001
0100
0000
0010
0000
1000
0000
0100
0010
0100
0000
0010
0000
,
0001
0000
0100
0010
1000
0000
0100
0000
0100
0000
0010
0001
1000
0000
0001
0000
,
0100
0000
0010
0100
0001
0000
0010
0000
0100
0000
1000
0010
0100
0000
0010
0000
,
0100
0000
0001
0010
0100
0000
0010
0000
0010
0000
0001
1000
0100
0000
0100
0000
,
1000
0000
0001
1000
0010
0000
0100
0000
0001
0000
0010
0100
0010
0000
0100
0000
,
1000
0000
0010
0100
0001
0000
0010
0000
0010
0000
0100
1000
0001
0000
1000
0000
,
0010
0000
0100
0010
1000
0000
0100
0000
0010
0000
0001
0100
0010
0000
0100
0000
,
1001
0000
0000
0000
0000
0000
0000
0000
0001
0000
0000
1000
0000
0000
0001
0000
,
1000
0000
0100
0010
0000
0100
1000
0000
0010
0000
0100
0001
0000
0010
0001
0000
,
1000
0100
0010
0000
0001
0100
0010
0000
0100
0000
0010
0100
0001
0100
0010
0000
,
1000
0100
0010
0000
0100
1000
0001
0000
0100
0000
0010
1000
0000
0010
0100
0000
,
0001
0010
0100
0000
0010
0001
1000
0000
0010
0000
0100
0001
1000
0001
0010
0000
,
0100
0000
0010
0100
0000
0010
0001
0000
0100
0000
0010
1000
0000
0100
1000
0000
,
0001
0010
0100
0000
1000
0010
0100
0000
0010
0000
0100
0010
1000
0010
0100
0000
,
0001
0010
0100
0000
0010
0001
1000
0000
0010
0000
0100
0001
0000
0100
0010
0000
,
1000
0100
0010
0000
0100
1000
0001
0000
0100
0000
0010
0100
0001
1000
0100
0000
,
0001
0000
0010
0100
0000
0010
0001
0000
0100
0000
0010
1000
0000
0100
1000
0000
,
0001
0010
0100
0000
1000
0010
0100
0000
0010
0000
0100
0010
1000
0010
0100
0000
,
0001
0010
0100
0000
0010
0001
1000
0000
0010
0000
0100
0001
0000
0100
0010
0000
,
1000
0100
0010
0000
0100
1000
0001
0000
0100
0000
0010
1000
0001
1000
0100
0000
,
0010
0000
0100
0010
0000
0100
1000
0000
0010
0000
0100
0001
0000
0010
0001
0000
,
1000
0100
0010
0000
0001
0100
0010
0000
0100
0000
0010
0100
0001
0100
0010
0000
,
1000
0100
0010
0000
0100
1000
0001
0000
0100
0000
0010
1000
0000
0010
0100
0000
,
0001
0010
0100
1000
0010
0100
0010
0100
0001
0010
0100
0010
0001
0100
0010
1000
,
0100
0000
0100
0000
0010
0000
0001
1000
0001
0000
0100
0000
0010
1000
0010
0100
,
0001
1000
0010
0000
0100
0001
0010
0000
0100
0000
0010
0001
1000
0010
0100
0000
,
0010
0100
0010
0000
1000
0100
0010
0000
0100
0000
1000
0010
0100
0001
0010
0000
,
0100
0010
0100
0000
0010
0001
0010
0000
0001
0000
0100
0010
0100
0001
0010
0000
,
0100
1000
0010
0000
0100
0010
1000
0000
0010
0000
0100
0010
1000
0100
1000
0000
,
0100
0010
0001
0000
0010
0100
1000
0000
0010
0000
0100
0001
0010
0001
1000
0000
,
0010
0100
0001
0000
0010
0001
1000
0000
0100
0000
0010
0100
1000
0010
0100
0000
,
0010
1000
0001
0000
0010
0100
1000
0000
0010
0000
0100
0001
0010
0100
0010
0000
,
0001
0010
0100
0000
1000
0100
0010
0000
0010
0000
0001
0100
0010
1000
0010
0000
,
1000
0001
0100
0000
0010
1000
0100
0000
0010
0000
0100
1000
0001
0100
0010
0000
,
0100
0010
0100
0000
0001
0010
0100
0000
0010
0000
0001
0100
0010
1000
0100
0000
,
0010
0100
0010
0000
0100
1000
0100
0000
1000
0000
0010
0100
0010
1000
0100
0000
,
0010
0001
0100
0000
0010
0100
0001
0000
0100
0000
0010
0100
0001
0010
0001
0000
,
0010
0100
1000
0000
0100
0010
0001
0000
0100
0000
0010
1000
0100
1000
0001
0000
,
0100
0010
1000
0000
0100
1000
0001
0000
0010
0000
0100
0010
0001
0100
0010
0000
,
0100
0001
1000
0000
0100
0010
0001
0000
0100
0000
0010
1000
0100
0010
0100
0000
,
1000
0100
0010
0001
0100
0010
1000
0010
0100
0001
0010
0001
0100
0010
1000
0100
,
0010
0000
0000
0000
;

//---------------dance-single - Challenge----------------
#NOTES:
     dance-single:
     Challenge:
     Challenge:
     13:
     1.000,1.000,1.000,0.010,1.000,1708.000,562.000,2.000,0.000,0.000:
0000
0000
0000
0000
0000
0000
0000
0000
0001
1000
0010
0100
0010
1000
0100
0010
,
1001
0000
0001
0000
1010
0000
0100
1000
0100
0000
1010
0000
0001
0100
0010
0000
,
1000
0000
1000
0000
0101
0000
0010
0100
0000
1000
0100
1000
0011
0000
0100
0001
,
1000
0000
1000
0000
0101
0000
0010
0000
0010
0000
0101
0000
0000
1000
0011
0100
,
0010
0000
0010
0000
1001
0000
0000
0010
1100
0001
0100
0010
1000
0100
0010
0100
,
1010
0000
1000
0000
1100
0000
0010
0001
0010
0000
0101
0000
1000
0010
1100
0000
,
0001
0000
0001
0000
1010
0000
0100
0010
0000
0001
0110
0001
1000
0000
0010
1000
,
0001
0000
0001
0000
1010
0000
0100
0000
0100
0000
1010
0000
0000
0001
1010
0100
,
0001
0000
0000
0000
0001
0000
0000
0000
0011
0000
0000
0000
0000
0000
0010
0000
0101
0000
0000
0000
1000
0001
1000
0001
0100
0000
0010
0000
1000
0000
0100
0000
,
0011
0000
0010
0000
0101
0000
0100
0010
1001
0000
0001
0000
0011
0100
1000
0000
,
0110
0000
0100
0000
1010
0000
0001
0010
1100
0001
0100
0010
1001
0000
0100
0010
,
0101
0000
0100
0000
1010
0000
0001
0000
0011
0000
0100
0000
1010
0001
0100
0010
,
1001
0000
0100
0000
0011
0000
0000
0100
1010
0001
0010
0100
1001
0000
0000
0000
,
1010
0000
1000
0000
0011
0000
0100
0001
0110
0000
0010
0000
1010
0100
1000
0000
,
0110
0000
0010
0000
0101
0000
0010
0100
1010
0001
0100
0010
1100
0000
1001
0010
,
0101
0000
0010
0000
0101
0000
1000
0000
1010
0000
0100
0000
0011
1000
0001
0100
,
0020
0000
0000
0000
0000
0000
0000
1000
0000
0000
0000
0000
0000
0000
0000
0000
,
1000
0000
0000
0000
0000
0000
0000
0000
0000
1000
0000
0000
0000
0000
0000
0000
,
0000
1030
0000
0000
0000
0000
0000
0000
,
0000
0000
0000
1001
,
1001
0010
0001
0000
0010
0100
1000
0000
0001
0000
0100
0010
0000
1000
0100
0000
,
0010
0001
0100
0000
0010
1000
0010
0000
0100
0000
0010
1000
0100
0010
0100
0000
,
1000
0001
0100
0000
0010
1000
0100
0000
0010
0000
0100
1000
0000
0001
0100
0000
,
0010
0100
0010
0000
1000
0001
1000
0000
0100
0000
0010
0100
0010
0001
1000
0000
,
1001
0100
1000
0000
0100
0010
0001
0000
1000
0000
0010
0100
0000
0001
0010
0000
,
0100
1000
0010
0000
0100
0001
0100
0000
0010
0000
0100
0001
0010
0100
0010
0000
,
0001
1000
0010
0000
0100
0001
0010
0000
0100
0000
0010
0001
0000
1000
0010
0000
,
0100
0010
0100
0000
0001
1000
0001
0000
0010
0000
0100
0010
0100
1000
0001
0000
,
1100
0010
0100
0000
0010
0100
0001
0000
0010
0000
0100
0010
0000
0100
0010
0000
,
0100
1000
0100
0000
0010
1000
0010
0000
0100
0000
0001
1000
0100
1000
0100
0000
,
1000
0010
0100
0000
0001
0100
0010
0000
1000
0000
0100
1000
0000
0010
0100
0000
,
0010
1000
0010
0000
1000
0100
1000
0000
0100
0000
0010
0100
1000
0001
1000
0000
,
0011
0100
0010
0000
0100
0010
1000
0000
0100
0000
0010
0100
0000
0010
0100
0000
,
0010
0001
0010
0000
0100
0001
0100
0000
0010
0000
1000
0001
0010
0001
0010
0000
,
0001
0100
0010
0000
1000
0010
0100
0000
0001
0000
0010
0001
0000
0100
0010
0000
,
0100
0001
0100
0001
0010
0100
0010
0100
1000
0100
1000
0100
1000
0010
0100
0001
,
0100
0000
0100
0000
0001
0000
0010
0100
0010
0001
0100
0000
0010
1000
0100
0010
,
0101
1000
0010
0000
1100
0001
0100
0000
0011
0000
0100
0001
1010
0100
0010
0000
,
0101
1000
0010
0000
1100
0001
0010
0000
0101
0000
0010
0001
0110
1000
0010
0000
,
0101
0010
0100
0000
0101
1000
0001
0000
1010
0000
0100
0010
0101
1000
0001
0000
,
0101
0010
0001
0000
0011
0100
1000
0000
0011
0000
0100
0010
0101
1000
0100
0000
,
1010
0001
0100
0000
0110
1000
0010
0000
1100
0000
0010
1000
0101
0010
0100
0000
,
1010
0001
0100
0000
0011
1000
0100
0000
1010
0000
0100
1000
0110
0001
0100
0000
,
1010
0100
0010
0000
1010
0001
1000
0000
0101
0000
0010
0100
1010
0001
1000
0000
,
0011
0100
0010
0000
1100
0010
1000
0000
0110
0000
0010
0100
1001
0010
0100
0000
,
1010
0001
0010
0000
1100
0001
0100
0000
0011
0000
1000
0001
0110
0001
0010
0000
,
0011
0100
0010
0000
1001
0010
0100
0000
1001
0000
0010
0001
1010
0100
0010
0000
,
1100
0001
0100
0000
0101
0010
0001
0000
0011
0000
0100
0010
0101
1000
0001
0000
,
0101
0010
0100
0000
0011
0100
0001
0000
1010
0000
0100
0010
1001
0100
0010
0000
,
0110
1000
0100
0000
0110
1000
0010
0000
1100
0000
0001
1000
0101
1000
0100
0000
,
1001
0010
0100
0000
1001
0100
0010
0000
1001
0000
0100
1000
0101
0010
0100
0000
,
0011
1000
0010
0000
1010
0100
1000
0000
0101
0000
0010
0100
1010
0001
1000
0000
,
0010
1000
0010
1000
0100
1000
0100
1000
0100
0010
0100
0010
0001
0010
0001
0010
,
0100
1000
0001
0100
,
0010
0100
0001
0010
,
1001
0010
0100
1000
,
0101
0000
0101
0000
1010
1010
0100
0000
,
1100
0010
0100
1000
,
1001
0000
1100
0000
0011
0110
1000
0000
,
0011
0000
1000
0100
1000
0010
0100
0001
,
1000
0001
0110
1000
0001
1100
0001
0100
,
1001
0000
0010
0000
0101
0000
1000
0000
0001
0000
1100
0000
0010
0100
0000
0000
,
0001
0000
0010
0000
0100
0000
1000
0000
0011
0000
0000
1100
0000
0000
1010
0000
,
0110
1000
0011
0100
1010
0001
1100
0010
,
0100
0000
0001
0000
1100
0000
0010
0001
0100
0010
1000
0100
0010
0000
0100
1000
,
0010
0000
1000
0000
0011
0000
0100
0000
0001
0000
0110
0000
1000
0010
0000
0000
,
0001
0000
1000
0000
0010
0000
0100
0000
1001
0000
0000
0110
0000
0000
1100
0000
,
1010
0000
0100
0000
1001
0000
0010
0000
1000
0001
0010
0100
0010
0000
0000
0000
,
0100
0000
1000
0000
0110
0000
1000
0100
0010
0001
1000
0010
1000
0000
0000
0000
,
1001
0000
0000
0000
,
0000
0000
0000
0000
,
1000
0001
1000
0001
0100
0001
0100
0001
0100
0010
0100
0010
1000
0010
1000
0010
,
0200
0000
0000
0000
0000
0000
0000
0300
,
0011
0000
1100
1010
0110
0110
1001
0000
,
1001
0010
0100
0000
0011
0100
1000
0000
1001
0000
0100
0010
1001
0100
0010
0000
,
0110
1000
0001
0000
1100
0010
1000
0000
0101
0000
0010
0100
1010
0001
1000
0000
,
0101
1000
0001
0000
1100
0001
0100
0000
0011
0000
1000
0100
0011
0100
1000
0000
,
1001
0010
0100
0000
1010
0001
1000
0000
0011
0000
0100
0010
1100
0001
0010
0000
,
0101
0010
0100
0000
1010
0001
0010
0000
0101
0000
1000
0100
1010
0001
0010
0000
,
0101
1000
0010
0000
1001
0010
1000
0000
1100
0000
0010
0001
1010
0100
0010
0000
,
0101
1000
0001
0000
1100
0010
0100
0000
0011
0000
1000
0001
0110
0001
1000
0000
,
0101
1000
0010
0000
1001
0100
0010
0000
1001
0000
1000
0010
1100
0001
1000
0000
,
1001
0100
0010
0000
1100
0010
0001
0000
1010
0000
0010
0100
1001
0010
0100
0000
,
0110
0001
1000
0000
0011
0100
0001
0000
1010
0000
0100
0010
0101
1000
0001
0000
,
1010
0001
1000
0000
0011
1000
0010
0000
1100
0000
0001
0010
0101
0010
0001
0000
,
1001
0100
0010
0000
0101
1000
0001
0000
0110
0000
0010
0100
0011
1000
0100
0000
,
1010
0100
0010
0000
0101
1000
0100
0000
1010
0000
0001
0010
0101
1000
0100
0000
,
1100
0001
0100
0000
1001
0100
0001
0000
0011
0000
0100
1000
0101
0010
0100
0000
,
0110
0001
1000
0000
0011
0100
0010
0000
1100
0000
0001
1000
0110
1000
0001
0000
,
1010
0001
0100
0000
1001
0010
0100
0000
1001
0000
0001
0100
0000
0000
0010
0000
,
1001
0000
0000
0101
0000
0000
1010
0000
1100
0000
0000
1001
0000
0000
0011
0000
,
0110
0000
0000
1001
0000
0000
1010
0000
0110
0000
0000
0101
0000
0000
1001
0000
,
0011
0000
0000
0110
0000
0000
1001
0000
1010
0000
0000
1100
0000
0000
0011
0000
,
0101
0000
0000
0110
0000
0000
1010
0000
1000
0001
0010
0000
0100
0000
1000
0000
,
0101
0000
0000
1010
0001
0000
1100
0000
0011
0000
0000
1001
0100
0000
1010
0000
,
0101
0000
0000
1001
0010
0000
0101
0000
1100
0000
0000
0011
1000
0000
1001
0000
,
0110
0000
0000
1001
0010
0000
0101
0000
1010
0000
0000
0011
1000
0000
0011
0000
,
0110
0000
0000
0011
0100
0000
1010
0000
0101
0000
0000
0110
0001
0000
0110
0000
,
1001
0000
0001
1100
0010
0000
0101
0000
1001
0000
0010
0101
0010
0000
0101
0000
,
1001
0000
0010
1100
0001
0000
0110
0000
0011
0000
0100
1010
0001
0000
1001
0000
,
0011
0000
0100
0011
1000
0000
1100
0000
0011
0000
0001
1100
0010
0000
0101
0000
,
1010
0000
1000
0101
0010
0000
0110
0000
0101
0000
1000
0101
0010
0000
1010
0000
,
0101
0000
1000
0011
0100
0000
1010
0000
1001
0000
0100
0011
0100
0000
1010
0000
,
0011
0000
0100
0011
1000
0000
1100
0000
0110
0000
0010
0101
1000
0000
0011
0000
,
1000
0100
0010
0001
0010
0001
0100
0010
0100
0001
0010
0001
0100
0010
1000
0100
,
1001
0000
0000
0000
0000
0000
0000
0000
0011
0000
0000
1001
0000
0000
0110
0000
,
0110
0000
0000
1001
0100
0000
0011
0000
1100
0000
0000
0101
0010
0000
1001
0000
,
0110
0000
0000
0101
1000
0000
0110
0000
0011
0000
0000
1100
0001
0000
0101
0000
,
1010
0000
0000
0101
1000
0000
0110
0000
1001
0000
0000
1100
0001
0000
1100
0000
,
1010
0000
0000
1100
0010
0000
1001
0000
0110
0000
0000
1010
0100
0000
1010
0000
,
0110
0000
0000
1001
0100
0000
0011
0000
1100
0000
0000
0101
0010
0000
1001
0000
,
0110
0000
0000
0101
1000
0000
0110
0000
0011
0000
0000
1100
0001
0000
0101
0000
,
1010
0000
0000
0101
1000
0000
0110
0000
1001
0000
0000
1100
0001
0000
1100
0000
,
1010
0000
0000
1100
0010
0000
1001
0000
0110
0000
0000
1010
0100
0000
1010
0000
,
0101
0000
0100
0011
1000
0000
0110
0000
0101
0000
1000
0110
1000
0000
0110
0000
,
0101
0000
1000
0011
0100
0000
1010
0000
1100
0000
0010
1001
0100
0000
0101
0000
,
1100
0000
0010
1100
0001
0000
0011
0000
1100
0000
0100
0011
1000
0000
0110
0000
,
1001
0000
0001
0110
1000
0000
1010
0000
0110
0000
0001
0110
1000
0000
1001
0000
,
0101
0000
0100
0011
1000
0000
0110
0000
0101
0000
1000
0110
1000
0000
0110
0000
,
0101
0000
1000
0011
0100
0000
1010
0000
1100
0000
0010
1001
0100
0000
0101
0000
,
1100
0000
0010
1100
0001
0000
0011
0000
1100
0000
0100
0011
1000
0000
0110
0000
,
1001
0000
0001
0110
1000
0000
1010
0000
0110
0000
0001
0110
1000
0000
1001
0000
,
0110
0000
0000
1001
0010
0000
1100
0000
0011
0000
0000
1010
0100
0000
1001
0000
,
0110
0000
0000
1010
0001
0000
0110
0000
1100
0000
0000
0011
1000
0000
1010
0000
,
0101
0000
0000
1010
0001
0000
0110
0000
1001
0000
0000
0011
1000
0000
0011
0000
,
0101
0000
0000
0011
0100
0000
1001
0000
0110
0000
0000
0101
0010
0000
0101
0000
,
0110
0000
0000
1001
0010
0000
1100
0000
0011
0000
0000
1010
0100
0000
1001
0000
,
0110
0000
0000
1010
0001
0000
0110
0000
1100
0000
0000
0011
1000
0000
1010
0000
,
0101
0000
0000
1010
0001
0000
0110
0000
1001
0000
0000
0011
1000
0000
0011
0000
,
0101
0000
0000
0011
0100
0000
1001
0000
0110
0000
0000
0101
0010
0000
0101
0000
,
1010
0000
0010
1100
0001
0000
0110
0000
1010
0000
0001
0110
0001
0000
0110
0000
,
1010
0000
0001
1100
0010
0000
0101
0000
0011
0000
0100
1001
0010
0000
1010
0000
,
0011
0000
0100
0011
1000
0000
1100
0000
0011
0000
0010
1100
0001
0000
0110
0000
,
1001
0000
1000
0110
0001
0000
0101
0000
0110
0000
1000
0110
0001
0000
1001
0000
,
1010
0000
0010
1100
0001
0000
0110
0000
1010
0000
0001
0110
0001
0000
0110
0000
,
1010
0000
0001
1100
0010
0000
0101
0000
0011
0000
0100
1001
0010
0000
1010
0000
,
0011
0000
0100
0011
1000
0000
1100
0000
0011
0000
0010
1100
0001
0000
0110
0000
,
1001
0000
0000
0000
0000
0000
0000
0000
0101
0000
0000
1010
0000
0000
1001
0000
,
0110
0000
0010
0100
0000
0010
0001
0000
0100
0000
0010
1000
0000
0100
1000
0000
,
0001
0010
0100
0000
1000
0010
0100
0000
0010
0000
0100
0010
1000
0010
0100
0000
,
0001
0010
0100
0000
0010
0001
1000
0000
0010
0000
0100
0001
0000
0100
0010
0000
,
1000
0100
0010
0000
0100
1000
0001
0000
0100
0000
0010
1000
0001
1000
0100
0000
,
1010
0000
0100
0010
0000
0100
1000
0000
0010
0000
0100
0001
0000
0010
0001
0000
,
1000
0100
0010
0000
0001
0100
0010
0000
0100
0000
0010
0100
0001
0100
0010
0000
,
1000
0100
0010
0000
0100
1000
0001
0000
0100
0000
0010
1000
0000
0010
0100
0000
,
0001
0010
0100
0000
0010
0001
1000
0000
0010
0000
0100
0010
1000
0001
0010
0000
,
1001
0000
0100
0010
0000
0100
1000
0000
0010
0000
0100
0001
0000
0010
0001
0000
,
1000
0100
0010
0000
0001
0100
0010
0000
0100
0000
0010
0100
0001
0100
0010
0000
,
1000
0100
0010
0000
0100
1000
0001
0000
0100
0000
0010
1000
0000
0010
0100
0000
,
0001
0010
0100
0000
0010
0001
1000
0000
0010
0000
0100
0001
1000
0001
0010
0000
,
1100
0000
0010
0100
0000
0010
0001
0000
0100
0000
0010
1000
0000
0100
1000
0000
,
0001
0010
0100
0000
1000
0010
0100
0000
0010
0000
0100
0010
1000
0010
0100
0000
,
0001
0010
0100
0000
0010
0001
1000
0000
0010
0000
0100
0001
0000
0100
0010
0000
,
1000
0100
0010
0001
0100
0010
0100
0010
1000
0100
0010
0100
1000
0010
0100
0001
,
1010
0000
0010
0000
0100
0000
1000
0001
1000
0000
0010
0000
0100
0001
0100
0010
,
1100
0001
0100
0000
0011
1000
0100
0000
1010
0000
0100
1000
0011
0100
0010
0000
,
1100
0010
0100
0000
1001
0010
0100
0000
0011
0000
0001
0100
0011
1000
0100
0000
,
1010
0100
0010
0000
0101
1000
0100
0000
1001
0000
0010
0100
0011
1000
0100
0000
,
1010
0001
0100
0000
1010
0100
0001
0000
0110
0000
0010
0100
1001
0010
1001
0000
,
1010
0100
1000
0000
0101
0010
0001
0000
1100
0000
0010
1000
0110
1000
0001
0000
,
0101
0010
1000
0000
0110
1000
0001
0000
1010
0000
0100
0010
1001
0100
0010
0000
,
0110
0001
1000
0000
1100
0010
0001
0000
0101
0000
0010
1000
0101
0010
0100
0000
,
1001
0100
0010
0000
1001
0010
0100
0000
0101
0000
1000
0010
1100
0001
1100
0000
,
0011
1000
0010
0000
1100
0001
0010
0000
0101
0000
0010
0001
1100
0010
0100
0000
,
0011
0100
0010
0000
1001
0100
0010
0000
1100
0000
1000
0010
1100
0001
0010
0000
,
0101
0010
0100
0000
1010
0001
0010
0000
0101
0000
0100
0010
1100
0001
0010
0000
,
0101
1000
0010
0000
0101
0010
1000
0000
0011
0000
0100
0010
1001
0100
1001
0000
,
1100
0010
0001
0000
1010
0100
1000
0000
0011
0000
0100
0001
1010
0001
1000
0000
,
0011
0100
0001
0000
0110
0001
1000
0000
0101
0000
0010
0100
1001
0010
0100
0000
,
0011
1000
0001
0000
0011
0100
1000
0000
1010
0000
0100
0001
1010
0100
0010
0000
,
1001
0000
0010
0000
0100
0000
1000
0000
0010
0000
0100
0000
0001
0000
0100
0000
0010
0000
1000
0000
0100
0000
1000
0000
0010
0100
0010
0100
0010
0100
0010
0100
,
1001
0000
0000
0000
;
